#TITLE:Sail AwaY;
#SUBTITLE:;
#ARTIST:Draigun;
#TITLETRANSLIT:;
#SUBTITLETRANSLIT:;
#ARTISTTRANSLIT:;
#CREDIT:;
#BANNER:sailaway.png;
#BACKGROUND:sailaway-bg.png;
#LYRICSPATH:;
#CDTITLE:!tank101title.png;
#MUSIC:Sail AwaY.mp3;
#OFFSET:-0.040;
#SAMPLESTART:35.503;
#SAMPLELENGTH:12.000;
#SELECTABLE:YES;
#BPMS:0.000=169.000;
#STOPS:;
#BGCHANGES:;
// cache tags:
#FIRSTBEAT:3.000;
#LASTBEAT:364.000;
#SONGFILENAME:Songs/Keyboard Collaboration I/Tank 101 - Sail AwaY/sailaway.sm;
#HASMUSIC:1;
#HASBANNER:1;
#MUSICLENGTH:129.280;
// end cache tags

//---------------dance-single - ----------------
#NOTES:
     dance-single:
     :
     Hard:
     11:
     1.000,1.000,0.859,0.124,1.000,894.000,111.000,16.000,0.000,0.000:
0000
0000
0000
1001
,
1001
0000
0100
0000
1000
0000
0100
0000
0001
0000
0100
0001
0000
0100
0001
0000
,
0010
0000
1000
0000
0010
0000
0100
0000
0010
0000
1000
0010
0000
1000
0010
0000
,
0001
0000
1000
0000
0010
0000
0100
0000
0001
0000
0010
0100
0000
0010
0100
0000
,
0001
0000
0100
0000
0010
0000
1000
0000
0010
0000
1000
0001
0000
1000
0001
0000
,
1001
0000
0010
0000
0100
0000
0010
0000
1000
0000
0001
0010
0000
0001
0010
0000
,
1000
0000
0010
0000
1000
0000
0001
0000
1000
0000
0100
1000
0000
0100
1000
0000
,
0010
0000
1000
0000
0001
0000
0100
0000
0010
0000
0100
0001
0000
0100
0001
0000
,
0010
0000
0100
0000
0001
0000
0100
0000
0001
0000
0010
0000
1000
0010
1000
0010
,
1001
0000
0100
0000
1000
0000
0100
0000
0001
0000
0100
0001
0000
0100
0002
0000
,
0010
0000
0103
0000
1000
0000
0010
0000
0100
0000
1000
0010
0000
1000
0020
0000
,
1000
0000
0130
0000
1000
0000
0100
0000
1000
0000
0010
0100
0000
0010
0100
0000
,
0001
0000
1000
0000
0001
0000
0100
0000
0010
0000
1000
0001
0000
1000
0001
0000
,
1001
0000
0010
0000
1000
0000
0010
0000
0100
0000
0100
0001
0000
0100
0002
0000
,
0100
0000
1003
0000
1000
0000
0010
0000
0100
0000
0100
1000
0000
0100
2000
0000
,
0010
0000
3001
0000
0010
0000
1000
0000
0010
0000
0100
0010
0000
0100
0010
0000
,
0010
0000
1000
0000
0010
0000
0100
0000
1000
0000
1000
0001
0000
1000
0001
0000
,
1001
0000
0010
0000
0101
0000
1000
0000
1100
0000
0010
0001
0000
0010
0001
0000
,
1010
0000
0100
0000
1001
0000
1000
0000
0110
0000
1000
0010
0000
1000
0010
0000
,
0101
0000
1000
0000
0110
0000
0010
0000
0011
0000
0100
0010
0000
0100
0010
0000
,
1001
0000
0010
0000
1100
0000
0001
0000
1010
0000
0100
0001
0000
0100
0001
0000
,
1001
0000
0010
0000
1100
0000
0010
0000
1001
0000
0010
0100
0000
0010
0100
0000
,
1010
0000
0001
0000
1100
0000
0010
0000
1001
0000
0001
1000
0000
0001
1000
0000
,
0110
0000
0100
0000
0011
0000
1000
0000
0101
0000
0100
1000
0000
0100
1000
0000
,
1001
0000
0010
0000
0101
0000
1000
0000
0110
0000
0001
1000
0000
0001
1000
0000
,
1001
0100
0001
0100
0001
1000
0100
0010
,
0001
0000
1000
0000
0001
0000
1000
0000
0001
0000
1001
0000
0000
0101
0000
0000
,
1001
0100
1000
0100
1000
0100
0010
0001
,
0010
1000
0010
1000
0010
0100
0001
0110
,
1001
0010
0100
0010
0100
1000
0100
0010
,
0001
0000
1000
0000
0010
0000
1000
0000
0010
0000
0101
0000
0000
1100
0000
0000
,
1001
0010
0100
0001
1000
0100
0010
0100
,
1001
0000
1000
0000
0001
0000
0100
0000
1001
0000
0010
0000
1001
0010
0100
1000
,
0110
0001
1000
0001
0100
0010
1000
0001
0010
0100
1000
0001
1000
0010
0100
0001
,
1000
0001
1000
0010
0100
0001
1000
0100
0010
0001
1000
0010
1000
0001
0010
0100
,
1000
0010
0100
0001
1000
0001
1000
0001
0010
0100
1000
0100
0010
0001
1000
0010
,
0100
0001
1000
0100
0010
0001
1000
0100
0010
0001
0010
0100
1000
0001
0010
0100
,
1000
0010
0100
0001
1000
0001
0100
0010
1000
0100
1000
0010
0100
0001
0010
0100
,
0010
0001
1000
0001
0100
0010
1000
0010
0100
0001
1000
0010
1000
0001
0010
0100
,
1000
0010
1000
0100
1000
0001
0100
0010
1000
0100
0010
0001
0010
0100
1000
0010
,
0100
0001
0010
0100
1000
0001
1000
0100
0010
0001
1000
0001
0100
0001
0010
0100
,
1001
0010
1000
0010
0100
0001
0100
0010
1000
0001
1000
0100
0010
0001
0010
0100
,
1000
0001
0010
0100
1000
0010
0100
0001
1000
0010
1000
0001
0100
0001
0010
0100
,
1000
0010
1000
0001
0100
0010
1000
0010
0100
0001
0010
0100
1000
0010
0100
0001
,
0010
0100
1000
0100
0010
0100
1000
0001
1000
0010
0100
0001
0010
0001
1000
0010
,
0100
0001
0100
0010
0100
0001
0010
0100
1000
0100
0010
0001
1000
0001
0010
0100
,
1000
0001
0100
0010
1000
0001
0010
0100
1000
0001
0100
0001
1000
0001
0100
0010
,
1000
0010
0100
0001
1000
0010
0100
0001
0010
0100
1000
0001
0100
0010
1000
0100
,
0010
0100
1000
0001
1000
0010
0100
0001
1000
0001
0010
0100
1000
0001
1000
0100
,
1001
0000
0010
0000
0101
0000
1000
0000
0110
0000
0001
0010
0000
0001
0010
0000
,
0101
0000
0001
0000
1100
0000
0100
0000
1010
0000
0100
0001
0000
0100
0001
0000
,
0110
0000
1000
0000
0011
0000
0001
0000
1010
0000
0100
0010
0000
0100
0010
0000
,
0101
0000
0010
0000
0011
0000
1000
0000
0110
0000
1000
0010
0000
1000
0010
0000
,
1001
0000
0001
0000
1100
0000
0100
0000
0011
0000
0010
0100
0000
0010
0100
0000
,
1010
0000
0001
0000
0110
0000
1000
0000
1001
0000
0010
1000
0000
0010
1000
0000
,
0110
0000
0100
0000
0101
0000
1000
0000
0011
0000
1000
0100
0000
1000
0100
0000
,
0101
0000
0010
0000
1100
0000
0010
0000
1001
0000
1000
0001
0000
1000
0010
0100
,
2001
0000
0000
0000
3010
0000
0100
0002
,
0000
0000
0003
1000
1000
0100
0100
0010
,
1002
0000
0000
0000
1003
0000
1000
0010
,
0000
0000
0000
0000
0000
0000
0001
0010
0100
0000
1001
0010
0000
0101
1000
0000
,
1002
0000
0000
0000
1003
0000
0100
0020
,
0000
0000
0030
0001
0001
0100
0100
0010
,
1002
0000
0000
0000
1003
0000
0010
0002
,
0000
0000
0000
0000
0000
0000
1003
0010
0100
0000
1001
0010
0100
0000
0100
0000
,
1002
0000
0000
0000
1003
0000
0100
0010
,
1001
0000
0000
0010
0010
0100
0100
0001
,
1002
0000
0000
0000
1003
0000
0010
0100
,
1001
0000
0000
0000
0000
0000
0010
1000
0010
0000
0010
1000
0000
0010
1000
0000
,
2001
0000
0000
0000
3010
0000
1000
0010
,
1001
0000
0000
0001
0001
1000
1000
0100
,
1001
0000
1001
0000
,
1001
0000
0000
0000
1001
0000
0000
0000
1001
0000
0000
0000
1001
0010
0100
0010
,
1001
0000
1000
0000
0110
0000
0010
0000
0101
0000
1000
0100
0000
1000
0100
0000
,
0011
0000
0010
0000
1010
0000
0100
0000
1001
0000
0100
0001
0000
0100
0001
0000
,
1001
0000
0100
0000
0011
0000
1000
0000
1100
0000
0010
1000
0000
0010
1000
0000
,
1001
0000
0010
0000
0101
0000
1000
0000
1100
0000
0010
0100
0000
0010
0100
0000
,
1001
0000
0001
0000
0101
0000
0010
0000
0110
0000
1000
0100
0000
1000
0100
0000
,
0011
0000
0001
0000
1010
0000
0100
0000
1001
0000
0100
0010
0000
0100
0010
0000
,
1100
0000
0010
0000
1010
0000
0001
0000
0011
0000
0001
1000
0000
0001
1000
0000
,
0110
0000
1000
0000
1001
0000
0001
0010
0001
0000
0100
1000
0100
0000
0010
0000
,
1001
0010
0100
1000
0010
0100
0001
1000
0001
0100
0010
1000
0100
1000
0001
0100
,
0001
1000
0100
0010
0001
1000
0001
1000
0010
0100
0001
0010
0001
1000
0010
1000
,
0100
1000
0100
0010
0001
0010
0100
1000
0001
0100
0001
0010
0100
1000
0001
0100
,
0010
1000
0010
0100
0010
1000
0100
0010
0001
0010
0100
1000
0100
0010
0100
1000
,
0010
1000
0001
0010
0100
1000
0010
0100
0001
0010
0100
0010
0001
1000
0010
1000
,
0001
0100
0010
1000
0100
0010
0001
0010
0001
1000
0010
1000
0010
0100
0001
0010
,
0100
1000
0001
0010
0100
1000
0010
0100
0001
1000
0010
0100
0001
1000
0100
0010
,
0001
1000
0001
0100
0010
1000
0010
0100
0001
0010
0100
1000
0100
0010
0001
0010
,
2002
0000
0000
0000
,
0000
0000
0000
0000
,
3003
0000
0000
0000
;
