#TITLE:華爛漫 -Flowers-;
#SUBTITLE:;
#ARTIST:ＴЁЯＲＡ;
#TITLETRANSLIT:hanaranman -flowers-;
#SUBTITLETRANSLIT:;
#ARTISTTRANSLIT:terra;
#CREDIT:;
#BANNER:;
#BACKGROUND:;
#LYRICSPATH:;
#CDTITLE:;
#MUSIC:Dance Dance Revolution SuperNOVA - Hana Ranman -Flowers-.mp3;
#OFFSET:-4.480;
#SAMPLESTART:86.940;
#SAMPLELENGTH:12.000;
#SELECTABLE:YES;
#BPMS:0.000=160.000;
#STOPS:152.000=1.160
;
#BGCHANGES:;
// cache tags:
#FIRSTBEAT:8.000;
#LASTBEAT:255.000;
#SONGFILENAME:Songs/cedric step/ -Flowers-/ -Flowers-.sm;
#HASMUSIC:1;
#HASBANNER:0;
#MUSICLENGTH:101.702;
// end cache tags

//---------------dance-single - ----------------
#NOTES:
     dance-single:
     :
     Hard:
     8:
     0.532,0.470,0.295,0.010,0.049,348.000,30.000,1.000,0.000,0.000:
0000
0000
0000
0000
,
0000
0000
0000
0000
,
1000
0000
0010
0000
0001
0100
0001
0000
,
1000
0000
0010
0001
0100
0000
1000
0000
,
0010
1000
0100
0000
0010
0001
0100
0000
,
0001
0010
0100
1000
0010
0000
1001
0000
,
0100
0000
0010
0100
0001
0000
1000
0100
,
0000
0010
0100
1000
0010
0000
0101
0000
,
0010
0000
1000
0001
0010
0000
0001
0100
,
0000
0010
0001
1000
0100
0000
0110
0000
,
1000
0000
0001
1000
0100
0000
0010
0001
,
0000
1000
0010
1000
0001
0000
0011
0000
,
0100
0000
0010
0100
1000
0000
0010
0001
,
0000
1000
0100
0001
0100
0000
1001
0000
,
0110
0000
1001
0000
0010
0001
0100
0000
,
1100
0000
0010
0100
1000
0000
0001
0000
,
1010
0000
0101
0000
1000
0001
0100
0000
,
1001
0000
0010
1000
0100
0000
1000
0000
,
0011
0000
1100
0000
0001
0100
0010
0000
,
1100
0000
0001
1000
0010
0000
0100
0000
,
1001
0000
0110
0000
1000
0001
0010
0000
,
2100
0000
0010
3001
,
0110
0000
1000
0010
0100
0000
0001
0010
,
0100
0000
0000
1000
0010
0000
1000
0000
0100
0000
0000
0000
0010
0000
0100
0000
,
1000
0000
0010
0100
1000
0000
0010
0001
,
0100
0000
0000
1000
0100
0000
0001
0000
0010
0000
0000
0000
0100
0000
1000
0000
,
0001
0000
0100
1000
0001
0000
1000
0100
,
0010
0000
0000
0100
1000
0000
0001
0000
0100
0000
0000
0000
1000
0000
0100
0000
,
0001
0000
1000
0100
0001
0000
0100
1000
,
0010
0000
0000
1000
0001
0000
0100
0000
0010
0000
0000
0000
1001
0000
0000
0000
,
0010
0000
0001
0000
0100
0001
1000
0000
,
0110
0000
1000
0010
0100
0000
0000
0000
,
0010
0000
1000
0000
0100
0001
0100
0000
,
1001
0000
0010
1000
0100
0000
0011
0000
,
1010
0000
0100
0001
0010
0000
0001
1000
,
0010
0100
0010
1000
0100
0000
0001
0000
,
0010
0000
0100
1000
0010
0000
1000
0001
,
0010
0001
0100
0001
1000
0000
0110
0000
,
0001
0000
0100
0000
0000
0010
0100
0000
,
0000
0001
0000
0010
0000
0100
1000
0000
,
0001
0100
1000
0000
0000
0010
0100
0000
,
0000
1000
0000
0010
0000
0001
1000
0000
,
0010
0100
0001
0000
0010
0100
1000
0000
,
0001
0000
0010
0000
1000
0000
0000
0010
0100
0000
1000
0000
0010
0000
0000
0000
,
0100
0001
0010
0000
0100
1000
0010
0000
,
1000
0000
0010
0000
0100
0000
0000
1000
0001
0000
0100
0000
0010
0000
0000
0000
,
1001
0000
0010
0100
1000
0000
0010
0100
,
1000
0000
0000
0000
0010
0000
0000
1000
0001
0000
0010
0000
0100
0000
0000
0000
,
0101
0000
0010
1000
0001
0000
0010
1000
,
0001
0000
0000
0000
0100
0000
0000
0001
0010
0000
0001
0000
0100
0000
0000
0000
,
1010
0000
0001
1000
0100
0000
0001
1000
,
0100
0000
0000
0000
0010
0000
0000
0100
0001
0000
1000
0000
0010
0000
0000
0000
,
0101
0000
1000
0010
0100
0000
1000
0010
,
0100
0000
0000
0000
0010
0000
0000
1000
0100
0000
0001
0000
0100
0000
0000
0000
,
1001
0000
0010
0000
0100
0010
0000
0001
,
1000
0010
0100
0000
0001
0100
0000
0010
,
0100
0001
0010
0000
1000
0010
0000
0001
,
1000
0100
1000
0000
0001
0000
0110
0000
,
0001
0100
0010
0000
0010
0100
0000
0001
,
1000
0010
1000
0000
0001
0010
0000
0100
,
1000
0010
0001
0000
0010
1000
0000
0001
,
0100
1000
0100
0000
0001
0000
1000
0010
,
1000
0000
0001
0000
0010
1000
0001
1000
,
0100
1000
0010
0001
0100
0001
0010
0000
;
