#TITLE:Lady Gaga Make Dance On My Dick;
#SUBTITLE:odaxelagnia Remix;
#ARTIST:Loffciamcore;
#TITLETRANSLIT:;
#SUBTITLETRANSLIT:;
#ARTISTTRANSLIT:;
#CREDIT:;
#BANNER:lady gaga mdomd bn.png;
#BACKGROUND:lady gaga mdomd bg.png;
#LYRICSPATH:;
#CDTITLE:;
#MUSIC:LGMDOMD odax.ogg;
#OFFSET:0.007;
#SAMPLESTART:29.649;
#SAMPLELENGTH:12.000;
#SELECTABLE:YES;
#DISPLAYBPM:200.000;
#BPMS:0.000=200.000,68.000=10.000,68.042=1150.000,69.000=10.000,69.021=1150.000,69.500=10.000,69.542=1150.000,70.500=10.000,70.542=1150.000,71.500=10.000,71.542=1150.000,72.500=10.000,72.542=1150.000,73.500=10.000,73.521=1150.000,74.000=20.000,74.063=1100.000,74.750=20.000,74.813=1100.000,75.500=10.000,75.521=1150.000,76.000=10.000,76.042=1150.000,77.000=10.000,77.021=1150.000,77.500=10.000,77.542=1150.000,78.500=10.000,78.542=1150.000,79.500=10.000,79.542=1150.000,80.500=10.000,80.542=1150.000,81.500=10.000,81.521=1150.000,82.000=20.000,82.063=1100.000,82.750=20.000,82.813=1100.000,83.500=10.000,83.521=1150.000,84.000=200.000,86.500=10.000,86.542=1150.000,87.500=10.000,87.542=1150.000,88.500=10.000,88.542=1150.000,89.500=10.000,89.521=1150.000,90.000=20.000,90.063=1100.000,90.750=20.000,90.813=1100.000,91.500=10.000,91.521=1150.000,92.000=200.000,95.500=10.000,95.542=1150.000,96.500=200.000,97.000=800.000,97.021=9999999.000,105.000=100.000,106.000=200.000,155.000=100.000,155.250=300.000,156.000=200.000;
#STOPS:;
#BGCHANGES:;
// cache tags:
#FIRSTBEAT:3.000;
#LASTBEAT:363.000;
#SONGFILENAME:Songs/SPEEEDCOOOORE 3/LGMDOMD odaxelagnia Remix - [Tyler]/LGMDOMD odax.sm;
#HASMUSIC:1;
#HASBANNER:1;
#MUSICLENGTH:116.538;
// end cache tags

//---------------dance-single - T. Moore----------------
#NOTES:
     dance-single:
     T. Moore:
     Challenge:
     12:
     0.982,1.000,0.815,0.077,0.665,692.000,95.000,9.000,17.000,0.000:
0000
0000
0000
M00M
,
1010
0000
0000
0101
0000
0000
1001
0000
,
0010
0000
1100
0000
0000
1100
0000
0000
,
0011
0000
0000
1001
0000
0000
0101
0000
,
0010
0000
0010
0000
0010
0000
0010
0000
1000
0000
0001
0000
1000
0100
1000
0000
,
1001
0001
0010
1100
0000
0000
0011
0000
,
0100
0000
1010
0000
1000
1100
0100
0010
,
0011
0000
1000
1010
0000
0000
0101
0000
,
1001
1000
1001
0001
0011
0000
1100
1000
,
1001
0000
0001
0000
0100
0000
0010
1000
0001
1000
0100
0000
0110
0000
0010
0000
,
0001
0000
1000
0100
1000
0000
0001
0000
1000
0000
0010
0100
0010
1000
0001
0000
,
0101
0000
0100
0000
0001
0000
0100
0010
0100
0001
1000
0000
1100
0000
0100
0000
,
0010
0001
0010
0000
0001
1000
0001
0010
0100
0000
1000
0000
0001
0100
0010
0000
,
1001
0000
1000
0000
0100
0000
0010
0001
1000
0010
1000
0001
1000
0000
0010
0000
,
1000
0000
0001
0010
0100
0000
0100
0000
1000
0000
0001
0010
0100
0000
1100
0000
,
1001
0000
0000
0000
0000
0000
0001
0000
0000
0000
0000
0000
0100
0000
0000
0000
0000
0000
0010
0000
0000
1000
0000
0000
0001
0000
0000
0100
0000
0000
0001
0000
1000
0000
0001
0000
1000
0000
0000
0000
0000
0000
0001
0000
0000
0000
0000
0000
,
1001
0000
1000
0000
0001
0100
0001
0100
0010
1000
0001
0100
0001
1000
0100
1000
,
0001
0000
1000
0100
0000
1000
0000
1000
,
0000
0000
0001
0000
0000
0000
0100
0000
0010
0000
0000
0010
0000
0000
1000
0000
,
0001
0000
0001
1000
0000
0100
0000
0100
,
0000
0000
0010
0000
0000
0000
0001
0000
1000
0000
0000
1000
0000
0000
0001
0000
,
1000
0010
1000
0001
0010
0000
0100
0000
0100
0000
1000
0000
0000
0000
1000
0000
,
0000
0000
0001
0000
0000
0000
0100
0000
0010
0000
0000
0010
0000
0000
1000
0000
,
0001
0010
0100
0000
0100
0000
1000
0000
0001
0100
0010
0000
1000
0001
0010
0000
,
0000
0000
0100
1000
0001
0000
0000
0000
0000
0000
0000
0000
0000
0000
0000
0000
,
0000
0000
0000
0000
,
0000
0000
0000
0000
0M00
0M00
0M00
0M00
0020
0030
0000
0000
1001
0000
0001
0000
,
0100
0000
0010
1000
0001
0000
0001
0000
1000
0000
0100
0000
0110
0000
0000
0000
,
0011
0000
0000
0000
0000
0000
1001
0000
0000
0000
0000
0000
1010
0000
0000
0000
0000
0000
0110
0000
0000
0100
0001
0100
,
0001
0000
0001
1000
0100
0000
0010
0001
0100
0000
0001
0000
1000
0001
0010
0001
,
1000
0001
0010
0001
0200
0000
0000
0000
0000
0000
0000
0300
1010
0000
0010
1000
,
0001
0000
0000
0000
0000
0000
1000
0000
0000
0001
0000
0000
0010
0000
0000
0000
0000
0000
0100
0000
1000
0000
0100
0000
1000
0000
0000
0000
0000
0000
0001
0000
0000
1000
0000
0000
0001
0000
0000
0000
0000
0000
0000
0000
0000
0000
0000
0000
,
0101
0000
0000
0000
0000
0000
0110
0000
0000
0000
0000
0000
1010
0000
0000
1000
0001
1000
0001
0000
0000
1000
0100
1000
,
0100
0000
0000
0000
0000
0000
0040
0000
0000
0000
0000
0000
0031
0000
0000
0000
0000
0000
1000
0000
0000
0001
0000
0000
1000
0000
0010
0000
0100
0000
0001
0000
0000
0000
0000
0000
1000
0000
0000
0000
0000
0000
0001
0000
0000
0000
0000
0000
,
1000
0100
1000
0100
0020
0000
0000
0030
1MM1
0000
1000
0000
1001
0000
0001
0000
,
0010
0000
0100
1000
0001
0000
0001
0000
0010
0000
0001
1000
0010
0000
1000
0000
,
0100
0000
1000
0001
0100
0000
0001
0000
0010
0100
0010
0100
1000
0000
1000
0000
,
0100
1000
0100
1000
0001
0000
0001
0000
0100
0000
0001
0000
0010
0000
0004
0003
,
0100
0000
0004
0003
1000
0000
0004
0003
0100
0010
0100
0010
1000
0000
0000
0000
,
1001
0000
0001
1000
0010
0000
0010
0000
0100
0000
0010
1000
0001
0000
0010
0000
,
0100
0000
0010
0000
0001
1000
0040
0030
0100
0000
0001
0000
1000
0000
1000
0000
,
0100
0010
0100
0010
0001
0000
0001
0000
0100
0000
0001
0000
1001
0000
1000
0100
,
0010
0000
0000
0000
0000
0000
0001
0000
1000
0000
0001
0000
1000
0000
0000
0000
0000
0000
0010
0000
0000
0000
0000
0000
0100
0000
0000
0000
0000
0000
0001
0000
0000
1000
0000
0000
0200
0000
0000
0000
0000
0000
0300
0000
0000
0000
0000
0000
,
0010
0011
0000
0000
0101
0000
1020
1030
,
0001
0000
0010
0100
0010
0100
1000
0000
0000
0000
0000
0000
2001
0000
3001
0000
,
0100
0110
0000
0000
1010
0000
2001
3001
,
0010
0000
0100
1000
0100
1000
0001
0000
0101
0000
0100
0000
0010
0000
1000
0000
,
1001
0000
1001
0001
0010
0100
1000
0010
,
0100
0000
0010
1000
0001
0000
0010
0000
0110
0000
0000
0000
1100
0000
1000
0000
,
0000
0000
1001
0000
0001
0000
0000
0000
0104
0003
0100
0000
0110
0000
0010
0000
,
1000
0000
0000
0000
0000
0000
0000
0000
0000
0000
0000
0000
0000
0000
0000
0000
0000
0000
0000
0000
0000
0000
0000
0000
0010
0000
0000
0000
0000
0000
0000
0000
0000
0000
0000
0000
0100
0000
0000
0000
0000
0000
0000
0000
0000
0000
0000
0000
0001
0000
0000
0000
0000
0000
0000
0000
0000
0000
1000
0000
0000
0000
0000
0000
0000
0000
0000
0100
0000
0000
0000
0000
0000
0000
0000
0000
0000
0010
0000
0000
0000
0000
0000
0000
0000
0000
0001
0000
0000
0000
0000
0000
0000
0000
0000
0000
1000
0000
0000
0000
0000
0000
0000
0000
0000
0000
0000
0000
0000
0000
0000
0000
0000
0000
0000
0000
0000
0000
0000
0000
0001
0000
0000
0000
0000
0000
0000
0000
0000
0000
0000
0000
0000
0000
0000
0000
0000
0000
0000
0000
0000
0000
0000
0000
0101
0000
0000
0000
0000
0000
0000
0000
0000
0000
0000
0000
0000
0000
0000
0000
0000
0000
0000
0000
0000
0000
0000
0000
0100
0000
0000
0000
0000
0000
0000
0000
0000
0000
0000
0000
0000
0000
0000
0000
0000
0000
0000
0000
0000
0000
0000
0000
,
0000
1010
0000
0000
1100
0400
0310
0000
,
0010
0000
0010
0000
0001
0000
1000
0000
0001
0000
0100
0010
1000
0000
0001
0000
,
1000
0000
0000
0000
0000
0000
0100
0000
0000
0000
0000
0000
0010
0000
0000
0001
0000
0000
0010
0000
0000
0001
0000
0000
1000
0000
0000
0000
0000
0000
0001
0000
0100
0000
0001
0000
0100
0000
0000
0000
0000
0000
0010
0000
0000
0000
0000
0000
,
1000
1000
0001
0001
0001
0001
1000
0100
,
0010
0001
0010
0001
1000
0010
1000
0010
0100
0001
0100
0001
1000
0000
1000
0000
,
1000
0000
1000
0000
0200
0000
0000
0000
0300
0000
0000
0000
0010
0000
0001
1000
,
0001
0100
0010
1000
0001
0000
1000
0000
0010
1000
0010
1000
0001
0000
0001
0000
,
1000
0000
0001
0010
0100
1000
0100
1000
0001
0100
0001
0100
M01M
0000
0000
0000
,
1010
M0M0
1000
M000
,
0001
0000
1000
0010
0100
0001
0001
1000
,
0100
0010
0001
0001
0100
0010
1000
1000
,
0010
0000
0100
0000
0001
0000
1000
0000
0100
0000
M010
0000
0001
1000
0001
1000
,
0010
0100
0010
1000
0001
0100
0001
0100
0010
1000
0010
1000
0001
0010
0001
0010
,
0100
1000
0100
0010
0001
1000
0001
0010
0001
1000
0010
0100
0001
1000
0001
0100
,
0010
1000
0010
1000
0001
0010
0001
0010
0100
1000
0100
1000
00M1
0000
0000
0000
,
0001
0000
0001
0000
0001
0000
0102
0103
,
0010
0000
1000
0001
1000
0000
1000
0000
0010
0000
1000
0000
0001
0000
0010
0000
,
0100
0000
1000
0000
1000
0000
0001
0000
0010
0001
0010
0001
0100
0000
0001
0000
,
1000
1000
0010
0010
0100
0010
1000
0100
,
0010
0000
0001
0000
0100
0000
0010
0000
1000
0001
1000
0001
1000
0000
0100
0000
,
0010
0000
0001
1000
0001
0000
0001
0000
0100
0000
0001
0000
1000
0000
0010
0000
,
0100
0000
0010
0000
1000
0000
0010
0000
0100
0001
0100
0001
1000
0000
0100
0000
,
0010
0001
0001
0100
0010
1000
1000
0001
,
0010
0000
0100
0000
0010
0001
0010
0001
0010
0000
0000
0000
1001
0000
0000
0000
,
0101
0110
1010
1001
,
1100
0000
0110
0000
0011
0001
1001
1000
,
0010
0000
0010
0000
0100
0000
0100
0000
0001
0000
0001
0000
1000
0000
0000
0100
,
0000
0000
0010
0000
0001
0000
0001
0000
1000
0010
1000
0010
0100
0000
0000
0000
,
0101
1001
1100
0110
,
0011
0000
1001
0000
1000
0010
0110
0100
,
0110
0000
0010
0000
1010
0000
1000
0000
1001
0000
0001
0000
0011
0000
0000
1100
,
0000
0000
1001
0000
0001
0100
0010
1000
0001
0000
0000
0000
11MM
0000
0000
0000
,
0000
0011
0000
0000
1001
0000
0000
0000
,
0101
0000
0000
0101
0000
0000
1010
0000
,
0000
0011
0000
0000
1100
0000
0000
0000
,
1001
0000
0000
1001
0000
0000
0001
0000
,
0000
0010
0000
0000
0100
0000
0000
0000
,
1000
0000
0000
1000
0000
0000
0001
0000
,
0000
0100
0000
0000
0001
0000
0100
0000
,
0100
0000
0010
0000
0100
0001
1000
0000
;
