#TITLE:Flight Of The Bumblebee;
#SUBTITLE:;
#ARTIST:Joe Satriani;
#TITLETRANSLIT:;
#SUBTITLETRANSLIT:;
#ARTISTTRANSLIT:;
#CREDIT:;
#BANNER:fotbb-banner.PNG;
#BACKGROUND:fotbb-bg.PNG;
#LYRICSPATH:;
#CDTITLE:;
#MUSIC:Joe Satriani - Flight Of The Bumblebee (John Petrucci & Joe Satriani).mp3;
#OFFSET:-0.220;
#SAMPLESTART:42.301;
#SAMPLELENGTH:12.000;
#SELECTABLE:YES;
#BPMS:0.000=141.840;
#STOPS:;
#BGCHANGES:;
// cache tags:
#FIRSTBEAT:0.000;
#LASTBEAT:130.000;
#SONGFILENAME:Songs/IzzySM Keyboard Mega Pack/Flight Of The Bumblebee (guitar)/fotbb.sm;
#HASMUSIC:1;
#HASBANNER:1;
#MUSICLENGTH:55.168;
// end cache tags

//---------------dance-single - ----------------
#NOTES:
     dance-single:
     :
     Challenge:
     1:
     1.000,1.000,0.000,0.109,1.000,570.000,0.000,6.000,0.000,0.000:
1000
0100
0010
0001
0020
0000
0000
0000
,
0000
0000
0000
0000
0000
0000
0000
0000
0000
0000
0000
0000
0000
0000
0000
0030
0000
1000
0000
0100
0000
0010
0000
0001
,
0000
0000
0010
0000
0000
0000
0100
0000
0000
0000
1000
0000
0000
0000
0010
0000
0000
0000
0100
0000
0000
0001
0000
0000
0010
0000
0000
0100
0000
0000
1000
0000
0000
0100
0000
0000
1000
0000
0000
0001
0000
0000
0010
0000
0000
0001
0000
0000
,
1000
0100
0010
0001
1000
0100
0010
0001
1000
0010
0100
0001
0100
0010
1000
0100
0010
0001
0010
0100
1000
0100
0010
0001
,
1000
0100
1000
0100
1000
0100
1000
0100
1000
0100
1000
0100
1000
0100
1000
0100
1000
0100
1000
0100
1000
0100
1000
0100
,
1000
0001
1000
0001
1000
0001
1000
0100
0010
0001
0010
0001
1000
0100
1000
0001
1000
0010
0100
0001
0010
0100
1000
0100
,
0010
0001
0010
0001
1000
0100
0010
0001
1000
0100
0010
0001
1000
0010
0100
0001
0010
0100
1000
0001
0100
0010
0100
0010
,
0100
0010
0100
1000
0100
0010
0100
1000
0010
0100
0001
0010
0100
0010
0001
0010
0001
0010
0100
1000
0100
1000
0001
0010
,
0001
0010
0100
1000
0100
1000
0100
0010
0100
1000
0100
0010
0001
0010
0001
0010
0001
0010
0001
0010
0100
0010
0100
0010
,
0100
1000
0100
0010
0001
0010
0100
0010
0001
0010
0100
1000
0100
1000
0010
0100
0001
0010
0001
1000
0100
1000
0010
0100
,
0010
0001
0010
0100
1000
0100
0010
0100
1000
0100
0010
0001
0010
0100
0010
0001
0010
0100
1000
0100
0010
0100
1000
0100
,
1000
0001
0010
0001
0010
0100
1000
0100
0010
0001
0100
0010
1000
0010
0100
0001
0010
0100
1000
0100
0010
0001
0010
0001
,
0010
0100
1000
0100
1000
0010
0100
0001
0100
0010
1000
0100
1000
0001
0010
0001
1000
0100
1000
0100
0010
0001
0010
0100
,
2000
0000
0000
0000
0000
0000
3001
0010
0001
0010
0001
0010
0001
0010
0100
2000
0000
0000
0000
0000
0000
0000
0000
0000
,
0000
3000
0001
1000
0001
1000
0001
0010
0100
1000
0000
0001
0010
0001
0010
0001
0010
0001
0010
0100
1000
0010
0100
0001
,
0010
0100
1000
0100
0010
0100
1000
0100
0010
0001
0010
0100
0010
0001
0010
0100
1000
0100
0010
0001
0100
0010
1000
0100
,
1000
0100
1000
0100
1000
0100
1000
0001
1000
0001
1000
0001
1000
0010
1000
0010
1000
0010
1000
0100
0010
0001
0010
0100
,
1000
0100
0010
0001
0010
0001
0010
0100
1000
0100
0010
0001
0100
0010
1000
0100
1000
0001
0010
0001
0010
0100
1000
0100
,
1000
0100
0010
0001
0010
0001
0010
0100
1000
0010
0100
0001
0010
0001
1000
0100
0010
0001
0010
0100
1000
0100
0010
0001
,
0010
0100
1000
0100
0010
0100
1000
0010
0100
0001
0010
0001
1000
0100
1000
0100
0010
0001
0010
0100
0010
0001
0010
0100
,
1000
0010
0100
0001
1000
0010
0100
0001
1000
0100
0010
0001
1000
0100
0010
0001
1000
0100
0010
0001
0010
0100
1000
0100
,
0010
0100
1000
0001
1000
0010
0100
0001
0100
0001
0100
0001
0100
0001
0100
0001
0100
0010
1000
0010
1000
0010
1000
0010
,
1000
0100
0010
0001
0010
0100
1000
0100
0010
0100
1000
0010
0100
0001
0010
0001
0010
0001
0010
0001
0010
0100
0010
0100
,
0010
0100
0010
0100
0010
0100
1000
0100
1000
0100
1000
0001
1000
0001
1000
0100
0010
0001
0010
0100
1000
0100
0010
0001
,
0010
0100
1000
0010
0100
0001
0010
0100
0010
0001
0010
0100
1000
0010
0100
0001
1000
0010
0100
0001
1000
0100
0010
0001
,
1000
0000
0100
0000
0010
0000
0001
0000
1000
0000
0100
0000
0010
0000
0001
0000
1000
0000
0100
0000
0010
0000
0001
0000
1000
0000
0000
0100
0000
0000
0010
0000
0000
0001
0000
0000
1000
0000
0000
0100
0000
0000
0010
0000
0000
0001
0000
0000
,
1000
0010
0100
0001
1000
0010
0100
0001
0010
0100
2000
3002
,
0000
0000
0000
0000
,
0000
0000
0000
0000
,
0000
0000
0000
0000
,
0000
0000
0000
0000
0000
0000
0000
0000
0000
0000
0000
0003
,
1000
0100
0002
0000
0000
0000
0000
0000
,
0000
0000
0003
0000
;
