#TITLE:Vertex Gamma;
#SUBTITLE:~Zonda~;
#ARTIST:Silvia;
#TITLETRANSLIT:;
#SUBTITLETRANSLIT:;
#ARTISTTRANSLIT:;
#CREDIT:;
#BANNER:../bn.png;
#BACKGROUND:../bg.png;
#LYRICSPATH:;
#CDTITLE:;
#MUSIC:Vertex Gamma Zonda.ogg;
#OFFSET:1.125;
#SAMPLESTART:89.300;
#SAMPLELENGTH:18.020;
#SELECTABLE:YES;
#DISPLAYBPM:215.000;
#BPMS:0.000=215.040;
#STOPS:;
#BGCHANGES:;
// cache tags:
#FIRSTBEAT:32.000;
#LASTBEAT:515.500;
#SONGFILENAME:Songs/Cirque du Zonda/Zaia - Vertex Gamma (Zonda)/Vertex Gamma Zonda.sm;
#HASMUSIC:1;
#HASBANNER:1;
#MUSICLENGTH:146.018;
// end cache tags

//---------------dance-single - Zaia - 16.9----------------
#NOTES:
     dance-single:
     Zaia - 16.9:
     Challenge:
     16:
     1.000,1.000,0.021,0.116,1.000,1472.000,3.000,17.000,0.000,0.000:
0000
0000
0000
0000
,
0000
0000
0000
0000
,
0000
0000
0000
0000
,
0000
0000
0000
0000
,
0000
0000
0000
0000
,
0000
0000
0000
0000
,
0000
0000
0000
0000
,
0000
0000
0000
0000
,
0001
0000
0000
0000
0000
0000
1000
0000
0000
0000
0010
0000
1000
0001
1000
0001
,
0100
0010
1000
0001
0010
0100
1000
0001
1000
0010
1000
0100
0010
0001
1000
0010
,
1000
0001
0010
0100
1000
0001
0100
0010
1000
0001
0100
0001
0010
0100
1000
0001
,
1000
0010
1000
0001
0010
0100
1000
0001
1000
0010
1000
0100
0010
0001
0100
0001
,
1000
0001
0010
0100
1000
0001
0100
0010
1000
0001
0100
0001
0010
0100
1000
0001
,
0100
0001
1000
0100
0010
0001
1000
0001
0010
0001
0100
0010
1000
0100
1000
0001
,
1000
0010
0100
0001
1000
0100
0010
0001
1000
0100
1000
0010
0100
0001
1000
0001
,
0010
0001
1000
0010
0100
0001
1000
0001
0010
0001
0100
0010
1000
0100
1000
0001
,
1000
0010
0100
0001
1000
0100
0010
0001
1000
0100
1000
0010
0100
0001
0010
0001
,
1000
0010
1000
0001
0010
0100
1000
0001
1000
0010
1000
0100
0010
0001
0100
0001
,
1000
0001
0010
0100
1000
0001
0100
0010
1000
0001
0100
0001
0010
0100
1000
0001
,
1000
0010
1000
0001
0010
0100
1000
0001
1000
0010
1000
0100
0010
0001
0100
0001
,
1000
0001
0010
0100
1000
0001
0100
0010
1000
0001
0100
0001
0010
0100
1000
0001
,
0100
0001
1000
0100
0010
0001
1000
0001
0010
0001
0100
0010
1000
0100
1000
0001
,
1000
0010
0100
0001
1000
0100
0010
0001
1000
0100
1000
0010
0100
0001
1000
0001
,
0010
0001
1000
0010
0100
0001
1000
0001
0010
0001
0100
0010
1000
0100
1000
0001
,
1000
0010
0100
0001
1000
0100
0010
0001
1000
0100
1000
0010
0100
0001
1000
0010
,
0100
0001
0100
0001
1000
0010
1000
0010
0100
0001
0010
0100
1000
0001
1000
0100
,
0010
0001
0010
0001
1000
0100
1000
0100
0010
0001
0100
0010
1000
0001
1000
0010
,
0100
0001
0100
0001
1000
0010
1000
0010
0100
0001
0010
0001
1000
0010
0100
0010
,
1000
0001
1000
0001
0010
0100
0010
0100
1000
0001
0100
0010
1000
0001
1000
0100
,
0010
0001
0010
0001
1000
0100
1000
0100
0010
0001
0100
0010
1000
0001
1000
0010
,
0100
0001
0100
0001
1000
0010
1000
0010
0100
0001
0010
0100
1000
0001
1000
0100
,
0010
0001
0010
0001
1000
0100
1000
0100
0010
0001
0100
0001
1000
0100
0010
0100
,
1000
0001
1000
0001
0100
0010
0100
0010
1000
0001
0010
0100
1000
0010
1000
0001
,
0100
0010
1000
0010
1000
0001
0100
0001
0100
0010
1000
0100
0010
0001
1000
0001
,
0010
0100
1000
0100
1000
0001
0010
0001
0010
0100
1000
0010
0100
0001
1000
0001
,
0100
0010
1000
0010
1000
0001
0100
0001
0100
0010
1000
0100
1000
0001
0100
0010
,
0100
0001
1000
0001
1000
0100
0010
0100
0010
0001
1000
0010
0100
0001
1000
0001
,
0010
0100
1000
0100
1000
0001
0010
0001
0010
0100
1000
0010
0100
0001
1000
0001
,
0100
0010
1000
0010
1000
0001
0100
0001
0100
0010
1000
0100
0010
0001
1000
0001
,
0010
0100
1000
0100
1000
0001
0010
0001
0010
0100
1000
0010
1000
0001
0010
0100
,
0010
0001
1000
0001
1000
0010
0100
0010
0100
0001
1000
0100
0010
0001
1000
0010
,
0200
0000
0000
0000
,
0302
0000
2003
0000
,
3200
0000
0000
0000
,
0320
0000
0000
0000
,
0032
0000
0000
0000
,
2003
0000
3020
0000
,
0230
0000
0300
0000
,
0000
0000
0000
0000
,
0002
0000
0000
0000
,
2003
0000
3200
0000
,
0320
0000
0030
0000
,
0000
0000
0002
0000
,
2003
0000
0000
0000
,
3000
0000
0020
0000
,
0230
0000
0000
0000
,
0300
0000
0000
0000
,
0001
0000
0000
0100
0000
0000
0010
0000
1000
0000
0000
0001
0000
0000
0010
0000
,
0100
0000
0000
1000
0000
0000
0001
0000
0100
0000
0000
0100
0000
0000
0100
0000
,
0010
0000
0000
1000
0000
0000
0001
0000
0010
0000
0000
0100
0000
0000
0010
0000
,
0001
0000
0000
1000
0000
0000
0001
0000
0010
0000
0000
0010
0000
0000
0010
0000
,
0100
0000
0000
0010
0000
0000
0001
0000
1000
0000
0000
1000
0000
0000
1000
0000
,
0010
0000
0000
1000
0000
0000
0001
0000
0100
0000
0000
0100
0000
0000
0100
0000
,
0010
0000
0000
1000
0000
0000
0001
0000
0010
0000
0000
0100
0000
0000
1000
0000
,
0001
0000
0000
1000
0000
0000
0010
0000
0100
0000
0000
0001
0000
0000
1000
0000
,
0010
0100
0001
1000
0001
0100
0010
1000
0100
0010
0001
1000
0100
1000
0001
0010
,
0001
0100
0010
1000
0001
0100
0001
1000
0010
1000
0100
0010
0100
1000
0001
0010
,
0001
0100
0010
0100
0001
1000
0001
0100
0001
0010
0100
1000
0100
0010
0001
1000
,
0100
1000
0010
0100
0001
1000
0100
0010
0001
0100
0001
1000
0100
1000
0001
0010
,
0100
0010
0001
1000
0001
0010
0100
1000
0010
0100
0001
1000
0010
1000
0001
0100
,
0001
0010
0100
1000
0001
0010
0001
1000
0100
1000
0010
0100
0010
1000
0001
0100
,
0001
0010
0100
0010
0001
1000
0001
0010
0001
0100
0010
1000
0010
0100
0001
1000
,
0010
1000
0100
0010
0001
1000
0010
0100
0001
0010
0001
1000
0010
1000
0001
0100
,
0010
0000
0000
1000
0000
0000
0001
0000
0010
0000
0000
0100
0000
0000
1000
0000
,
1001
0000
0000
0001
0000
0000
0100
0000
0010
0000
0000
1000
0000
0000
0001
0000
,
0101
0000
0000
0100
0000
0000
0010
0000
1010
0000
0000
1000
0000
0000
0100
0000
,
0010
0001
0100
0010
1000
0100
0010
0001
0100
0010
1000
0100
0010
0001
0100
0010
,
1000
0100
0010
0001
0100
0010
1000
0100
0010
0100
1000
0010
0100
0001
0010
0100
,
1000
0010
0100
0001
0010
0100
1000
0010
0100
0001
0010
0100
1000
0010
0100
0001
,
0010
0000
0000
0001
0000
0000
0010
0000
0100
0000
0000
1000
0000
0000
0010
0000
,
0000
0000
0000
0000
,
1000
0100
0010
0001
1000
0001
0100
0001
1000
0100
1000
0001
0100
0010
1000
0001
,
0100
0001
0010
0100
1000
0100
0010
0001
1000
0001
0100
0010
0100
0001
1000
0001
,
0010
0100
1000
0001
1000
0100
1000
0001
0100
0001
1000
0010
0100
0001
1000
0001
,
0010
0100
0010
0001
1000
0100
0010
0001
1000
0010
0100
0001
1000
0001
0100
0010
,
1000
0100
1000
0001
0100
0001
1000
0001
0010
0100
0010
0001
1000
0001
1000
0010
,
0100
0001
0010
0001
1000
0010
1000
0001
1000
0100
0010
0100
1000
0001
1000
0001
,
0100
0010
0100
0001
1000
0010
0100
0001
0010
0100
1000
0001
0010
0001
1000
0001
,
0100
0010
1000
0010
0100
0001
1000
0100
1000
0001
0010
0100
1000
0001
1000
0001
,
1000
0010
0100
0001
1000
0001
0010
0001
1000
0010
1000
0001
0010
0100
1000
0001
,
0010
0001
0100
0010
1000
0010
0100
0001
1000
0001
0010
0100
0010
0001
1000
0001
,
0100
0010
1000
0001
1000
0010
1000
0001
0010
0001
1000
0100
0010
0001
1000
0001
,
0100
0010
0100
0001
1000
0010
0100
0001
1000
0100
0010
0001
1000
0001
0010
0100
,
1000
0010
1000
0001
0010
0001
1000
0001
0100
0010
0100
0001
1000
0001
1000
0100
,
0010
0001
0100
0001
1000
0100
1000
0001
1000
0010
0100
0010
1000
0001
1000
0001
,
0010
0100
0010
0001
1000
0100
0010
0001
0100
0010
1000
0001
0100
0001
1000
0001
,
0010
0100
1000
0100
0010
0001
1000
0010
1000
0001
0100
0010
1000
0001
1000
0001
,
0010
0100
0010
0001
1000
0001
0100
0010
1000
0001
0010
0001
1000
0010
0100
0001
,
1000
0010
1000
0100
0010
0001
0010
0100
1000
0001
1000
0010
0100
0010
1000
0001
,
1000
0100
0010
0001
1000
0001
0010
0001
1000
0010
1000
0001
0100
0010
1000
0001
,
1000
0100
0010
0100
1000
0001
0010
0100
1000
0001
0100
0010
1000
0001
1000
0010
,
0100
0001
0010
0001
1000
0010
1000
0001
1000
0100
0010
0100
1000
0001
1000
0001
,
0100
0010
1000
0100
1000
0001
0100
0001
1000
0001
0010
0100
0010
0001
1000
0001
,
1000
0010
0100
0010
1000
0001
0100
0010
1000
0100
0010
0001
1000
0100
1000
0001
,
1000
0010
0100
0001
0100
0010
1000
0001
0010
0001
1000
0100
0010
0001
1000
0001
,
1000
0001
0100
0010
1000
0001
1000
0100
1000
0001
0100
0001
1000
0100
0010
0001
,
1000
0100
1000
0010
0100
0001
0100
0010
1000
0001
1000
0100
0010
0100
1000
0001
,
1000
0010
0100
0001
1000
0001
0100
0001
1000
0100
1000
0001
0010
0100
1000
0001
,
1000
0010
0100
0010
1000
0001
0100
0010
1000
0001
0010
0100
1000
0001
1000
0100
,
0010
0001
0100
0001
1000
0100
1000
0001
1000
0010
0100
0010
1000
0001
1000
0001
,
0010
0100
1000
0010
1000
0001
0010
0001
1000
0001
0100
0010
0100
0001
1000
0001
,
1000
0100
0010
0100
1000
0001
0010
0100
1000
0010
0100
0001
1000
0010
1000
0001
,
1000
0100
0010
0001
0010
0100
1000
0001
0100
0001
1000
0010
0100
0001
1000
0001
,
0010
0100
1000
0001
0100
0010
1000
0001
1000
0100
1000
0010
0100
0001
1000
0100
,
1000
0001
0100
0010
1000
0001
0010
0100
1000
0001
0010
0001
0100
0010
1000
0001
,
1000
0100
1000
0001
0100
0010
1000
0001
1000
0100
1000
0010
0100
0001
0010
0001
,
1000
0001
0100
0010
1000
0001
0010
0100
1000
0001
0010
0001
0100
0010
1000
0001
,
0010
0001
1000
0010
0100
0001
1000
0001
0100
0001
0010
0100
1000
0010
1000
0001
,
1000
0100
0010
0001
1000
0010
0100
0001
1000
0010
1000
0100
0010
0001
1000
0001
,
0100
0001
1000
0100
0010
0001
1000
0001
0100
0001
0010
0100
1000
0010
1000
0001
,
1000
0100
0010
0001
1000
0010
0100
0001
1000
0010
1000
0100
0010
0001
0100
0001
,
1000
0000
0000
0100
0000
0000
0010
0000
0001
0000
0000
1000
0000
0000
0010
0000
,
0100
0000
0000
0001
0000
0000
0100
0000
0010
0000
0000
1000
0000
0000
0100
0000
,
0010
0000
0000
0001
0000
0000
1000
0000
0010
0000
0000
1000
0000
0000
0001
0000
,
0010
0000
0000
0001
0000
0000
0100
0000
0010
0000
0000
0100
0000
0000
0001
0000
,
1000
0000
0000
0100
0000
0000
1000
0000
0010
0000
0000
1000
0000
0000
0001
0000
,
0100
0000
0000
0010
0000
0000
0100
0000
0001
0000
0000
0010
0000
0000
0100
0000
,
1000
0000
0000
0001
0000
0000
0100
0000
0001
0000
0000
1000
0000
0000
0100
0000
,
0010
0000
0000
0001
0000
0000
1000
0000
0010
0000
0000
0100
0000
0000
0001
0000
;
