#TITLE:Silicon Gene;
#SUBTITLE:;
#ARTIST:Son of Rust;
#TITLETRANSLIT:;
#SUBTITLETRANSLIT:;
#ARTISTTRANSLIT:;
#CREDIT:;
#BANNER:silicon_gene.png;
#BACKGROUND:silicon_gene-bg.png;
#LYRICSPATH:;
#CDTITLE:!spec_cd.png;
#MUSIC:silicon_gene.mp3;
#OFFSET:-0.053;
#SAMPLESTART:69.580;
#SAMPLELENGTH:15.000;
#SELECTABLE:YES;
#BPMS:0.000=124.000;
#STOPS:;
#BGCHANGES:;
// cache tags:
#FIRSTBEAT:8.000;
#LASTBEAT:352.000;
#SONGFILENAME:Songs/Community Keyboard Megapack - Volume 1/(Spectere) Silicon Gene/silicon_gene.sm;
#HASMUSIC:1;
#HASBANNER:1;
#MUSICLENGTH:178.578;
// end cache tags

//---------------dance-single - ----------------
#NOTES:
     dance-single:
     :
     Challenge:
     12:
     1.000,1.000,1.000,0.246,1.000,1006.000,222.000,44.000,0.000,0.000:
0000
0000
0000
0000
,
0000
0000
0000
0000
,
1000
0100
1000
0000
1000
0000
0100
0010
0100
1000
0001
0010
0100
0000
0100
1000
,
0100
0000
1000
0000
0100
0000
0010
0001
0100
0010
1000
0100
0010
0000
0000
0000
,
0101
0010
0001
0000
0001
0000
0010
0100
0010
0001
1000
0100
0010
0000
0010
0001
,
0010
0000
0001
0000
0010
0000
0100
1000
0010
0100
0001
0010
0100
0000
1000
0100
,
0010
0100
0010
0000
1000
0000
0010
0100
0010
1000
0001
0010
0100
0000
1000
0100
,
0010
0000
1000
0000
0001
0000
0010
0100
0010
1000
0010
0100
1000
0000
0000
0000
,
2001
3020
0032
0023
0230
0000
0300
0002
,
2003
0000
3200
0000
,
0320
0032
0023
0230
2300
0000
3000
0200
,
0320
0000
0032
0000
,
2003
3002
0023
0032
0203
0000
0300
0020
,
2030
0000
3002
0000
,
2003
3200
2300
3002
0023
0000
0030
2000
,
3020
0000
0032
0000
,
1000
1000
0010
0100
1000
1000
0010
0100
,
1000
1000
0100
0010
1000
1000
0100
0010
,
0100
0100
0010
1000
0100
0100
0010
1000
,
0100
0010
0100
0010
0103
0000
1000
0100
,
1010
0100
1000
0000
1000
0000
1000
0010
0100
0001
0010
0100
1010
0001
0010
0001
,
1100
0000
0010
0000
1100
0000
0010
0001
0010
0100
0010
0100
1010
0000
0100
0010
,
1100
0000
1001
0000
0100
0000
1000
0100
0011
0100
1000
0010
0100
0010
1000
0100
,
1100
0000
0010
0000
0100
0000
1001
0010
0100
0010
1001
1001
1001
0000
1000
0100
,
0011
1000
0100
0000
0010
0001
0010
0001
1000
0100
1000
0100
0010
0001
0100
0010
,
1100
0000
0010
0000
1100
0000
0001
0010
0001
1000
0100
1000
0010
0000
0001
1000
,
1100
1010
1100
0000
0101
0000
0010
0100
0010
1000
0010
0100
0001
0000
0010
0100
,
1100
0000
0011
0000
0100
1000
1100
0010
0001
0010
0110
0100
1000
0000
0110
0001
,
1100
0110
0011
0000
0010
0000
0001
0010
0100
1001
0010
0100
1000
0100
0010
0001
,
1100
0000
0100
0100
0011
0000
1000
0100
0010
0001
0010
0001
0110
0000
1000
0100
,
1001
0100
0110
0000
0010
0010
0100
0100
1000
1000
0100
0010
0001
1000
0100
0010
,
1100
0000
0100
0010
0100
0010
0100
1000
1100
0000
0100
0010
0100
0010
0100
0010
,
0011
0000
1000
0100
1000
0000
0001
0100
0001
0000
1000
0010
1000
0000
0001
0100
,
0001
0000
1000
0001
0100
0000
0001
0010
0100
0000
1000
0010
0100
0000
0001
0100
,
0010
0000
1000
0100
1100
0000
0001
0010
0011
0000
0100
0010
0110
0000
0001
0010
,
1000
0000
0001
0000
1000
0000
0001
0000
1000
0000
0001
0000
1000
0000
0001
0000
1000
0100
0010
0001
1000
0100
0010
0001
1000
0010
0100
0001
1000
0010
0100
0001
,
1000
0000
0001
0001
0110
0000
0001
0001
1100
0000
0001
0001
0110
0000
0001
0001
,
1010
0000
0100
0100
0011
0000
0100
0100
1010
0000
0100
0100
1001
0000
0100
0010
,
0011
0000
0010
0100
1100
0000
1000
0100
0011
0000
0001
0010
1100
0000
0100
0010
,
1001
0000
1000
1000
0101
0000
1000
1000
0011
0000
0001
0001
1100
0000
0001
0001
,
1010
0000
1000
0100
1100
0000
0100
0010
0110
0000
0010
0001
0011
0000
0001
1000
,
1100
0000
0100
0100
0110
0000
0010
0010
0011
0000
1000
1000
0011
0000
0100
0100
,
1100
0000
0010
0010
1100
0000
0010
0010
0101
0000
0010
0010
1100
0000
0010
0010
,
1001
0000
0100
0010
1001
0000
0100
0010
1001
0000
0010
0100
1001
0000
0010
0100
,
1001
0000
0010
0100
0000
1000
0001
0000
,
1100
0000
0100
0010
0000
0001
0010
0000
,
0110
0000
0000
0000
0000
0000
0001
0000
0000
1000
0000
0000
0000
0000
0000
0100
0000
0000
1000
0000
0000
1000
0100
0010
,
0101
1010
0000
0000
0000
0000
0000
0000
,
0100
1000
0100
1000
0001
1000
0100
1000
0100
1000
0100
1000
0001
1000
0100
1000
,
0010
0100
0010
0100
1000
0100
0010
0100
0010
0100
0010
0100
1000
0100
0010
0100
,
0001
0000
0000
0010
0000
0000
0001
0000
0000
0010
0000
0000
1000
0000
0000
0010
0000
0000
0001
0000
0000
0010
0000
0000
0001
0000
0000
0010
0000
0000
0001
0000
0000
0010
0000
0000
1000
0000
0000
0010
0000
0000
0001
0000
0010
0000
0100
0000
,
0110
0000
0101
0000
0100
0010
0100
1000
0100
1000
0100
0010
0100
1000
0100
0010
,
1000
0100
1000
0100
0001
0100
1000
0100
1000
0100
0001
0100
1000
0001
1000
0100
,
1000
0001
0010
0001
0100
0001
0010
0001
1000
0001
0100
0001
0010
0001
0100
0001
,
1000
1000
1000
1000
0001
0001
0001
0001
0010
0010
0010
0010
0001
0010
0100
1000
,
1100
0100
0100
0100
0010
0010
0011
0010
0001
0001
0101
0001
1000
1000
1000
1000
,
0110
1000
0101
0010
1200
0000
0310
0100
,
1020
0000
0100
0030
1002
0000
0100
0003
,
1010
0100
0101
0010
1020
0000
0031
1000
,
1200
0000
1000
0300
0021
0000
0001
0030
,
1010
0000
0110
0010
1001
0000
0011
0001
0210
0000
0010
0010
1300
0000
0101
0010
,
2010
0000
0010
0010
0100
0000
3100
0010
0021
0000
0001
0001
0100
0000
0130
0010
,
0011
0000
0110
0001
0011
0000
0001
0010
0210
0000
1000
1000
0310
0000
0101
0010
,
2100
0000
0100
0100
0010
0000
3010
0010
0201
0000
0001
0001
0010
0000
0310
0010
,
1010
0100
1000
0010
1000
0100
1000
0010
1000
0001
0100
0001
0010
0001
0100
0001
,
1010
0100
0010
1100
0100
0010
0101
1000
0101
0010
0100
1000
0100
1000
0110
1000
,
0110
0110
0001
0100
1000
0100
0101
0010
0110
1000
0100
1000
0100
1000
0001
1000
,
1100
0100
0010
1100
0010
0001
0110
0001
0110
0001
0010
0100
0010
0100
1100
0100
,
1010
0001
0010
1001
0100
1000
0110
0001
1100
1000
0100
1000
0010
1000
0101
1000
,
1100
0010
0001
0110
0001
0010
0101
0010
0101
0010
0001
0100
0001
1000
0110
1000
,
1100
0110
0010
1100
0010
0001
0110
1000
0011
0100
0010
0100
1000
0010
1001
0100
,
0011
1000
0100
1010
0001
0010
1010
0100
1100
0010
0001
0010
1000
0100
1100
0010
,
0101
0100
1000
0011
0100
1000
0110
0001
1100
0010
0001
0100
0001
1000
0101
0010
,
1001
0100
0100
0110
1000
1000
1001
0010
0011
1000
0100
1000
0100
0010
1100
1000
,
0011
0011
0000
1100
0000
0000
1100
0100
0011
1000
0001
1000
0010
1000
0110
0001
,
0110
1000
0010
1100
0001
0010
1001
0010
1100
0001
0010
0100
0010
0100
1010
0100
,
0011
1000
0100
1001
0010
0010
1100
0001
0110
1000
0001
0010
0100
1000
0011
0100
,
1010
0000
0000
1100
0000
0000
0100
0000
0011
0000
0000
0000
1000
0000
0110
0000
,
0101
0110
0000
1100
0000
0000
0101
0000
0011
0000
0000
0000
1000
0000
0110
0000
,
1000
0000
0100
0000
1000
0000
0100
0000
1000
0000
0001
0000
1000
0000
0001
0000
0100
0010
0001
1000
0010
0100
0001
1000
0010
0100
0001
1000
0010
0100
0001
1000
,
0001
0000
1000
1000
0011
0000
0010
0010
1100
0000
0100
0100
0011
0000
0001
0001
,
1100
0000
0100
0100
1010
0000
0010
0010
1001
0000
0100
1000
0011
0000
0001
0010
,
1100
0000
0100
0100
0110
0000
1000
0100
1100
0000
0001
0010
0011
0000
1000
0100
,
0011
0000
0001
0100
1010
0000
0100
0010
1100
0000
0010
0010
1100
0000
0010
0100
,
1100
0000
0100
0100
0011
0000
1000
1000
0110
0000
1000
1000
0011
0000
0001
0001
,
0110
0000
0001
0010
1100
0000
1010
0100
0011
0000
0101
0010
1100
0000
1000
0100
,
0110
0000
0100
1000
1100
0000
0001
0010
0110
0000
0100
0010
0011
0000
0100
0010
,
1100
0000
0011
0011
0101
0000
1100
1100
1001
0000
0110
0110
1001
0000
0011
0101
,
1001
0000
0000
0000
;

//---------------dance-single - ----------------
#NOTES:
     dance-single:
     :
     Hard:
     9:
     0.626,0.641,0.168,0.314,0.316,697.000,30.000,56.000,0.000,0.000:
0000
0000
0000
0000
,
0000
0000
0000
0000
,
0001
0100
0010
0000
0010
0000
1000
0001
0100
0000
0100
0000
0010
0001
0010
0000
,
0010
1000
0100
0000
0010
0000
0001
1000
0010
0100
0001
0010
0100
0000
1000
0000
,
1000
0100
0010
0000
0010
0000
0010
0001
0100
0000
0100
0000
0010
0001
0010
0100
,
0010
0001
0010
0000
0010
0000
0010
0100
0001
0000
1000
0000
1000
0100
0010
0001
,
1000
0000
0100
0000
1000
0000
0001
0010
0100
0010
0100
0010
0001
0000
1000
0100
,
1000
0000
1000
0000
0010
0000
0100
0010
0100
1000
0100
0010
0100
0000
0010
0000
,
2000
3020
0230
0302
2003
0000
3000
0100
,
0020
0000
0032
0000
,
0203
0302
0203
2300
3200
0000
0300
0010
,
0002
0000
0023
0000
,
2030
3200
2300
3002
0023
0000
0030
0100
,
2000
0000
3002
0000
,
2003
3200
0302
0203
2300
0000
3000
0010
,
0002
0000
0023
0000
,
0130
0000
0010
0000
0010
0000
0100
0010
0100
0000
0001
0000
0100
0000
0010
1000
,
0100
0000
0010
0000
0110
0000
1000
0001
0010
0000
0100
0000
0010
0000
0100
1000
,
0100
0000
0010
0000
0001
0000
0010
0001
0100
0000
0001
0000
0010
0000
0100
1000
,
0010
0000
0100
0000
0001
0000
0100
0010
0001
0000
0001
0000
0010
0000
0001
0010
,
1000
0100
1000
0100
1000
0001
1000
0001
,
0100
0010
0100
0010
0001
0010
0001
0010
,
1000
0010
0001
0010
1000
0001
1000
0010
,
1000
0100
0010
0100
0001
0100
0010
0100
,
1000
0000
0100
0000
1000
0000
0100
0000
0010
0000
0100
0000
0010
0000
0100
1000
,
0010
0100
0001
0100
0010
0100
0001
0100
,
1000
0100
0001
0100
0001
0100
1000
0100
,
1000
0010
1000
0100
0001
0100
0001
0010
,
1010
0100
0010
0100
1100
0010
0001
0001
,
1000
0100
0100
0010
0100
0010
0010
0001
,
0010
0000
0100
0000
1000
0000
0100
0000
0010
0100
1000
0000
0010
0000
0100
0001
,
0010
0000
0100
0000
0010
0000
0100
1000
0100
1000
0100
0010
0100
0000
1000
0000
,
0101
0010
0100
0010
0001
0010
0001
0010
,
1010
0010
0100
0010
0001
0010
0001
0010
,
1010
1000
0010
0100
0001
0010
0001
0100
,
1000
0000
0100
0000
0001
0000
1000
0000
1000
0100
1000
0100
1000
0010
1000
0010
,
1000
0000
0000
0001
0100
0000
0001
0000
1000
0000
0000
0100
1000
0000
0010
0000
,
0100
0000
0000
0001
0010
0000
0100
0000
1000
0000
0000
0001
0010
0000
0100
0000
,
0010
0000
0000
0001
1000
0000
0100
0000
0010
0000
0000
0010
0100
0000
1000
0000
,
0100
0000
0000
0001
0100
0000
1000
0000
0010
0000
0000
0001
0010
0000
1000
0000
,
0100
0010
0001
0010
0001
0010
0100
0010
,
0100
1000
0100
0010
0100
0010
0001
0010
,
0100
0000
0000
0100
1000
0000
0000
1000
0100
0000
0000
0100
0010
0000
0000
0010
,
0001
0000
0000
0001
0010
0000
0100
0000
1000
0000
0100
0000
0010
0000
0001
0000
,
0110
0001
1000
0100
1000
0100
0001
0100
,
1100
0100
1000
0100
0011
0100
0010
0001
,
0011
0010
0100
0010
1100
0100
0010
0100
,
1001
0100
0000
0000
0000
0000
0000
0000
,
1000
0100
1000
0000
0100
0001
0100
0000
0100
1000
0100
0000
0010
0001
0010
0000
,
0001
1000
0010
0000
1000
0001
0100
0000
0010
0100
0001
0000
1000
0100
0010
0000
,
0001
0010
0100
0000
0010
0001
0100
0000
0010
0100
0010
0000
0010
0001
0010
0000
,
1000
0010
1000
0000
0010
0000
0100
0000
0001
0010
0100
0010
0001
0100
0010
0001
,
0010
0000
1000
0000
0100
0000
1000
0000
0010
0000
1000
0000
0100
0000
1000
0001
,
0100
0010
0100
1000
0100
0010
0100
0010
,
0001
0010
0100
1000
0100
0001
0100
1000
,
0100
0000
0001
0000
0010
0000
1000
0000
0010
0000
0100
0000
0010
0000
0100
1000
,
0020
2030
3020
0032
0023
0000
0030
1000
,
0200
0000
0320
0000
,
0032
0023
0032
0023
0032
0000
0003
0010
,
0200
0000
2300
0100
,
3002
0023
0032
0023
2030
0000
3000
0110
,
0012
0000
0100
0003
2010
0000
0100
3000
,
0020
2030
3200
2300
3002
0000
0003
1000
,
0020
0000
0000
0000
0200
0000
0000
0330
,
0001
0000
0100
0000
0010
0000
1000
0100
1000
0010
0100
0000
0001
0000
0000
0000
,
1000
0000
0100
0000
1000
0000
0010
0100
0001
0010
0100
0001
0100
0000
1000
0000
,
0001
0010
0000
0100
0000
0000
1000
0000
0100
0000
0010
0000
0100
0000
1000
0000
,
1001
0000
0010
0000
1100
0000
1001
0000
0010
0000
0001
0000
0010
0000
0001
0100
,
0010
1000
0100
0011
0011
0100
0010
1000
,
1100
0010
1100
0001
0010
0001
0100
0001
,
1000
0100
0000
0010
0000
0000
0011
0000
1100
0000
0100
0000
0010
0000
0100
0000
,
1100
0010
0010
0100
0100
1000
0100
1000
,
1100
0100
0110
0010
0001
0010
1000
0010
,
0001
0000
0100
0000
1000
0000
0100
0000
0001
0000
1000
0000
0001
0000
1000
0001
,
0010
0001
0000
0001
0000
0000
1000
0000
0010
0000
1000
0000
0010
0000
1000
0000
,
0100
0000
0100
0000
0010
0000
0001
0000
0100
0000
0001
0010
0001
0000
0010
0100
,
1000
0000
0100
0000
1000
0000
0100
0000
1000
0000
0100
0010
0100
0000
0100
0010
,
0001
0000
0010
0000
0001
0000
0010
0000
0100
0000
1000
0100
0010
0000
0100
0010
,
0001
1000
0000
1000
0000
0000
0110
0000
0110
0000
0001
0000
0010
0000
0100
0000
,
1000
0000
0100
0000
1000
0000
0010
0000
0100
0010
1000
0001
0100
0010
1000
0001
,
1000
0000
0000
0001
0010
0000
0100
0000
1000
0000
0000
0010
0100
0000
1000
0000
,
0100
0000
0000
0010
0001
0000
0010
0000
0100
0000
0000
0010
0001
0000
0010
0000
,
0001
0000
0000
0100
0010
0000
0001
0000
1000
0000
0000
0100
1000
0000
0010
0000
,
0001
0000
0000
0010
1000
0000
0100
0000
1000
0000
0000
0100
0010
0000
0001
0000
,
0010
0000
0000
0010
0001
0000
0010
0000
0100
0000
0000
0100
0010
0000
0100
0000
,
0001
0000
0000
0100
0001
0000
0100
0000
1000
0000
0000
0100
0010
0000
0100
0000
,
1000
0000
0000
0100
0010
0000
0000
0010
0001
0000
0000
0001
0010
0000
0000
0010
,
1000
0010
0001
0010
0100
1000
0100
0010
,
1001
0000
0000
0000
;

//---------------dance-single - ----------------
#NOTES:
     dance-single:
     :
     Medium:
     5:
     0.349,0.345,0.011,0.095,0.000,417.000,2.000,17.000,0.000,0.000:
0000
0000
0000
0000
,
0000
0000
0000
0000
,
1000
0000
1000
0000
0001
0000
0000
0001
,
0100
0000
0100
0000
0010
0000
0000
0100
,
0010
0000
1000
0000
0001
0000
0000
0010
,
0001
0000
1000
0000
0010
0000
0000
1000
,
0100
0000
0100
0000
0001
0000
0000
0001
,
0010
0000
0100
0000
1000
0100
1000
0000
,
2001
0000
3002
0000
,
0023
0000
0032
0000
,
2003
0000
3020
0000
,
0230
0000
0320
0000
,
2030
0000
3020
0000
,
0230
0000
0320
0000
,
0230
0000
0302
0000
,
2000
0000
0000
3003
,
1000
0000
0100
0000
0010
0001
0010
0000
,
0010
0000
0100
0000
1000
0100
1000
0000
,
0100
0000
0010
0000
0010
0100
1000
0000
,
0100
0000
0010
0000
0001
1000
0100
0000
,
1000
0100
0001
0010
,
1000
0100
0001
0100
,
1000
0000
0100
0000
0010
0001
0010
0001
,
0010
0000
0100
0000
1000
0100
1000
0100
,
1000
0000
0100
0000
1000
0000
0010
0001
,
1000
0000
0100
0000
1000
0000
0010
0001
,
0010
0000
0010
0000
0001
0010
0100
1000
,
0001
0001
0010
0010
,
0001
0010
0001
0010
0100
0000
0100
0000
,
1000
0100
1000
0100
1000
0000
1000
0000
,
0001
0010
0100
0000
0010
0100
1000
0000
,
0001
0010
0001
0000
1000
0100
1000
0000
,
0010
0100
0010
0000
0001
0010
0001
0000
,
1000
0100
1000
0000
0001
0100
0001
0000
,
1000
0100
1000
0000
0001
0000
0010
0000
,
1000
0100
0010
0001
1000
0100
0010
0001
,
1000
0000
1000
0000
1000
0100
1000
0100
,
0010
0000
0010
0000
0010
0001
0010
0001
,
0100
0000
0100
0000
0100
0001
0100
0001
,
0100
0000
0010
0000
0001
0010
0100
1000
,
0100
0000
1000
0000
0100
0010
0100
0010
,
0001
0000
0100
0000
0010
1000
0010
1000
,
0100
1000
0100
1000
0010
0000
1000
0000
,
0010
0000
0001
0000
0010
0000
1000
0100
,
1000
0100
0010
0100
,
1000
0001
1000
0100
,
1000
0000
0001
0000
0010
0000
0001
1000
,
0100
0010
0001
0010
,
0100
0000
0010
0100
1000
0000
0001
0000
,
0100
0000
0001
0010
0001
0000
1000
0000
,
0010
0100
0001
1000
,
0100
1000
0100
0000
0001
0000
0100
0000
,
1000
0100
1000
0000
0001
0100
0001
0000
,
1000
0100
1000
0001
0100
0001
0100
0000
,
0010
0100
0001
0010
,
0100
1000
0010
0100
,
0001
0000
0001
0010
0001
0000
1000
0000
,
0100
0000
0010
0100
1000
0000
0010
0000
,
1000
0000
0001
0010
0001
0000
0010
0000
,
1000
0000
0010
0001
0100
0000
1000
0000
,
0100
0000
0001
0100
0001
0000
0010
0000
,
0100
0000
1000
0100
1000
0000
0001
0000
,
0010
0000
0100
0010
0100
0000
1000
0100
,
2000
0000
0002
3003
,
1100
0000
0000
0000
1000
0100
1000
0100
,
1000
0000
0000
0000
0001
0010
0001
0010
,
0001
0000
0000
0000
0100
0010
0100
0010
,
0100
0000
0000
0000
1000
0100
0010
0001
,
1000
0000
0000
0000
0001
0010
0100
1000
,
0001
0000
1000
0000
0001
1000
0001
0100
,
0001
0000
0010
0000
0100
0010
0100
1000
,
0100
1000
0100
1000
,
0001
0010
0001
0000
0100
0000
0010
0000
,
0100
0010
1000
0000
0100
0000
0010
0000
,
0001
0010
0100
0000
1000
0000
0100
0000
,
1000
0100
0010
0000
0100
0000
0010
0000
,
0001
0000
0010
0000
0001
0010
0001
0010
,
0100
0000
0010
0000
0100
0010
0100
1000
,
0100
0010
0001
0010
,
0100
1000
0100
1000
0010
1000
0010
1000
,
0001
0010
0010
0001
,
0100
0000
0100
0000
0001
0000
0010
0100
,
1000
0000
0100
0000
1000
0000
0100
0010
,
0001
0000
0010
0000
0001
0000
0100
0010
,
1000
0100
0010
0100
,
0010
0000
0001
0000
1000
0000
0001
0010
,
0100
0001
0010
0001
,
0010
0001
0010
0100
0010
0100
1000
0100
,
1000
0000
0000
0000
;

//---------------dance-single - ----------------
#NOTES:
     dance-single:
     :
     Easy:
     2:
     0.200,0.222,0.017,0.045,0.000,239.000,3.000,8.000,0.000,0.000:
0000
0000
0000
0000
,
0000
0000
0000
0000
,
1000
0000
0010
0000
,
0001
0000
0010
0000
,
1000
0000
0100
0000
,
1000
0000
0010
0000
,
1000
0100
1000
0100
,
1000
0010
1000
0001
,
2000
0000
0000
0000
,
3002
0000
0000
0000
,
0023
0000
0000
0000
,
0032
0000
0000
0000
,
2003
0000
0000
0000
,
3200
0000
0000
0000
,
0320
0000
0000
0000
,
0032
0000
0000
0000
,
0003
0000
1000
0100
,
1000
0100
0010
0001
,
0010
0001
1000
0100
,
0010
0100
1000
0100
,
0010
0000
0001
0000
,
1000
0100
0010
0000
,
0001
0000
0010
0000
,
0001
0100
0010
0000
,
1000
0000
0010
0000
,
0100
0010
0100
0000
,
0010
0000
0001
0000
,
1000
0100
1000
0100
,
1000
0000
0010
0000
,
0100
0000
0010
0000
,
1000
0000
0010
0000
,
0100
0000
0001
0000
,
0100
0010
0100
0010
,
0100
0001
0100
0001
,
1000
0010
1000
0010
,
0100
0001
0100
0000
,
1001
0000
0100
0000
,
0010
0100
0010
0001
,
0010
0000
1000
0000
,
0001
0010
0001
0010
,
0001
0000
0100
0000
,
1000
0100
1000
0100
,
1000
0000
0100
0000
,
0001
0000
0010
0000
,
1001
0000
0100
0000
,
0001
0000
0100
0000
,
1000
0000
0100
0000
,
1000
0000
0100
0000
,
0010
0001
0010
0001
,
1000
0100
1000
0100
,
0010
0100
0010
0100
,
1000
0100
1000
0100
,
0001
0010
0001
0010
,
0100
1000
0100
1000
,
0100
1000
0001
0100
,
0010
1000
0100
0001
,
0010
0000
0100
0000
,
1000
0100
1000
0100
,
0001
0000
0010
0000
,
0001
0010
0001
0010
,
1000
0000
0100
0000
,
0010
0100
1000
0001
,
0010
0000
0001
0000
,
0100
0010
1000
0010
,
0100
0000
0010
0001
,
0010
0000
0100
0000
,
0010
0000
0010
0001
,
0010
0001
1000
0000
,
0100
0000
0001
0010
,
0001
1000
0100
0000
,
0010
0000
0100
0010
,
0100
1000
0100
1000
,
0100
0000
0010
0000
,
0100
0000
0010
0001
,
0010
0000
0100
0000
,
1000
0100
1000
0100
,
0001
0000
0010
0000
,
1000
0010
0100
0001
,
0100
0000
1000
0000
,
0001
0100
1000
0010
,
0001
0000
1000
0000
,
0100
0010
0100
0010
,
0001
0000
1000
0000
,
0100
0010
0100
0010
,
0001
0000
0010
0000
,
0001
0000
0100
0000
,
0010
0100
0010
1000
,
0001
0010
0100
0000
,
1001
0000
0000
0000
;
