#TITLE:Life In Strate;
#SUBTITLE:;
#ARTIST:TJ_MS-DOM;
#TITLETRANSLIT:;
#SUBTITLETRANSLIT:;
#ARTISTTRANSLIT:;
#CREDIT:;
#BANNER:lifeinstrate.png;
#BACKGROUND:lifeinstrate-bg.png;
#LYRICSPATH:;
#CDTITLE:!mwerpTitle.png;
#MUSIC:lifeinstrate.mp3;
#OFFSET:0.600;
#SAMPLESTART:5.306;
#SAMPLELENGTH:16.000;
#SELECTABLE:YES;
#BPMS:0.000=115.000,12.000=172.000,444.000=86.000;
#STOPS:;
#BGCHANGES:;
// cache tags:
#FIRSTBEAT:12.000;
#LASTBEAT:450.750;
#SONGFILENAME:Songs/Community Keyboard Megapack - Volume 2/(Mwerp) Life In Strate/lifeinstrate.sm;
#HASMUSIC:1;
#HASBANNER:1;
#MUSICLENGTH:161.907;
// end cache tags

//---------------dance-single - SMANIAC----------------
#NOTES:
     dance-single:
     SMANIAC:
     Challenge:
     11:
     1.000,1.000,0.939,0.296,0.787,946.000,152.000,48.000,0.000,10.000:

0000
0000
0000
0000
,
0000
0000
0000
0000
,
0000
0000
0000
0000
,
1001
0000
0100
0000
0010
0000
0101
0010
0000
0000
0100
0000
0010
0000
0100
0000
,
1010
0000
0001
0000
0010
0000
1100
0001
0000
0000
0010
0000
0100
0000
1000
0000
,
0011
0000
0100
0000
1000
0000
0110
0001
0000
0000
0010
0000
0001
0000
0010
0000
,
1100
0000
0010
0000
0100
0000
0011
1000
0000
0000
0001
0000
1000
0000
0001
0000
,
0110
0000
1000
0000
0001
0000
1100
0001
0000
0000
1000
0000
0001
0000
1000
0000
,
0011
0000
0100
0000
0001
0000
1010
0100
0000
0000
0001
0000
1000
0000
0010
0000
,
0101
0000
1000
0000
0010
0000
1001
0100
0000
0000
0001
0000
0100
0000
0001
0000
,
1010
0000
0001
0000
1000
0000
0101
0010
0000
0000
0100
0000
0010
0000
0100
0000
,
1001
0000
0010
0000
0100
0000
1010
0100
0000
0000
0010
0000
0100
0000
0010
0000
,
0101
0000
1000
0000
0100
0000
0011
1000
0000
0000
0100
0000
0010
0000
0001
0000
,
1100
0000
0010
0000
0001
0000
0110
1000
0000
0000
0100
0000
1000
0000
0100
0000
,
0011
0000
0100
0000
0010
0000
1100
0001
0000
0000
1000
0000
0001
0000
1000
0000
,
0110
0000
0001
0000
1000
0000
0011
1000
0000
0000
0001
0000
1000
0000
0001
0000
,
1100
0000
0010
0000
1000
0000
0101
0010
0000
0000
1000
0000
0001
0000
0100
0000
,
1010
0000
0001
0000
0100
0000
1001
0010
0000
0000
1000
0000
0010
0000
1000
0000
,
0101
0000
1000
0000
0001
0000
1010
0100
0000
0000
0010
0000
0100
0000
0010
0000
,
1001
0000
0100
0000
0010
0000
0101
0010
0000
0000
0100
0000
0010
0000
0100
0000
,
1010
0000
0001
0000
0010
0000
1100
0001
0000
0000
0010
0000
0100
0000
1000
0000
,
0011
0000
0100
0000
1000
0000
0110
0001
0000
0000
0010
0000
0001
0000
0010
0000
,
1100
0000
0010
0000
0100
0000
0011
1000
0000
0000
0001
0000
1000
0000
0001
0000
,
0000
0010
0100
0000
0010
0000
0001
0000
1000
0100
0000
0010
0000
0000
0001
0100
,
0010
1000
0100
1000
0010
0100
0001
0010
0200
0000
0000
0000
1300
0000
0000
0000
,
0001
0000
0100
0010
0001
0000
0100
0010
0001
0100
0010
0001
0100
0020
0000
0000
,
1030
0000
0000
0000
0000
0000
0000
0000
1000
0000
0000
0000
0000
0000
0000
0000
1000
0000
0000
0000
0000
0000
0000
0000
1000
0000
0000
0000
0000
0000
0000
0000
0100
0000
0000
0000
0000
0000
0000
0000
0010
0000
0000
0000
0000
0000
0000
0000
0001
0000
0000
0000
0010
0000
0000
0000
0100
0000
0000
0000
1000
0000
0000
0000
0000
0000
0001
0000
0000
0000
0000
0000
2000
0000
0000
0000
0000
0000
0000
0000
0000
0000
0000
0000
3001
0000
0000
0000
0000
0000
0010
0000
0000
0000
0000
0000
,
0001
1000
0100
0010
0001
1000
0100
1000
0002
0000
0000
1003
0000
0000
1000
0000
,
0000
1000
0000
0000
1000
0000
0000
0000
1000
0100
0010
0001
1000
0100
1000
0000
,
0002
2003
3020
0230
,
0302
0000
0023
0000
0230
0000
2300
3200
,
0320
0000
0000
0000
0000
0000
0000
0000
0000
0000
0000
0000
0000
0000
0000
0000
0000
0000
0000
0000
0000
0000
0000
0000
0000
0000
0000
0000
0000
0000
0000
0000
0000
0000
0000
0000
0000
0000
0000
0000
0000
0000
0000
0000
0000
0000
0000
0000
0031
0000
0000
0000
0000
0000
0000
0000
0100
0000
0000
0000
0001
0000
0000
0000
0000
0000
0000
0000
0000
0000
0000
0000
1000
0000
0000
0000
0000
0000
0000
0000
0000
0000
0000
0000
0100
0000
0000
0000
0000
0000
1000
0000
0000
0000
0000
0000
,
0010
0100
0001
0010
0001
0100
0010
1000
0002
0000
0003
1000
0000
0000
0000
0000
,
1000
0100
0010
0001
0000
0000
0001
0010
0100
1000
0100
1000
0010
0100
0010
0100
0001
0010
0001
0100
0010
1000
0100
0010
,
0002
0000
0000
0000
0203
0300
0200
0300
,
0020
0000
0000
0000
2030
0000
0000
3002
0000
0000
0000
0000
0013
0100
1000
0100
,
0000
0000
0100
0000
0010
0000
0001
0000
1000
0010
0100
0000
0010
0000
1000
0000
0001
0000
0100
0000
0001
0000
0010
0000
0100
0000
1000
0000
0001
0000
0000
0000
,
2000
0000
0000
0000
0000
0000
0000
0000
3001
0000
0010
0000
0100
0000
0010
0000
0001
0100
0010
0000
0100
0000
0001
0000
0010
0000
0100
0000
1000
0000
0001
0000
,
1000
0100
0010
0100
1000
0001
0100
0010
1000
0100
1000
0010
0100
0001
0010
0100
,
2000
0000
0000
3000
,
1001
0000
0100
0000
0010
0000
0101
0010
0000
0000
0100
0000
0010
0000
0100
0000
,
1010
0000
0001
0000
0010
0000
1100
0001
0000
0000
0010
0000
0100
0000
1000
0000
,
0011
0000
0100
0000
1000
0000
0110
0001
0000
0000
0010
0000
0001
0000
0010
0000
,
1100
0000
0010
0000
0100
0000
0011
1000
0000
0000
0001
0000
1000
0000
0001
0000
,
0110
0000
1000
0000
0001
0000
1100
0001
0000
0000
1000
0000
0001
0000
1000
0000
,
0011
0000
0100
0000
0001
0000
1010
0100
0000
0000
0001
0000
1000
0000
0010
0000
,
0101
0000
1000
0000
0010
0000
1001
0100
0000
0000
0001
0000
0100
0000
0001
0000
,
0010
0100
1010
0000
0001
0000
1010
0000
0000
0000
1010
0000
1101
0000
1010
0000
,
0000
1010
1001
0010
1000
0010
1101
0010
,
0000
1011
0000
1010
0001
1010
1101
1010
,
0000
1010
1001
0010
1000
0010
1101
0010
,
0000
1010
0001
1010
0000
1010
1101
1010
,
0000
1010
1001
0010
1000
0010
1101
0010
,
0000
1011
0000
1010
0001
1010
1101
1010
,
0000
1010
1001
0010
1000
0010
1101
0010
,
0000
0000
0100
0000
0010
0000
0000
0000
0001
0000
0000
0000
0010
0000
0100
0000
0000
0000
0000
1000
0001
0000
0010
0000
0000
0000
0000
0000
0100
0000
0000
0000
,
1000
0000
0000
0000
0000
0000
0000
0000
0000
0000
0000
0000
0001
0000
0000
0000
0000
0000
0000
0000
0000
0000
0000
0000
0100
0000
0000
0000
0000
0000
0000
0000
0001
0000
0000
0000
0010
0000
0000
0000
0000
0000
0000
0000
0100
0000
0000
0000
0000
0000
0000
0000
0000
0000
0001
0000
0000
0000
0000
0000
0010
0000
0000
0000
0000
0000
0100
0000
0000
0000
0000
0000
1000
0000
0000
0000
0000
0000
0000
0000
0000
0000
0000
0000
1000
0000
0000
0000
0000
0000
0100
0000
0000
0000
0000
0000
,
0020
0000
0000
0000
0000
0000
0000
0000
0031
0000
0100
0000
0000
0000
0010
0000
0000
1000
0100
0000
1000
0000
0001
0000
0100
0000
0010
0000
1000
0000
0100
0000
,
0020
0000
0000
0000
0000
0000
0000
0000
0031
0000
0100
0000
0000
0000
0010
0000
0000
1000
0100
0000
1000
0000
0001
0000
0100
0000
0010
0000
1000
0000
0100
0000
,
0010
0100
1000
0000
0001
0000
0001
0010
0000
0000
0010
0000
0100
0010
0000
0010
,
0001
0000
0000
0000
0000
0000
1000
0000
1000
0001
0000
1000
0000
0000
0000
0100
,
0010
0001
1000
0000
0100
0000
1000
0001
0000
0000
0100
0000
0001
0010
0000
0100
,
1000
0000
1000
0000
0001
0100
0000
0000
0010
0000
0000
1000
0000
0000
0100
0000
,
1001
0000
0100
0000
0010
0000
0101
0010
0000
0000
0100
0000
0010
0000
0100
0000
,
1010
0000
0001
0000
0010
0000
1100
0001
0000
0000
0010
0000
0100
0000
1000
0000
,
0011
0000
0100
0000
1000
0000
0110
0001
0000
0000
0010
0000
0001
0000
0010
0000
,
1100
0000
0010
0000
0100
0000
0011
1000
0000
0000
0001
0000
1000
0000
0001
0000
,
0110
0000
1000
0000
0001
0000
1100
0001
0000
0000
1000
0000
0001
0000
1000
0000
,
0011
0000
0100
0000
0001
0000
1010
0100
0000
0000
0001
0000
1000
0000
0010
0000
,
0101
0000
1000
0000
0010
0000
1001
0100
0000
0000
0001
0000
0100
0000
0001
0000
,
1010
0000
0001
0000
1000
0000
0101
0010
0000
0000
0100
0000
0010
0000
0100
0000
,
1001
0000
0010
0000
0100
0000
1010
0100
0000
0000
0010
0000
0100
0000
0010
0000
,
0101
0000
1000
0000
0100
0000
0011
1000
0000
0000
0100
0000
0010
0000
0001
0000
,
1100
0000
0010
0000
0001
0000
0110
1000
0000
0000
0100
0000
1000
0000
0100
0000
,
0011
0000
0100
0000
0010
0000
1100
0001
0000
0000
1000
0000
0001
0000
1000
0000
,
0110
0000
0001
0000
1000
0000
0011
1000
0000
0000
0001
0000
1000
0000
0001
0000
,
1100
0000
0010
0000
1000
0000
0101
0010
0000
0000
1000
0000
0001
0000
0100
0000
,
1010
0000
0001
0000
0100
0000
1001
0010
0000
0000
1000
0000
0010
0000
1000
0000
,
0101
0000
1000
0000
0001
0000
1010
0100
0000
0000
0010
0000
0100
0000
0010
0000
,
1001
0000
0100
0000
0010
0000
0101
0010
0000
0000
0100
0000
0010
0000
0100
0000
,
1010
0000
0001
0000
0010
0000
1100
0001
0000
0000
0010
0000
0100
0000
1000
0000
,
0011
0000
0100
0000
1000
0000
0110
0001
0000
0000
0010
0000
0001
0000
0010
0000
,
1100
0000
0010
0000
0100
0000
0011
1000
0000
0000
0001
0000
1000
0000
0010
0000
,
1001
0000
0100
0000
0010
0000
0101
0010
0000
0000
0100
0000
0010
0000
0100
0000
,
1010
0000
0001
0000
0010
0000
1100
0001
0000
0000
0010
0000
0100
0000
1000
0000
,
0011
0000
0100
0000
1000
0000
0110
0001
0000
0000
0010
0000
0001
0000
0010
0000
,
1100
0000
0010
0000
0100
0000
0011
1000
0000
0000
0001
0000
1000
0000
0001
0000
,
0000
0010
0100
0000
0010
0000
0001
0000
1000
0100
0000
0010
0000
0000
0001
0100
,
0010
1000
0100
1000
0010
0100
0001
0010
0200
0000
0000
0000
1300
0000
0000
0000
,
0001
0000
0100
0010
0001
0000
0100
0010
0001
0100
0010
0001
0100
0020
0000
0000
,
1030
0000
0000
0000
0000
0000
0000
0000
1000
0000
0000
0000
0000
0000
0000
0000
1000
0000
0000
0000
0000
0000
0000
0000
1000
0000
0000
0000
0000
0000
0000
0000
0100
0000
0000
0000
0000
0000
0000
0000
0010
0000
0000
0000
0000
0000
0000
0000
0001
0000
0000
0000
0010
0000
0000
0000
0100
0000
0000
0000
1000
0000
0000
0000
0000
0000
0001
0000
0000
0000
0000
0000
2000
0000
0000
0000
0000
0000
0000
0000
0000
0000
0000
0000
3001
0000
0000
0000
0000
0000
0010
0000
0000
0000
0000
0000
,
0001
1000
0100
0010
0001
1000
0100
1000
0002
0000
0000
1003
0000
0000
1000
0000
,
0000
1000
0000
0000
1000
0000
0000
0000
1000
0100
0010
0001
1000
0100
1000
0000
,
0002
2003
3020
0230
,
0302
0000
0023
0000
0230
0000
2300
3200
,
0320
0000
0000
0000
0000
0000
0000
0000
0000
0000
0000
0000
0000
0000
0000
0000
0000
0000
0000
0000
0000
0000
0000
0000
0000
0000
0000
0000
0000
0000
0000
0000
0000
0000
0000
0000
0000
0000
0000
0000
0000
0000
0000
0000
0000
0000
0000
0000
0031
0000
0000
0000
0000
0000
0000
0000
0100
0000
0000
0000
0001
0000
0000
0000
0000
0000
0000
0000
0000
0000
0000
0000
1000
0000
0000
0000
0000
0000
0000
0000
0000
0000
0000
0000
0100
0000
0000
0000
0000
0000
1000
0000
0000
0000
0000
0000
,
0010
0100
0001
0010
0001
0100
0010
1000
0002
0000
0003
1000
0000
0000
0000
0000
,
1000
0100
0010
0001
0000
0000
0001
0010
0100
1000
0100
1000
0010
0100
0010
0100
0001
0010
0001
0100
0010
1000
0100
0010
,
0002
0000
0000
0000
0203
0300
0200
0300
,
0020
0000
0000
0000
2030
0000
0000
3002
0000
0000
0000
0000
0013
0100
1000
0100
,
0000
0000
0100
0000
0010
0000
0001
0000
1000
0010
0100
0000
0010
0000
1000
0000
0001
0000
0100
0000
0001
0000
0010
0000
0100
0000
1000
0000
0001
0000
0000
0000
,
2000
0000
0000
0000
0000
0000
0000
0000
3001
0000
0010
0000
0100
0000
0010
0000
0001
0100
0010
0000
0100
0000
0001
0000
0010
0000
0100
0000
1000
0000
0001
0000
,
1000
0100
0010
0100
1000
0001
0100
0010
1000
0100
1000
0010
0100
0001
0010
0100
,
2000
0000
0000
3000
,
1001
0000
0100
0000
0010
0000
0101
0010
0000
0000
0100
0000
0010
0000
0100
0000
,
1010
0000
0001
0000
0010
0000
1100
0001
0000
0000
0010
0000
0100
0000
1000
0000
,
0011
0000
0100
0000
1000
0000
0110
0001
0000
0000
0010
0000
0001
0000
0010
0000
,
1100
0000
0010
0000
0100
0000
0011
1000
0000
0000
0001
0000
1000
0000
0001
0000
,
0110
0000
1000
0000
0001
0000
1100
0001
0000
0000
1000
0000
0001
0000
1000
0000
,
0011
0000
0100
0000
0001
0000
1010
0100
0000
0000
0001
0000
1000
0000
0010
0000
,
0101
0000
1000
0000
0010
0000
1001
0100
0000
0000
0001
0000
0100
0000
0001
0000
,
1010
0001
1000
0000
0000
0001
0000
0000
1001
0000
0000
0100
0000
0000
0000
0000
,
0101
1000
0100
0000
0000
0010
0000
0000
1100
0000
0000
0001
0000
0000
0000
0000
,;
