#TITLE:Domo Domo Domo;
#SUBTITLE:(KCP Remix);
#ARTIST:Smile dk.;
#TITLETRANSLIT:;
#SUBTITLETRANSLIT:;
#ARTISTTRANSLIT:;
#CREDIT:;
#BANNER:dododokcp-bn.png;
#BACKGROUND:dododokcp-bg.png;
#LYRICSPATH:;
#CDTITLE:;
#MUSIC:Domo Domo Domo (KCP Remix) (DDR Edit).mp3;
#OFFSET:-5.640;
#SAMPLESTART:33.504;
#SAMPLELENGTH:12.000;
#SELECTABLE:YES;
#BPMS:0.000=172.200;
#STOPS:;
#BGCHANGES:;
// cache tags:
#FIRSTBEAT:0.000;
#LASTBEAT:292.000;
#SONGFILENAME:Songs/other/Domo Domo Domo (KCP Remix)/dododokcp.sm;
#HASMUSIC:1;
#HASBANNER:1;
#MUSICLENGTH:111.679;
// end cache tags

//---------------dance-single - ----------------
#NOTES:
     dance-single:
     :
     Hard:
     9:
     0.654,0.588,0.770,0.179,0.040,405.000,86.000,20.000,0.000,0.000:
1000
0100
1000
0100
0000
1000
0000
0100
,
0000
0000
0010
0000
0001
0000
0000
0001
0010
0000
0100
0000
1000
0000
0010
0000
,
0100
0001
0010
0100
0000
1000
0000
0010
,
0000
0000
0100
0000
0001
0000
0000
0010
0100
0000
1000
0000
0010
0000
0100
0000
,
2002
0000
3003
0000
0000
1000
0100
0010
,
0000
2100
0000
0001
0000
0100
3000
0001
,
0010
0001
1000
0010
0100
0001
0000
1001
,
0000
1000
0100
0001
0100
1000
0100
0000
,
0202
0000
0303
0000
0000
0010
0100
0001
,
0000
0021
0000
0100
0000
0001
0030
0100
,
1000
0010
0100
0010
0001
0010
0000
1010
,
0000
1000
0010
0001
0010
1000
0100
0000
,
1001
0000
1000
0100
0010
0001
0010
0100
,
1000
0010
0100
0001
0010
0100
1000
0000
,
0001
0010
0001
1000
0100
1000
0010
0100
,
0001
0010
0100
0000
1100
0000
1010
0000
,
1001
0000
0100
0000
0010
0000
1000
0010
,
0000
0100
0000
0001
0000
1000
0000
0010
,
1010
0000
0000
0100
0101
0000
0000
0010
,
1001
1100
0101
1001
,
0100
0010
0100
0010
0100
1001
0000
1100
,
0000
0010
0001
0100
0101
0000
0011
0000
,
1000
0100
0000
0220
0000
0330
0000
0020
,
0000
0032
0000
1003
0000
0010
0110
0000
,
1000
0001
1000
0001
1000
0110
0000
1010
,
0000
0001
0100
0010
0001
0010
1000
0000
,
1100
0000
0001
1000
0000
1010
0000
1100
,
0000
0110
0000
0011
0000
1000
1001
0000
,
1000
0010
0100
0001
0000
1010
0000
1100
,
0000
0000
1000
0000
0001
0000
0000
0010
0100
0000
0010
0000
0001
0000
0100
0000
,
1000
0100
0010
0100
0000
0101
0000
0011
,
0000
0000
1000
0000
0001
0000
0000
0100
0010
0000
1000
0000
0100
0000
0010
0000
,
2002
0000
3003
0000
0000
1000
0100
0001
,
0000
1200
0000
0010
0000
1000
0300
0010
,
0100
1000
0010
0001
0010
0100
0000
1010
,
0000
1000
0100
1000
0010
0100
1100
0000
,
2002
0000
3003
0000
0000
0001
0010
1000
,
0000
0021
0000
0100
0000
0001
0030
0100
,
0010
0001
0100
1000
0100
0010
0000
0101
,
0000
0001
0010
0001
0100
0010
0011
0000
,
1001
0000
1000
0100
0010
0100
1000
0100
,
0001
0100
0010
0001
1000
0010
0100
0000
,
0100
0010
1000
0100
1000
0001
0010
0100
,
1000
0010
0100
0000
1010
0000
0011
0000
,
1001
0000
0001
0000
0100
0000
1000
0010
,
0000
0001
0000
0100
0000
1000
0000
0010
,
1010
0000
0000
0100
0101
0000
0000
0010
,
0110
1010
0101
0110
,
1000
0100
0001
0100
1000
1100
0000
0101
,
0000
0001
0010
0100
1000
0000
0101
0000
,
0010
1000
0000
2100
0000
3020
0000
0130
,
0001
0010
0000
0100
1000
0010
0100
0001
,
1001
1000
0010
0001
0010
1001
0000
0110
,
0000
0010
1000
0100
0010
0001
0100
0000
,
1100
0000
1000
0100
0000
0011
0000
0101
,
0000
1010
0000
1001
0000
0010
1001
0000
,
1100
0000
0101
0000
0000
0110
0000
0100
,
1000
0000
1010
0000
0100
0001
0000
0010
,
1000
0010
0100
0010
0001
0000
1000
0100
,
0000
0001
0100
0001
0100
0000
1010
0000
,
1001
0000
0101
0000
0000
0100
0000
0010
,
0001
0000
0100
0000
1000
0100
0010
0000
,
1100
0000
1000
1100
0000
0101
0000
0011
,
0000
0000
1010
0000
0000
0000
1001
0000
0000
0000
0010
0100
0010
0000
0000
0000
,
1001
0100
0010
0001
0000
1000
0000
0011
,
0000
0000
0010
0000
0001
0000
0000
0100
1000
0000
0100
0000
0001
0000
0010
0000
,
0100
1000
0010
0100
0000
0001
0000
1010
,
0000
0000
0100
0000
0001
0000
0000
0010
0100
0000
0001
0000
0100
0000
0010
0000
,
1010
1000
0100
0010
0000
0100
0000
0110
,
0000
0000
1000
0000
0001
0000
0000
1000
0100
0000
1000
0000
0010
0000
0001
0000
,
0010
0100
1000
0100
0000
1000
0000
0011
,
0000
0000
0001
0000
0101
0000
0000
0010
1000
0000
0100
0000
0010
0000
0100
0000
,
2002
0000
0000
0000
,
3003
0000
0000
0000
;

//---------------dance-single - ----------------
#NOTES:
     dance-single:
     :
     Easy:
     5:
     0.404,0.419,0.287,0.036,0.000,280.000,32.000,4.000,0.000,0.000:
1000
1000
0001
0001
,
1000
1000
0001
0001
,
0110
1000
0110
0001
,
0110
1000
0010
0100
,
1001
0010
0100
1000
,
0010
0100
0001
0010
,
0100
0100
0010
0010
,
0001
1000
0001
1000
,
1001
0100
0010
0001
,
0100
0010
1000
0100
,
0010
0010
0100
0100
,
1000
0001
1000
0001
,
0110
1000
0100
1000
,
0100
0010
0001
0010
,
0001
0100
0001
0100
,
0010
1000
0010
1000
,
0001
0100
0010
1000
,
0010
0100
0001
1000
,
1100
0000
0101
0000
,
0110
0110
1001
1001
,
0010
0001
0001
0010
,
0100
1000
1000
0100
,
0001
0010
0200
1300
,
0100
0010
0002
1003
,
0100
0010
0100
0010
,
1000
0100
0001
0100
,
1000
0001
1000
0001
,
0010
0010
1001
0000
,
0100
0100
0010
0010
,
0100
0100
0010
0010
,
1001
0100
1001
0010
,
1001
0100
1000
0001
,
0110
1000
0001
0100
,
0010
0100
0010
0010
,
0010
1000
0100
1000
,
0010
0010
0010
0010
,
1001
0100
0001
0100
,
0100
1000
0100
0001
,
0010
1000
0010
1000
,
0001
0100
0010
0100
,
1010
1000
0010
0100
,
0010
1000
0100
0001
,
1000
0100
1000
1000
,
0001
0100
1000
1000
,
0001
0100
0010
1000
,
0100
0010
0001
0100
,
0011
0000
1010
0000
,
1100
1001
1010
0101
,
1000
0001
0100
0001
,
0010
1000
0100
0010
,
1000
0010
2000
3100
,
0001
0100
0200
0300
,
0100
0001
1000
0100
,
0100
1000
1000
0010
,
0100
0001
0010
1000
,
0100
0010
1001
0000
,
0100
0100
0010
0010
,
0100
0100
0000
1000
,
0001
1000
1000
0001
,
1000
0001
0001
0100
,
1001
1000
0001
0001
,
0010
1000
0100
0001
,
0100
0010
0100
0010
,
1001
0110
1001
0000
,
1000
1000
0001
0001
,
1000
1000
0001
0001
,
0100
1000
0010
0001
,
0100
1000
0010
0100
,
1001
0100
1000
0010
,
0100
1000
0001
0100
,
1000
0100
0001
0010
,
1000
0001
1000
0100
,
1001
0000
0000
0000
;

//---------------dance-single - ----------------
#NOTES:
     dance-single:
     :
     Medium:
     7:
     0.503,0.523,0.349,0.107,0.000,342.000,39.000,12.000,0.000,0.000:
1000
0100
0010
0000
0100
0000
0010
0000
,
0001
0010
0100
0000
1000
0000
0001
0000
,
1000
0100
0010
0000
0001
0010
0100
0000
,
1001
0110
1001
0110
,
2002
3003
0100
0010
,
0001
0000
1000
0000
0001
0000
0100
0010
,
1000
0001
0100
1000
,
0100
0000
0001
0100
0001
0100
0001
0000
,
2002
3003
0010
0100
,
1000
0000
0001
0000
1000
0000
0010
0100
,
0001
1000
0010
1000
,
0100
0000
0010
0001
0010
0001
0010
0000
,
1001
0000
0100
0000
0001
1000
0100
0000
,
1000
0001
0100
0000
0010
0000
0100
0010
,
0100
0000
1000
0000
0010
0100
0001
0000
,
0001
0100
0010
0000
1000
0000
0100
1000
,
0100
0000
1000
0000
0001
0000
0010
0100
,
1000
0000
0001
0000
0100
0000
0001
1000
,
0100
0000
0000
0010
0001
0000
0000
0010
,
0200
0010
0010
0310
,
1001
1100
0101
0110
,
1000
0100
0001
0000
0001
0100
1000
0000
,
1000
0000
0001
0000
0001
0100
0010
0000
,
0010
0100
0001
0000
1000
0000
0001
0000
,
1001
0011
1010
0110
,
0001
0100
1000
0000
1000
0100
0001
0000
,
0001
0000
1000
0000
0100
1000
0010
0000
,
0010
1000
0100
0000
0001
0000
1001
0000
,
0001
0010
0100
0000
0010
0000
0100
0000
,
1000
0100
0010
0000
0001
0000
1000
0000
,
0001
0010
0100
0000
1000
0100
0010
0000
,
1001
0110
1001
0110
,
2002
3003
1000
0001
,
0100
0000
0010
0000
0100
0000
1000
0001
,
0010
0100
1000
0100
,
0001
0000
1000
0010
1000
0010
1000
0000
,
0110
0000
1000
0000
0010
0100
0001
0000
,
0010
0100
0001
0000
1000
0000
0001
1000
,
0001
0000
0100
0000
1000
0001
0010
0000
,
0010
0001
1000
0000
0100
0000
0001
1000
,
1001
0000
0100
0000
1000
0000
0010
0100
,
0000
0001
0000
0100
0000
1000
0000
0000
,
0100
0000
0010
0100
0000
0001
0000
1000
,
0000
0000
0100
0010
,
1001
0000
0100
0000
0010
0000
1000
0001
,
0100
0000
0010
0000
0001
0000
0100
0010
,
1000
0000
0000
0001
0010
0000
0000
1000
,
0002
1000
1000
1003
,
1001
0011
1010
0110
,
0001
0010
1000
0000
1000
0010
0001
0000
,
0001
0000
1000
0000
1000
0010
0100
0000
,
0100
0010
1000
0000
0001
0000
1000
0000
,
1001
1100
0101
0110
,
1000
0010
0001
0000
0001
0010
1000
0000
,
1000
0000
0001
0000
0010
0001
0100
0000
,
0100
0001
0010
0000
1000
0000
1001
0000
,
1010
0000
0101
0000
0000
1000
0000
0100
,
0010
0000
0002
0000
0103
0000
0000
0010
,
0000
0100
1000
0000
1000
0000
0010
0100
,
0000
0001
0010
0000
0100
0000
1000
0000
,
1100
0000
0011
0000
0000
0001
0000
0010
,
0100
2000
3010
0000
,
0100
0000
0001
0010
0000
0100
0000
1000
,
0000
0010
0000
1001
0000
0000
0000
0000
,
1000
0100
0010
0000
0100
0000
0010
0000
,
0001
0010
0100
0000
1000
0000
0001
0000
,
1000
0100
0010
0000
0001
0010
0100
0000
,
1000
0000
0001
0000
1000
0001
1000
0000
,
0010
1000
0001
0000
1000
0000
0001
0000
,
0100
0001
1000
0000
0010
0000
0100
0000
,
0010
1000
0001
0000
0100
0001
1000
0000
,
0001
0100
1000
0010
,
2002
0000
0000
0000
,
3003
0000
0000
0000
;
