#TITLE:Revolution Deathsquad v2;
#SUBTITLE:Inhuman Rampage;
#ARTIST:Dragonforce;
#TITLETRANSLIT:;
#SUBTITLETRANSLIT:;
#ARTISTTRANSLIT:;
#CREDIT:;
#BANNER:Revolution-Deathsquad.jpg;
#BACKGROUND:Revolution-Deathsquad-bg.jpg;
#LYRICSPATH:;
#CDTITLE:CDtitle.png;
#MUSIC:DragonForce - 02 - Revolution Deathsquad.mp3;
#OFFSET:-0.240;
#SAMPLESTART:35.557;
#SAMPLELENGTH:12.000;
#SELECTABLE:YES;
#BPMS:0.000=250.000,32.000=200.000;
#STOPS:;
#BGCHANGES:;
// cache tags:
#FIRSTBEAT:0.000;
#LASTBEAT:1572.000;
#SONGFILENAME:Songs/CMDKDF Pack/Revolution Deathsquad/deathsquad.sm;
#HASMUSIC:1;
#HASBANNER:1;
#MUSICLENGTH:472.920;
// end cache tags

//---------------dance-single - ----------------
#NOTES:
     dance-single:
     :
     Hard:
     13:
     1.000,1.000,1.000,0.482,1.000,4489.000,811.000,228.000,0.000,2.000:

1001
1000
0010
0010
0100
0100
0001
0001
,
0010
0010
0100
0100
0010
0010
1001
1001
,
0000
0100
0100
0001
0001
0010
0010
0100
,
0001
0010
0100
1000
0100
0010
0001
0010
0100
1000
0100
0000
0110
0000
1001
0000
,
0000
0100
0010
0010
0001
0001
0010
0010
,
1000
1000
0001
0001
0010
0010
0100
1001
,
0000
0010
0001
0001
0010
0010
0100
1001
,
0000
1001
0000
2002
0000
0000
0000
0000
,
0000
0000
0000
0000
0000
0000
0000
0000
0000
0000
0000
0000
0000
0000
0000
3003
,
0001
0010
0100
0010
0001
1000
0100
0010
0100
1000
0001
0010
0001
0010
0100
1000
,
0100
0010
0100
1000
0001
0010
0001
1000
0100
1000
0100
0010
0001
0100
0010
0100
,
0001
1000
0100
0010
0001
1000
0100
1000
0001
0100
0010
0100
0001
1000
0001
1000
,
0010
0100
0001
0010
0100
0010
0001
0100
0001
1000
0010
1000
0100
0010
0001
0100
,
1010
0100
1000
0100
0010
0001
0100
0010
0100
0001
1000
0001
0100
0010
0100
0010
,
1000
0010
0100
0001
0100
0001
0010
0100
1000
0010
0100
0001
0010
0100
0010
0001
,
0010
0100
1000
0001
0100
0001
1000
0010
0100
0010
1000
0001
0010
0001
0100
0010
,
1000
0001
1000
0001
1000
0100
1000
0001
1000
0100
1000
0100
1000
0001
1000
0100
,
1001
0100
0010
0100
0001
0100
0010
1000
0001
0100
0010
1000
0100
0010
0100
1000
,
0001
0010
0100
0010
0001
0100
0010
0100
0001
1000
0010
1000
0100
0010
0100
1000
,
0100
0010
0001
0100
0010
0100
0001
1000
0010
1000
0001
1000
0100
0010
0001
0010
,
0001
0100
0010
1000
0010
0100
1001
0000
0000
0100
0000
0000
1000
0010
0100
0001
0100
0010
1001
0000
0000
0100
0000
0000
,
1010
0001
0100
0010
1000
0100
0010
0001
0010
0001
1000
0100
1000
0010
0100
0010
,
1000
0001
0010
0100
0010
0001
0100
0010
1000
0100
0010
0100
1000
0010
0100
0001
,
0010
0100
1000
0001
1000
0100
0010
0001
0100
0001
1000
0100
1000
0010
0100
0001
,
1000
0010
0100
0001
0010
0100
1000
0010
0100
0001
0100
0010
0100
1000
0010
0100
0001
0010
0001
0100
0001
1000
0010
0100
,
2002
0000
0000
0000
0000
3003
0000
0000
,
1001
2002
0000
3003
,
1010
0000
2020
0000
3030
0000
0101
0000
0202
0000
0303
0000
1000
0100
0010
0100
,
1100
0000
2200
0000
3300
0000
0011
0000
0022
0000
0033
0000
1000
0100
0010
0001
,
1001
0100
0010
0001
0010
0100
1001
0100
0010
0001
0010
0100
,
2002
0000
0000
0000
0000
0000
0000
0000
0000
0000
0000
3003
,
1000
0100
0010
0100
1000
0010
0100
0001
0010
0001
1000
0100
0010
0001
0010
0100
,
1000
0010
0100
0010
1000
0001
0010
0001
0100
0010
0100
0001
1000
0010
0100
0001
,
1010
0001
0100
0010
1000
0010
0100
0001
0100
0010
1000
0100
0010
0001
0010
0100
,
1000
0100
0010
0100
1000
0001
1000
0100
1000
0001
0010
0001
0010
0100
1000
0001
,
1001
0001
0001
0001
1010
0010
0010
0010
,
1010
0000
0000
0101
0000
0000
0101
0000
0110
0000
0010
0000
1001
0000
0001
0000
,
0101
0010
1010
0100
0101
0001
0010
0100
,
0001
1000
0100
0010
0001
0010
0100
1000
0100
0010
0001
0100
0010
0100
0001
0010
,
0110
1000
0001
1000
0001
0100
0010
0100
0010
1000
0100
1000
0100
0010
0001
0010
,
0100
1000
0001
0100
0010
1000
0010
1000
0100
0010
0100
1000
0001
0100
0010
0100
,
1001
1000
0100
0010
0001
1000
0010
0100
0001
1000
0010
0100
0010
1000
0100
0010
,
0001
1000
0001
0010
0100
0010
0100
1000
0001
1000
0010
0100
0001
0010
0100
1000
,
1100
0100
0100
0100
0101
0001
0001
0001
,
0101
0000
0000
0110
0000
0000
1010
0000
0110
0000
0010
0000
1001
0000
1000
0000
,
1010
0110
0010
0011
0010
0100
1100
0110
,
1001
0100
0010
0001
0010
0100
1000
0100
0010
0001
0100
0010
1000
0100
0010
0001
,
1001
0100
0010
1000
0010
0100
0001
0010
0100
0010
0001
0100
0010
0100
0001
1000
,
0011
0100
0001
1000
0100
0010
0100
1000
0001
0100
0001
0010
0100
0010
0100
1000
,
1100
1000
0100
0010
1010
0010
0011
0010
,
0110
0000
1100
0000
0110
0000
0010
0000
0011
0010
0100
0010
0001
1000
0010
0100
,
1001
0010
0100
1000
0100
0010
0001
0100
0010
1000
0001
0010
0001
0010
0100
1000
,
0010
1000
0001
0100
0001
0010
0001
1000
0100
0010
0100
1000
0001
1000
0010
0100
,
0110
1000
0100
0010
0001
0010
0001
1000
0010
0100
0010
1000
0001
0100
0010
1000
,
0001
0010
0100
1000
0001
0010
0100
1000
0001
0010
0100
1000
0001
0010
0100
1000
,
1001
0100
0010
0001
0010
0100
1000
0001
1000
0010
0100
0010
1000
0010
0100
0001
,
1000
0100
0010
0001
0100
0001
1000
0010
0100
0010
1000
0001
0010
0100
1000
0100
,
1010
0000
1010
0000
1010
0101
0000
1010
,
0000
0000
0110
0001
0100
0010
1000
0100
0010
0001
0100
0001
0100
0001
0010
0100
,
1001
0100
1001
0010
1010
0001
0101
0010
,
0110
1000
0101
0011
0010
1100
1010
0100
,
1001
0001
1000
0001
1000
0100
1000
0001
1000
0001
1000
0010
1000
0010
1000
0001
,
1000
0100
1000
0100
1000
0001
1000
0010
1000
0010
1000
0001
1000
0100
1000
0100
,
1001
0000
0000
0000
0000
0000
0000
0000
0000
0000
0000
0000
0000
0000
0000
1001
,
0000
0000
0000
0000
,
1100
0000
1001
0000
0110
0000
0011
0000
0110
0000
1100
0000
0110
0000
0100
0010
,
1100
0110
0011
0110
1100
0110
1000
0001
,
1100
0001
0001
1100
0001
0001
1100
0001
,
1100
0001
0001
1100
0001
0001
1100
0001
,
1100
1000
0100
1000
0100
1000
0100
1000
0100
1000
0100
1000
0100
1000
0100
1000
,
1001
1001
1001
1001
,
1010
0100
0001
0010
0100
0010
0001
1000
0100
0010
0100
1000
0001
0010
0100
1000
,
0001
0010
0001
0100
0010
1000
0001
0100
0001
0010
0100
0010
0001
1000
0001
0010
,
0110
1000
0100
0010
0001
0010
0001
0010
0001
0010
0001
1000
0100
0010
0001
0010
,
1001
0100
1000
0001
0010
0100
1000
0001
0100
0001
0010
0100
0010
0001
1000
0010
,
0101
0010
1000
0100
1000
0100
0010
0001
0100
0001
0100
0010
1000
0010
1000
0001
,
0010
0001
1000
0010
0100
0001
0010
0100
0010
0001
1000
0100
0010
0001
0010
0100
,
1001
0010
0001
0011
0010
0100
0110
0100
,
1100
0100
0010
0001
1000
0100
1000
0001
0100
0001
1000
0010
0100
0001
0010
0100
,
1001
0001
0100
0001
0010
0100
1000
0010
0100
0001
0010
0001
0100
0010
1000
0100
,
0010
0001
1000
0010
1000
0100
0010
0100
1000
0001
0100
0010
0100
0010
1000
0010
,
0101
0001
0100
0001
0010
0100
0010
0001
1000
0100
0010
0001
0100
0010
1000
0100
,
1000
0001
0100
0010
0100
0001
1000
0010
0100
0010
1000
0010
0100
0001
1000
0100
,
0110
0001
1000
0001
1000
0001
0110
0001
1000
0001
1000
0001
0110
0001
1000
0001
,
0110
0001
1000
0001
1000
0001
0110
0001
1000
0001
1000
0001
0110
0001
1000
0001
,
1010
0000
1001
0110
1010
0000
1100
0110
,
0101
0101
1001
0110
,
1001
1100
0110
0011
0110
1010
1001
1100
,
0110
0101
1001
1010
0101
1001
0110
1001
,
1001
0110
0011
1100
0110
0101
1001
0110
,
1000
0100
1000
0100
0010
0100
0010
0100
1000
0001
1000
0001
0100
0010
0100
0010
,
1100
0000
1100
0000
0011
1000
0011
0000
0110
0000
0110
0000
1001
0100
1001
0000
,
0011
0000
0011
0000
0101
0010
0101
0000
1001
0000
1001
0000
0110
0001
0110
0000
,
1100
0100
0110
0011
0001
0110
0011
0110
,
1100
0100
0110
0011
0010
1000
0110
0011
,
2002
0000
0000
0000
,
3003
1100
0010
0001
0010
0100
1000
0000
,
2002
0000
0000
3003
,
0001
0100
0010
1000
0100
0010
0001
1000
0001
0010
0100
0010
0001
1000
0001
0100
,
0010
0100
0001
1000
0010
0100
0001
1000
0100
0010
0100
1000
0001
0100
0001
1000
,
0110
1000
0100
0010
0100
0010
0001
1000
0010
0100
0001
0010
0100
1000
0100
0010
,
0100
1000
0001
1000
0100
0010
0100
1000
0001
0010
0100
0010
0100
1000
0100
0010
,
1100
0100
0100
0100
0110
0010
0010
0010
,
0011
0000
0000
0110
0000
0000
1100
0000
0110
0000
0010
0000
0011
0000
0001
0000
,
0011
0010
0110
1000
0110
0011
0110
1001
,
1010
0100
1000
0100
1000
0100
0010
0100
0010
0100
0010
0001
0010
0001
0010
0001
,
0011
0010
0001
1000
0100
0010
0100
1000
0001
1000
0100
0010
0100
1000
0001
0100
,
0010
0100
0001
0010
0100
1000
0100
0010
0001
0100
0010
1000
0001
1000
0100
0010
,
1001
0010
0100
1000
0100
0010
0001
0010
0001
0100
0010
1000
0100
1000
0001
1000
,
0100
0010
0001
1000
0100
1000
0010
0100
0001
0010
0100
1000
0001
0010
0100
1000
,
0110
0010
0010
0010
1010
1000
1000
1000
,
1010
0000
0000
0101
0000
0000
1100
0000
0010
0000
0011
0000
0100
0000
0010
0000
,
1001
0100
0010
0001
1000
0100
0010
0001
1000
0100
0010
0001
1000
0100
0010
0001
,
1001
0001
0010
0100
1000
0001
0010
0100
1000
0001
0010
0100
1000
0001
0010
0100
,
1001
0100
0010
0100
0001
0010
0100
1000
0001
0100
0001
1000
0010
1000
0001
0010
,
0001
1000
0100
0010
0001
0010
0001
1000
0010
1000
0100
0010
0100
1000
0001
0100
,
0110
0110
0011
0011
0110
0110
0011
0011
,
1100
0010
1000
0100
1000
0001
0010
0001
1000
0010
0100
0001
0010
0001
1000
0100
,
1001
0010
0100
0001
0100
0010
0001
1000
0010
0100
0001
1000
0010
0100
0001
0100
,
0001
1000
0010
1000
0010
0100
0001
0010
0001
1000
0100
1000
0001
0100
0010
1000
,
0001
0100
0010
0100
0001
1000
0001
0010
0100
1000
0001
0100
0010
0100
0010
1000
,
1001
0100
0010
0001
0010
0100
1000
0100
0010
0001
0010
0100
1000
0100
0010
0001
,
1100
0001
0100
0010
1000
0100
1000
0001
0100
0010
1000
0100
0010
0001
0010
0100
,
1001
0100
0010
0001
1000
0100
1000
0001
0100
0001
0010
0100
1000
0100
0010
0100
,
2020
0000
0000
3030
2020
0000
0000
3030
2020
3030
0202
0000
0000
0303
2020
0000
,
0000
3030
0202
0000
0000
0303
0100
0000
0001
1000
0010
0100
0001
0010
0100
1000
,
1010
0100
0010
0100
1000
0001
0010
0100
0010
0001
1000
0010
0100
0010
0100
0001
,
0010
0001
0010
0100
1000
0010
0100
0001
1000
0100
1000
0001
0010
0100
1000
0100
,
1000
0100
0010
0001
0010
0100
1000
0100
0010
0100
1000
0001
0100
0010
0100
0001
0010
0001
1000
0100
0010
1000
0010
0100
,
1000
0001
0100
0010
0100
0001
0010
0100
0010
0001
1000
0100
1000
0100
0010
0100
0010
0001
0100
0001
0010
0100
1000
0010
,
1001
0000
0000
0000
0000
0000
0000
1001
,
0000
0000
0000
0000
,
1001
0000
1010
0000
0110
0000
0101
0000
1001
0000
1010
0000
0110
0000
0011
0100
,
0110
0011
0110
1001
0011
1100
0011
0110
,
1000
0100
1000
0100
0011
0000
1000
0100
1000
0100
0011
0000
1000
0100
1000
0000
,
1000
0100
1000
0100
1000
0001
1000
0001
1000
0010
0100
0010
0100
0001
1000
0100
,
2002
0000
0000
0000
,
0000
0000
0000
0000
0000
0000
0000
0000
0000
0000
0000
0000
0000
0000
0000
3003
,
0100
1000
0010
0100
0010
1000
0001
0010
0100
0010
0001
1000
0010
0100
0001
0010
,
0100
0010
0001
1000
0010
1000
0001
0010
0001
1000
0100
1000
0001
0100
0001
0100
,
1001
0010
0100
1000
0100
0010
0001
1000
0001
0010
0100
1000
0010
0100
0001
0100
,
1010
1000
0100
0010
0100
0001
0100
0010
1000
0100
0010
0001
0010
0100
1000
0100
,
1001
0010
0100
1000
0100
0010
0001
0100
0010
0100
0001
0010
0001
1000
0100
1000
,
0010
0100
0010
1000
0001
0010
0100
1000
0010
0100
0010
1000
0001
0010
0001
1000
,
0110
0010
0011
0110
0010
1100
0100
0011
,
0110
0110
0110
0110
0101
0101
0101
0101
,
0101
0010
0100
1000
0010
0100
0010
1000
0001
0100
0001
0010
0100
0010
0001
1000
,
0010
0100
0001
0010
0001
1000
0010
1000
0001
1000
0010
0100
0010
1000
0100
0010
,
0101
0010
0100
0010
0100
1000
0001
0100
0001
0010
0100
1000
0010
0100
0010
1000
,
0001
0100
0001
0010
0100
1000
0010
0100
0010
1000
0001
1000
0001
0010
0100
0010
,
0101
0100
0010
0100
0001
1000
0010
0100
0010
1000
0001
1000
0010
0100
0001
1000
,
0001
0100
0010
1000
0001
1000
0010
0100
0010
0100
0001
0010
0100
1000
0010
0100
,
0102
0000
0000
0000
0010
0000
1000
0000
0010
0000
0000
0000
0010
0000
0100
0003
,
1010
1001
0101
0110
,
1001
1010
1001
0101
0011
0110
1010
1001
,
1100
0000
0110
0000
0011
0000
0110
0000
0011
0010
1010
0000
0101
0010
0110
0000
,
1001
0110
0011
1100
0110
0011
0110
1001
,
1000
0100
1000
0100
1100
0000
0000
0000
0001
0010
0001
0010
0011
0000
0000
0000
,
1100
0000
0110
0000
0011
1000
0011
0000
0110
0000
0110
0000
1001
0100
1001
0000
,
1010
0000
0101
0000
1010
0100
0011
0000
1001
0000
0110
0000
1010
0001
0110
0000
,
1100
0100
0010
0011
0110
0100
1000
1100
,
0100
0011
0001
0110
0101
1000
0110
0010
,
2002
0000
0000
0000
0000
0000
0000
0000
0000
0000
0000
0000
0000
3003
0000
0000
,
1010
0101
0110
1010
,
0102
0000
0100
0100
0100
0100
0100
0100
,
0100
0000
0100
0000
0100
0000
0100
0000
0100
0000
0010
0010
0010
0000
0003
0000
,
1001
1010
0100
1010
0010
1001
0001
0100
,
0011
0110
1000
0011
0100
1010
0100
0010
,
0011
0001
0010
0001
0010
0001
0010
0001
0010
0001
0010
0001
0010
0001
1010
1000
,
0010
1000
0010
1000
0010
1000
0010
1000
0010
1000
0010
1000
0010
1000
0010
1000
,
1010
0110
0100
1100
1000
1010
0010
0001
,
0011
0101
0010
1001
0100
1010
1000
0001
,
1100
1000
0100
1000
0100
1000
0100
1000
0100
1000
0100
1000
0100
1000
1100
0010
,
0001
0010
0001
0010
0001
0010
1001
1000
0001
1000
0001
1000
0001
1000
0001
1000
,
1001
1100
0100
0011
0010
0110
1000
0100
,
0011
1100
0100
0011
0010
1100
1000
0010
,
1010
1000
0100
0010
0100
1000
0100
0010
0100
1000
0100
0010
0100
1000
0110
0001
,
0010
0100
0010
0001
0010
0100
0010
0001
0010
0100
0010
0001
0010
0100
0010
0001
,
1001
0101
0010
1001
0100
0110
0011
0110
,
1100
0010
0101
0010
1100
0110
0011
0110
,
1100
1000
0010
0100
0010
1000
0010
0100
0010
1000
0010
0100
0010
1000
1010
0001
,
1000
0001
0010
0001
1000
0001
0110
0001
0100
0010
0100
0001
0100
0010
0100
0001
,
1001
0000
1000
0000
0100
0000
0010
0000
0100
0000
0010
0000
1000
0010
0100
0000
0001
0000
0010
0100
1000
0000
0100
0010
,
0100
1000
0001
0100
0001
0000
0010
0100
0010
0000
0100
0000
1000
0000
0100
0000
0010
0000
0002
0000
0000
0000
0003
0000
,
1001
0000
0010
0001
0100
0010
0000
0001
0000
0010
0000
0100
0000
1000
0010
0100
0001
0010
0100
0010
0100
1000
0001
0000
,
0010
0100
0001
0010
0100
0000
0001
0010
0001
0000
0001
1000
0100
0010
0001
1001
0000
0000
0000
0000
0000
0100
0000
0000
,
1001
0000
0100
0000
0010
0000
0001
0000
1000
0000
0100
0000
0010
0001
1000
0010
0100
0001
0010
0000
0001
0000
1000
0000
,
0100
0000
0000
0000
0010
0000
0000
0000
0001
0000
0000
0000
1000
0000
0100
0000
1000
0000
0010
0000
0100
0000
0001
0000
1000
0000
0001
0000
0010
0000
0200
0000
0000
0300
0000
0000
0100
0000
0000
0000
0000
0000
1001
0000
0000
0000
0000
0000
,
0100
0000
1001
0000
0100
0000
0011
0000
0010
0000
1100
0100
0010
0001
0011
0000
,
0010
0000
0110
0000
0100
0000
1100
0000
0100
0000
0100
0010
0001
0010
0100
0000
,
1001
0010
0100
0010
0010
0100
0100
2000
,
3000
0010
0001
1000
0100
1000
0001
0010
,
0100
1000
0100
0010
0001
0010
0100
2000
,
0000
3001
0010
0200
0000
0000
0000
0300
,
1100
1100
0010
0010
0100
0001
0010
0200
,
0000
0310
0001
1000
0010
1000
0100
0010
,
0001
1000
0100
0010
0100
1000
0001
0010
,
1000
0100
0010
0001
1000
0100
0010
0001
1000
0100
0010
0001
1000
0100
0010
0001
,
2000
0000
3100
0010
0001
1000
0010
0200
,
0000
0310
0001
0010
0100
0010
0001
1000
,
0020
0000
0000
0000
0000
0000
0000
0000
0230
0000
0000
0000
0000
0000
0000
0000
0320
0000
0000
0000
0000
0000
0000
0000
0230
0000
0000
0000
0000
0000
0000
0000
0302
0000
0000
0000
0000
0000
0000
0000
2003
0000
0000
0000
0000
0000
0000
0000
3002
0000
0000
0000
0000
0000
0000
0000
2003
0000
0000
0000
0000
0000
0000
3000
,
0012
0000
0000
0000
0000
0000
0000
0003
0120
0000
0000
0000
0000
0000
0000
0030
1200
0000
0000
0000
0000
0000
0000
0300
2001
0000
0000
0000
0000
0000
0000
0000
0000
0000
0000
0000
0000
0000
0000
0000
0000
0000
0000
0000
0000
0000
0000
0000
0000
0000
0000
0000
0000
0000
0000
0000
3000
0000
0000
0000
0000
0000
0000
0000
,
1001
1001
0100
0010
0001
0100
0010
0201
,
0000
0310
0001
1000
0100
0010
0100
1000
,
0011
0011
0100
1000
1010
1001
0100
0010
,
0001
0100
0010
1000
0001
0100
0010
1000
0001
0100
0010
1000
0001
0100
0010
0100
,
2002
0000
0000
0000
3000
0000
0000
0000
0203
0000
0000
0000
0320
0000
0000
0000
2030
0000
0000
0000
3200
0000
0000
0000
0302
0000
0000
0003
2020
0000
0000
0000
,
0000
0000
0000
3000
0200
0000
0000
0330
0002
0000
0000
0000
0023
0000
0000
0000
2030
0000
0000
0000
3200
0000
0000
0000
0302
0000
0000
0000
0000
0000
0000
0003
,
2020
0000
0000
0000
0000
0000
0000
0000
0030
0000
0000
0000
0000
0000
0000
0000
0200
0000
0000
0000
0000
0000
0000
3000
0320
0000
0000
0000
0000
0000
0000
0000
0032
0000
0000
0000
0000
0000
0000
0000
0203
0000
0000
0000
0000
0000
0000
0000
2300
0000
0000
0000
0000
0000
0000
0000
3020
0000
0000
0000
0000
0000
0030
0000
,
0201
0000
0000
0000
0000
0000
0000
0300
0020
0000
0000
0000
0000
0000
0000
0000
0002
0000
0000
0000
0000
0000
0033
0000
0200
0000
0000
0000
0000
0000
0000
0000
2300
0000
0000
0000
0000
0000
0000
0000
3020
0000
0000
0000
0000
0000
0000
0000
0200
0000
0000
0000
0000
0000
0000
0000
0030
0000
0000
0000
0000
0000
0000
0000
,
0320
0000
0000
0000
0000
0000
0000
0000
0002
0000
0000
0000
0000
0000
0000
0030
2000
0000
0000
0000
0000
0000
0000
0000
3003
0000
0000
0000
0000
0000
0000
0000
0200
0000
0000
0000
0000
0000
0000
0000
0020
0000
0000
0000
0000
0000
0000
0300
0002
0000
0000
0000
0000
0000
0000
0000
0030
0000
0000
0000
0000
0000
0000
0000
,
0203
0000
0000
0000
0320
0000
0000
0000
0230
0000
0000
0300
2002
0000
0000
0000
3000
0000
0000
0000
0023
0000
0000
0000
0000
0000
0000
0000
0030
0000
0000
0000
,
1020
0000
1000
0000
1000
0030
0210
0000
0010
0000
0310
0000
0102
0000
0100
0003
,
1001
0100
0010
0100
1000
0001
0100
0001
0100
0010
0100
0001
1000
0100
0010
0100
,
1001
1001
1001
1001
1001
0000
0000
0000
,
0110
0110
0110
0110
0110
0000
0000
0000
,
0101
0101
0101
0101
0101
0000
0000
0000
,
1010
0000
1010
0000
1010
0000
0001
0000
0220
0000
0000
0000
0000
0000
0000
0330
,
1001
1100
1001
0101
1001
0000
0000
0000
,
1010
0110
0101
0110
1100
0000
0000
0000
,
1001
0110
1001
0110
1001
0000
0000
0000
,
1100
1010
1001
1000
1010
1001
1100
0100
,
1001
1001
1000
0100
0010
0001
0010
1100
,
1000
0100
0010
0001
0010
0100
1000
0100
,
0011
0010
0100
0010
0001
0011
0100
1001
,
1000
0101
0010
0012
0000
0000
0000
0003
,
1001
1001
0100
0010
0100
0011
1000
0120
,
0030
0011
0100
0010
0011
0100
1100
0010
,
0011
0100
0010
0011
0010
0110
0100
1100
,
0100
0010
0100
0010
0100
1000
0100
0010
0100
0010
0100
1000
0100
0010
0100
1000
,
1200
0000
0310
0001
1000
0010
0011
2100
,
0000
3001
0010
0100
1000
0001
0100
0010
,
2001
3100
2001
3100
0210
1300
0210
1300
,
1100
0110
0011
0120
0000
0000
0000
0030
,
1010
1010
0001
0010
0100
0010
0001
1020
,
0000
0130
0001
1000
0010
0100
0010
1000
,
0011
0011
0110
1100
0101
0011
0110
1100
,
1100
0010
0001
1000
0100
1000
0010
0100
0001
0010
0100
1000
0001
0100
0010
1000
,
1001
0000
1000
0000
1000
0000
1000
0000
1000
1000
1000
0000
1000
0000
1001
1000
,
1000
0000
1000
0000
1000
1000
1000
0000
1000
1000
1000
0000
1000
1000
1000
0000
,
1001
0000
1000
0000
1000
0000
1000
0000
1000
1000
1000
0000
1000
1000
1000
0000
,
1001
0000
0000
0110
0000
0000
0011
0000
0000
0000
0010
0000
0001
0000
0010
0000
,
0100
0000
0101
0001
0001
0000
0001
0000
0001
0001
0001
0000
0001
0000
0101
0000
,
0001
0000
0001
0001
0001
0000
0001
0000
0001
0001
0001
0000
0001
0001
0001
0000
,
0101
0000
0001
0001
0001
0000
0001
0000
0001
0001
0001
0000
0001
0001
0001
0000
,
1100
0000
0000
0110
0000
0000
1001
0000
0000
0000
1010
0000
1000
0000
0010
0000
,
1001
0000
1001
0000
,
1001
0100
0010
0001
0010
0100
1000
0100
0220
0330
0220
0330
0220
0330
0220
0330
,
0010
0001
0100
0010
1000
0001
0010
0001
0202
0303
0202
0303
0202
0303
0202
0303
,
0010
0100
0001
0010
0100
1000
0010
0100
2002
3003
2002
3003
2002
3003
2002
3003
,
1010
0100
0001
1000
0100
1000
0010
0100
0001
0010
0001
0100
0010
1000
0100
0010
,
2001
0000
0001
3001
0010
0100
1000
0100
0010
0100
1000
0100
0010
0001
0010
0100
,
1002
0000
1000
1003
0010
0100
0001
0100
0010
1000
0010
0100
0020
0000
0000
0030
,
1020
0000
1000
1030
0010
0100
0001
1000
0100
1000
0001
0010
0100
0010
0001
1000
,
0010
0000
0000
0000
0100
0000
0000
0000
0010
0000
0000
0000
1000
0000
0000
0000
0100
0000
0000
0000
0010
0000
0000
0000
0100
0000
0000
0000
1000
0000
0000
0000
0100
0000
0000
0000
1000
0000
0000
0000
0100
0000
0000
0000
0010
0000
0000
0000
0002
0000
0000
0000
0000
0000
0000
0000
0000
0000
0000
0000
0000
0000
0000
0003
,
1100
0000
1100
0000
0100
0100
0101
0000
0011
0000
0011
0000
0010
0010
0110
0000
,
1001
0000
1001
0000
1000
1000
1010
0000
0001
0100
0010
1000
0022
0000
0033
0000
,
1010
0000
1010
0000
0100
0100
0110
0000
1001
0000
1001
0000
0100
0100
1100
0000
,
1000
0100
0010
0001
1000
0100
0010
0001
0010
0100
1000
0010
0100
0001
0010
0100
,
1001
0000
1001
0000
0010
0010
0110
0000
0101
0000
0101
0000
0010
0010
1010
0000
,
0110
0000
0110
0000
1000
1000
1100
0000
1000
0100
0010
0100
1000
0000
0000
0000
,
1010
0000
0101
0000
1000
0100
1100
0000
0011
0000
1100
0000
1000
0010
1010
0000
,
0001
0010
0100
1000
0001
0010
0100
0010
0001
1000
0001
0010
0200
0000
0300
0000
,
1010
0110
0011
0110
1100
1001
0110
0011
,
1100
0110
0011
1001
0101
1010
1001
0101
,
1001
0110
0011
0110
1100
0110
0101
0110
,
1100
0100
0010
0001
0010
0100
0010
0001
1000
0100
0010
0001
0110
0000
1001
0000
,
1100
1010
0011
0101
1100
1010
0011
0101
,
1100
0011
0110
1100
0011
0110
1100
0110
,
0101
1010
0110
0011
1001
0110
1100
0110
,
0101
0010
0100
0010
0001
1000
0100
0010
0100
1000
0100
0010
0001
0010
0100
1000
,
0202
0000
0000
0000
0000
0000
0000
0300
0103
0000
0000
0000
2002
0000
0000
0000
0000
0000
3000
0000
1003
0000
0000
0000
0100
0000
0000
0000
0010
0000
0000
0000
,
2001
0000
0000
0000
0002
0000
0000
0003
0100
0000
0000
0000
3200
0000
0000
0000
0300
0000
0000
0000
0100
0000
1000
0000
1100
0000
0000
0000
0000
0000
0000
0000
,
1002
0000
0100
0103
0000
0100
0101
0000
,
2002
0000
0000
0000
0003
0000
3001
0010
1001
0000
0000
0000
0000
0000
0000
0000
,
2002
0003
0001
0010
3100
0000
0010
0100
,
2100
3100
0012
0013
2100
3100
0011
0000
,
1002
1000
0100
0100
0010
0100
1000
0200
,
0000
0000
0000
0000
0000
0303
1000
0100
,
0011
0010
0100
1000
0001
0011
0110
1100
,
0110
0000
0011
0000
1000
0100
0010
0000
0010
0100
1000
0000
1010
0000
0000
0000
,
1010
0000
1000
0100
0010
0100
1000
0001
0010
0100
1000
0001
0010
0100
1000
0100
,
0010
0001
0010
0100
1000
0010
0100
0001
0010
0001
0010
0001
0010
0001
0010
0001
,
1000
0000
0000
0000
0100
0000
0000
0000
0010
0000
0000
0000
0100
0000
0000
0000
1000
0000
0000
0000
0001
0000
0000
0000
0010
0000
0000
0000
0100
0000
0000
0000
1000
0000
0000
0000
0100
0000
0000
0010
0000
0000
0001
0000
0000
0100
0000
0000
,
0010
0001
1000
0010
1000
0100
0010
0001
0100
0010
1000
0100
0020
0000
0030
0000
,
1010
0000
1000
0100
0010
0000
0010
0001
0100
0000
0010
1000
0100
0000
0100
0000
,
1000
0010
1000
0010
0100
0001
0100
0001
0010
0100
0010
0100
1000
0001
1000
0001
,
1001
0000
1000
0100
1000
0100
1000
0000
1000
0100
1000
0100
2001
0000
0000
3010
0000
0000
1002
0000
0000
0013
0000
0000
,
1010
0000
0001
0010
0001
0010
0001
0000
0001
0010
0001
0010
1002
0000
0000
0013
0000
0000
2001
0000
0000
3010
0000
0000
,
1001
0001
1000
0000
0100
0000
1001
1000
0001
0000
0100
0000
0100
0010
0110
0000
,
0001
0010
0100
1000
0100
0010
0001
0010
2020
0000
0000
3030
0202
0000
0000
0303
,
1000
0001
0010
0100
0010
0001
1000
0100
0101
0000
0010
0000
0101
0000
1000
0000
,
0010
0100
1000
0001
0010
0001
1000
0010
1000
0100
0010
0100
2200
0000
0000
3300
,
1001
0100
0010
0001
0010
0100
1000
0100
1001
0010
0001
0010
0100
1000
0100
0010
,
0102
0003
0102
0003
0102
0003
0102
0003
2100
3000
2100
3000
2100
3000
2100
3000
,
0011
0000
0011
0000
0010
0100
1000
0100
0011
0000
0011
0000
0010
0100
0001
0100
,
1010
0000
1010
0000
1000
0001
0010
0100
1100
0000
1100
0000
1000
0100
0010
0001
,
1001
0100
1000
0100
0010
0001
1000
0100
0010
0100
1000
0100
0010
0001
1000
0001
,
1010
0001
0010
0001
0010
0100
1000
0100
0010
0100
1000
0001
0100
0010
1000
0000
,
1001
0010
0100
1000
0100
0010
0100
1000
0010
0100
0010
1000
0001
0010
0100
0010
,
0001
0010
0100
0001
1000
0010
0100
0010
1000
0010
0100
0001
1000
0001
0100
0010
,
1001
0010
0100
1000
0100
0010
0001
0010
0100
1000
0100
0010
0001
0010
0100
1000
,
0110
0110
0011
0011
0110
0110
1100
1100
,
0011
0000
0001
0010
1100
0000
1000
0100
0011
0000
0100
0010
1001
0000
0010
0100
,
1001
0000
0100
0010
0101
0000
0010
0100
0101
0000
0010
0100
0011
0000
0000
0000
,
0010
1000
0100
1000
0001
0010
0001
1000
0100
0010
0100
1000
0010
0100
0010
1000
,
1001
0000
1001
0000
1010
0000
0101
0000
0022
0000
0000
0033
2200
0000
0000
3300
,
2001
0000
0001
0000
0010
0000
0010
0000
0001
0010
0100
0000
0010
0000
0001
0000
,
0010
0000
0100
0000
0010
0000
0001
0000
0010
3001
1100
0000
0010
0000
0100
0000
,
1002
0100
0010
0100
1000
0010
0100
1000
0010
1000
0010
0100
,
0010
0000
0000
0000
1000
0000
0000
0000
0010
0000
0000
0000
0100
0000
0000
0000
0010
0000
0000
0000
1000
0000
0000
0000
0100
0000
0000
0003
0000
0000
1020
0000
0000
0000
0000
0000
0000
0000
0000
0030
0000
0000
0100
0000
0000
0000
0000
0000
,
0022
0000
0000
0033
0010
0000
0000
0000
1000
0000
0010
0000
0100
0000
0001
0000
1000
0000
0010
0000
0100
0000
0010
0000
1000
0000
0001
0000
0010
0000
0100
0000
,
1000
0010
0100
0001
0010
0100
1000
0100
0010
0001
0010
0100
2000
0000
3000
0000
,
1020
0000
0100
0001
1000
0000
0001
1000
0100
0000
0001
0100
1000
0000
0030
0000
,
0102
0000
0100
0010
1000
0000
0010
0100
1000
0000
0100
0010
1003
0000
0000
0000
,
0201
0000
0010
0000
0001
0000
0010
0000
1000
0000
1000
0010
0001
0000
0001
1000
,
0010
0000
0001
0000
0010
0000
1000
0000
0010
0001
0010
0001
0010
0000
0300
0000
,
1001
0000
0010
0000
1000
0010
0100
0001
0010
0100
1000
0100
0010
0001
0100
0010
,
1001
0000
1000
0100
0010
0100
1000
0001
0010
0100
0010
0001
1000
0010
0100
0001
,
1001
0000
0100
0100
0010
0001
1000
0100
0010
0100
1000
0001
0010
0100
1000
0100
,
1001
0000
1000
1000
0100
0010
0001
0100
0010
1000
0001
0001
0010
0100
1000
0100
,
1001
1010
0101
0110
,
1000
0100
1000
0100
1100
0000
0000
0000
0010
0001
0010
0001
0011
0000
0000
0000
,
1001
1000
0001
0010
0100
0010
0001
1000
0010
0100
0010
1000
0001
0100
0010
1000
,
0001
0100
0001
0010
0100
0010
0001
1000
0100
0010
0220
0000
0000
0330
0001
0100
,
1010
1000
0010
1000
0010
1000
0010
1000
0100
0010
0001
0100
0001
0100
0001
0100
,
1001
1010
1000
0110
0010
0011
0001
0010
,
0100
1000
0001
0010
0100
1000
0100
1000
0010
0100
0001
1000
0010
0100
0010
1000
,
0001
0010
0100
1000
0100
0010
0001
0100
0010
1000
0001
0100
0010
0100
0001
0100
,
0010
1000
0010
0100
0001
0100
0010
1000
0100
0010
0001
0100
0010
0100
0001
1000
,
0010
0100
0010
1000
0100
0010
0001
0010
0100
0010
0100
1000
0001
0010
0001
0010
,
1001
0100
1000
0001
0010
0001
1000
0100
1000
0001
0010
0001
1000
0100
1000
0001
,
0100
0001
1000
0010
1000
0001
0100
0001
1000
0010
1000
0001
0100
0001
1000
0010
,
1000
0001
0100
0010
0100
0001
1000
0010
0100
0010
1000
0001
0100
0010
0100
0001
,
1000
0010
0100
0010
1000
0001
0100
0010
0100
0001
1000
0010
0100
0010
1000
0001
,
0010
0100
0010
0001
0100
0010
1000
0010
1000
0100
0010
0001
0010
0100
1000
0100
,
0022
0000
0033
2020
0000
3030
0110
0000
1000
0100
0010
0001
0020
0000
0000
0030
,
0100
0010
0100
0010
1001
0000
0010
0100
0010
0100
1001
0000
0010
0100
0010
0000
,
0010
0100
1000
0100
0010
0100
0010
0001
1000
0010
0100
0010
1000
0100
0010
0001
,
1000
0100
1000
0100
1000
0100
1000
0100
1000
0100
1000
0100
0010
0001
0010
0001
,
0100
0010
0100
0010
0100
0010
1000
0100
1000
0100
1000
0100
0010
0100
0010
0100
,
1000
0010
1000
0010
1000
0010
1000
0010
1000
0010
1000
0010
0100
0001
0100
0001
,
0010
0100
0010
0100
0010
0100
0010
0100
0010
0100
0010
0100
0010
0000
0000
0000
,
1000
0010
1000
0010
1000
0010
1000
0010
1000
0010
1000
0010
0100
0001
0100
0001
,
0010
0100
0010
0100
0010
0100
1000
0001
1000
0001
0100
0010
0100
0010
0100
0010
,
1000
0100
1000
0100
1000
0100
0010
0001
0010
0001
0010
0001
0100
0010
0100
0010
,
1000
0001
1000
0001
1000
0010
1000
0010
1000
0000
0000
0000
1001
0000
0000
0000
,
0010
1000
0010
1000
0010
1000
0010
1000
0010
1000
0010
1000
0001
0100
0001
0100
,
0001
1000
0001
1000
0001
1000
0010
0100
0010
0100
0010
0100
0001
1000
0001
1000
,
0010
0100
0010
0100
0010
0100
0010
0100
0010
0100
0010
0100
0001
0010
0001
0010
,
0100
1000
0100
1000
0100
1000
0100
1000
0100
1000
0100
1000
0100
0000
0000
0000
,
0001
0100
0001
0100
0001
0100
0001
0100
0001
0100
0001
0100
0010
1000
0010
1000
,
0100
0010
0100
0010
0100
0010
0001
1000
0001
1000
0010
0100
0010
0100
0010
0100
,
0001
0010
0001
0010
0001
0010
0100
1000
0100
1000
0100
1000
0010
0100
0010
0100
,
0001
1000
0001
0000
0101
0000
0001
0100
0001
0000
0101
0000
1000
0100
0010
0001
,
0010
0100
1000
0100
0110
0001
0010
0100
1000
0100
1000
0001
0100
0010
0110
0001
,
0010
0100
1000
0001
1000
0010
0100
0010
1000
0100
0010
0001
0100
0010
1000
0100
,
0110
0001
0100
0010
0100
0001
0010
0100
0010
0100
1000
0010
0100
0010
0100
0001
,
1000
0001
0100
0010
1000
0100
1000
0001
0100
0010
1000
0001
1000
0000
0100
0000
,
1010
0010
0010
0010
0010
0010
1001
0001
0001
0001
0001
0001
0101
0000
0100
0000
,
1001
1000
1000
1000
1100
0100
0100
0100
0110
0010
0010
0010
0011
0001
0001
0001
,
2020
0000
0000
0030
0020
3000
0200
0030
0000
0000
0000
0000
0002
0000
0000
0003
,
2000
0000
0000
0000
0000
0000
0000
3300
,
1001
0100
0010
0100
1000
0010
0100
0001
0100
0001
0010
0100
1000
0100
0010
0001
,
1001
0010
0100
1000
0010
0100
0010
1000
0001
1000
0001
0010
0100
0010
0100
1000
,
1001
1000
0100
1000
0100
1000
0110
0010
0001
0010
0001
0010
0011
0100
0010
0100
,
0110
0100
0001
0100
0011
0100
0001
0100
1001
0100
1000
0100
0101
1000
0100
0010
,
1001
0100
0010
0100
1000
0001
0010
0100
0010
0001
1000
0001
0100
0010
0100
0001
,
1000
0010
0100
0010
1000
0010
0100
0001
0010
0100
0010
0001
0010
0001
1000
0100
,
1001
1001
0110
0011
0011
0110
0101
0101
,
1100
1100
1100
1100
0110
0110
0110
0110
,
1001
0010
0100
1000
0001
0010
0001
1000
0010
0100
0001
0010
0100
0010
0100
1000
,
0001
0100
0010
0100
0001
0100
0010
1000
0001
1000
0010
0100
0001
1000
0001
0010
,
1001
0100
0010
0100
0010
1000
0100
1000
0100
0010
0001
0100
0010
0100
0001
0010
,
1100
0010
0001
1000
0010
0100
0001
0010
0100
0010
0001
1000
0010
0100
0010
1000
,
1001
0100
0010
0100
1000
0001
0010
0100
1000
0100
1000
0010
0100
0001
0010
0100
,
1010
0100
1000
0001
0010
0001
0100
0010
0100
0001
1000
0100
0010
0001
0100
0010
,
1001
0000
0000
0000
0000
0000
0000
0000
0000
0000
0000
0000
0000
0000
0000
0000
0000
0000
0000
0000
0000
0010
1000
0100
,
1010
0000
0000
0000
,
1000
0100
0010
1000
0100
0010
1000
0100
0010
1000
0100
0010
1000
0100
0010
1000
,
0100
0010
1000
0100
0010
1000
0100
0010
1000
0100
0010
1000
0100
0010
1000
0100
,
1001
1000
0100
0001
1000
0100
0001
1000
0100
0001
1000
0100
0001
1000
0100
0001
,
1000
0100
0001
1000
0100
0001
1000
0100
0001
1000
0100
0001
1000
0100
0001
1000
,
1001
0010
0100
0001
0010
0100
0001
0010
0100
0001
0010
0100
0001
0010
0100
0001
,
1000
1000
1000
0000
0100
0000
1000
1000
1000
0000
0100
0000
1000
1000
1000
0000
,
1100
0100
1100
0100
1100
0000
0000
0000
0110
0001
0110
1000
0110
0000
0000
0000
,
1100
0010
0101
0010
1100
0000
0000
0000
1001
0010
0101
1000
0110
0000
0000
0000
,
2002
0000
0000
0000
,
3113
0011
0110
1100
,
1100
0011
0110
1100
0101
0110
0011
1100
,
0110
0011
0101
1001
0110
1010
0101
0110
,
1001
0000
0000
0000
0200
0000
0000
0000
0320
0000
0000
0030
0202
0000
0000
0300
2003
0000
0000
3000
0020
0000
0000
0030
0202
0000
0000
0300
0023
0000
0000
0000
2000
0000
0000
3000
0232
0000
0000
0300
0023
0000
0000
0000
0230
0000
0000
0300
,
2002
0000
0000
0000
,
3003
0000
0000
0000
;
