#TITLE:Rise;
#SUBTITLE:Ghost in The Shell S.A.C 2nd Gig;
#ARTIST:Yokko Kano & Origa;
#TITLETRANSLIT:;
#SUBTITLETRANSLIT:;
#ARTISTTRANSLIT:;
#CREDIT:;
#BANNER:S.A.C-bn.jpg;
#BACKGROUND:BBground.jpg;
#LYRICSPATH:;
#CDTITLE:D;
#MUSIC:Rise - Origa & Yokko Kanno.mp3;
#OFFSET:0.109;
#SAMPLESTART:40.000;
#SAMPLELENGTH:14.500;
#SELECTABLE:YES;
#BPMS:0.000=145.990;
#STOPS:;
#BGCHANGES:0.000=S.A.C 2nd Gig.avi=1.000=1=0=0,
201.000=BBground.jpg=1.000=1=0=0,
99999=-nosongbg-=1.000=0=0=0 // don't automatically add -songbackground-
;
// cache tags:
#FIRSTBEAT:20.000;
#LASTBEAT:200.000;
#SONGFILENAME:Songs/dragon force/S.A.C 2nd Gig - Rise/S.A.C.sm;
#HASMUSIC:1;
#HASBANNER:1;
#MUSICLENGTH:90.775;
// end cache tags

//---------------dance-single - ----------------
#NOTES:
     dance-single:
     :
     Hard:
     9:
     0.576,0.633,0.496,0.187,0.187,304.000,45.000,17.000,0.000,1.000:
0000
0000
0000
0000
,
0000
0000
0000
0000
,
0000
0000
0000
0000
,
0000
0000
0000
0000
,
0000
0000
0000
0000
,
1001
0000
1000
0100
0000
1100
0000
0001
,
0000
0101
0000
1000
0000
1000
0100
0010
,
0011
0000
0010
0100
0000
0110
0000
1000
,
0000
1100
0000
0010
0000
0001
0100
0010
,
0110
0000
1000
0010
0000
1000
0000
1002
,
0000
0003
0100
0001
0000
0001
1000
0100
,
0000
0100
1000
0000
1001
0000
0100
1000
,
0001
0001
0101
1000
0100
1000
0000
1001
,
0100
0000
0000
0100
0001
0000
1000
0000
0000
0000
1100
0000
0000
0000
0001
0000
,
0000
0000
0011
0000
0000
0000
0110
0000
0000
0100
0010
0000
0001
0000
1000
0000
,
0100
0000
0000
0100
1000
0000
0001
0000
0000
0000
0101
0000
1000
0000
0100
0000
,
0000
1010
0001
0010
0100
1000
0001
0101
,
0100
0000
0000
0001
1000
0000
0100
0000
0000
0000
0011
0000
0000
0000
0102
0000
,
0000
1003
0100
1100
0000
0001
0100
0101
,
0000
0000
1000
0100
1000
0000
0001
1000
0000
1000
0001
0000
0010
0001
0010
0000
,
0001
0100
0001
0000
1000
0000
0001
0100
0000
0100
0010
0000
1000
0000
0010
0000
,
1001
0100
2000
0001
0000
0001
3100
1000
,
0001
1000
1000
0100
0010
0002
1000
0003
,
1000
0000
0001
0000
0100
0001
0000
0100
0001
0000
1000
0000
0100
1000
0000
0100
,
1000
0000
0001
0000
1000
0001
0000
1000
0000
0001
2000
0000
0100
0000
0000
0000
,
3100
0001
0100
0010
0001
2000
0010
3000
,
0010
0100
0001
1000
0100
0010
0010
0000
,
0001
0000
0010
0100
0000
1000
0010
0000
0100
0001
0000
0001
1000
0000
0001
1000
,
0000
0100
0010
0000
0001
1000
0000
0010
0100
0000
0101
0000
0001
0000
1000
0000
,
1001
0001
0100
0010
0100
1000
0100
0001
,
1010
1000
0010
0001
1000
0100
0001
0100
,
1010
0010
1000
0100
0001
0100
1000
0010
,
1001
1000
0100
0001
0010
0001
0100
1000
,
0101
0001
0010
0100
1000
0001
0100
0010
,
0011
0010
1000
0001
0100
1000
0001
0020
,
0000
0000
0000
0000
0000
0030
1000
0000
0000
0000
1000
0000
0000
0000
2200
0000
,
0000
0300
0000
3002
0000
1003
0000
1002
,
0103
0000
1000
0000
0100
0000
0001
0010
0002
0000
0000
0000
1003
0000
0010
0000
,
0001
0000
0010
0000
1000
0000
0100
0001
0200
0000
0000
0000
1300
0000
0010
0000
,
0100
0000
0001
0000
1000
0000
0010
0001
2000
0000
0000
0000
3001
0000
0010
0000
,
0100
0000
0010
0000
0001
0000
0010
1000
0002
0000
0000
0000
1003
0000
0010
0000
,
1010
0001
0100
0010
1100
0010
0100
0001
,
1100
0001
1000
0100
0011
0100
1000
0001
,
0110
1000
0100
0010
1001
0100
0010
0001
,
1000
0010
1000
0000
0001
0000
0100
0010
0000
0010
0000
1000
0100
0000
0010
0000
,
1001
0100
0010
0001
1100
0010
0101
0010
,
1100
0001
0100
0010
1001
0010
1100
0010
,
2002
0000
0000
0000
,
0000
0000
0000
0000
,
0000
0000
0000
0000
,
3113
0000
0000
0000
;

//---------------dance-single - ----------------
#NOTES:
     dance-single:
     :
     Medium:
     6:
     0.417,0.496,0.485,0.132,0.000,209.000,44.000,12.000,0.000,0.000:
0000
0000
0000
0000
,
0000
0000
0000
0000
,
0000
0000
0000
0000
,
0000
0000
0000
0000
,
0000
0000
0000
0000
,
1000
0100
1000
0001
0000
0001
0100
0001
,
0000
1000
0100
1000
0000
0001
0001
0000
,
0001
0010
0001
1000
0000
1000
0010
1000
,
0000
0001
0010
0001
0000
1000
1000
0000
,
0001
0100
0010
1000
0010
0100
0001
1000
,
0000
0001
0100
0010
1000
0100
2000
0002
,
0000
0000
0000
3003
,
1000
0100
1000
0001
0100
0010
1000
0001
,
1001
0000
1000
0100
0000
0000
0100
0010
,
0001
1000
0001
0100
0000
0000
0001
1000
,
1001
0000
0001
0100
0000
0000
0100
0010
,
1000
0100
0010
0001
0000
0000
1000
0001
,
1001
0000
0001
0010
0000
0010
0001
1000
,
0000
1000
0001
0100
0000
0100
0002
2000
,
0000
0000
0000
0000
,
3003
0000
0101
1100
,
1001
0000
1000
0100
1000
0001
0010
0000
,
0000
0100
1000
0001
2000
0000
0002
0000
,
0000
0000
0000
3003
,
0100
0000
0100
0000
0001
1000
0100
1000
,
0000
1000
0001
0100
0001
0010
0100
0000
,
0100
1000
0010
0100
0001
1000
0001
0000
,
0000
0000
2000
0002
0000
0000
0000
0000
,
0000
0000
0000
3003
,
1001
0000
1001
0000
0100
0010
0001
1000
,
1001
0000
1001
0000
0010
0100
1000
0001
,
1001
0000
1001
0000
0001
0100
0010
1000
,
1001
0000
1001
0000
1000
0001
0100
0001
,
1001
0000
1100
0000
1000
0100
1000
0001
,
1001
0000
0011
0000
0001
0010
0100
1000
,
1100
0000
1001
0000
0001
0100
0010
1000
,
1010
0000
1001
0000
0001
1000
0100
0010
,
0110
0000
1001
0000
0001
1000
0010
0100
,
0110
0000
1001
0000
0001
1000
0001
0100
,
0101
0000
1010
0000
0010
1000
0100
1000
,
1100
0000
0011
0000
0001
1000
0001
0000
,
0101
1100
1001
1001
,
1100
1100
0101
0101
,
1010
1010
1001
1001
,
1100
0000
1000
0100
0000
0010
0002
2000
,
0000
0000
0000
0000
,
3003
0000
1000
0001
0000
0001
1000
2002
,
0000
0000
0000
0000
,
0000
0000
0000
0000
,
0000
0000
0000
0000
,
3003
0000
0000
0000
;

//---------------dance-single - ----------------
#NOTES:
     dance-single:
     :
     Easy:
     4:
     0.268,0.330,0.231,0.154,0.000,135.000,21.000,14.000,0.000,0.000:
0000
0000
0000
0000
,
0000
0000
0000
0000
,
0000
0000
0000
0000
,
0000
0000
0000
0000
,
0000
0000
0000
0000
,
2000
0000
3100
0010
,
0100
0001
1000
1001
,
0002
0000
1003
0010
,
0001
1000
0010
1001
,
0020
0000
1030
0001
,
0100
0001
1000
0100
,
2002
0000
0000
3003
,
0000
0000
0000
0000
,
1000
0100
1000
0001
,
0100
0001
1000
1001
,
0001
0010
0100
1000
,
0001
0100
0001
1001
,
1000
0001
0100
0100
,
0001
1000
0100
0010
,
2002
0000
0000
3003
,
0000
0000
0000
0000
,
1001
0000
0110
0000
,
1001
1000
1000
0002
,
0000
0000
0000
0000
,
0000
0003
1000
0100
,
1000
0001
1000
1001
,
0000
1000
0001
0200
,
0000
0020
0000
0000
,
0000
0330
1001
0001
,
1000
1000
0001
0100
,
1000
0100
0010
0001
,
1000
0001
0100
0100
,
0001
1000
0010
0100
,
0001
1000
0100
0010
,
0001
1000
0010
0100
,
0001
1000
0100
0010
,
0100
1000
0001
0100
,
1001
1000
0001
0100
,
1001
1000
0010
0100
,
0110
0001
1000
0100
,
1001
0001
0010
0100
,
0110
1000
1000
1001
,
0001
0100
0100
0110
,
1000
0001
0100
1001
,
0001
1000
0100
0010
,
0220
0000
0000
0330
,
1000
0001
0100
0010
,
0220
0000
0000
0000
,
0000
0000
0000
0000
,
0000
0000
0000
0000
,
0330
0000
0000
0000
;

//---------------dance-double - ----------------
#NOTES:
     dance-double:
     :
     Challenge:
     9:
     0.482,0.468,0.264,0.055,0.000,277.000,24.000,5.000,0.000,1.000:
00000000
00000000
00000000
00000000
,
00000000
00000000
00000000
00000000
,
00000000
00000000
00000000
00000000
,
00000000
00000000
00000000
00000000
,
00000000
00000000
00000000
00000000
,
10000000
00000000
00010000
01000000
00000000
01010000
00000000
00011000
,
00000000
00001100
00000000
00001001
00000000
00001000
00000100
00000010
,
00000011
00000000
00000001
00000010
00000000
00000100
00000000
00001100
,
00000000
00011000
00000000
00110000
00000000
00010000
00100000
01000000
,
11000000
00000000
10000000
00010000
00000000
01010000
00000000
10000000
,
00000000
00010000
10000000
01000000
00000000
00010000
01000000
00100000
,
10000000
01000000
00100000
01000000
10000000
00010000
01000000
00100000
,
10000000
00000000
00010000
01000000
00100000
00000000
10000000
00010000
,
01000000
00000000
00010000
01000000
00000000
01010000
00000000
00011000
,
00000000
00001100
00000000
00000001
00000000
00001000
00000100
00000010
,
00000001
00000000
00001000
00000100
00000000
00001000
00000001
00000100
,
00000000
00000001
00001000
00000100
00000000
00001000
00000100
00000010
,
00000100
00010000
00001000
01000000
00000000
00110000
00000000
00011000
,
00000000
00010000
00000100
00010000
00001000
01000000
00000000
01001000
,
00000000
00001000
00010000
01000000
10000000
00100000
01000000
00000000
,
00100000
01000000
00010000
00100000
00001000
00010000
00000100
00010000
,
00001000
00100000
00001000
00010000
00000000
00010000
00000100
00000000
,
00001100
00000000
00000110
00000000
00000011
00000000
00000001
00000010
,
00000100
00001000
00000001
00000010
00000001
00001000
00000010
00010000
,
00001000
01000000
00010000
01000000
00001000
00100000
02000000
00000000
,
00000000
13000000
01100000
00010000
,
10010000
00000000
00010000
00000000
00011000
00000000
00001000
00010000
,
00000100
00000010
00000002
00002000
00000000
00000000
00000000
00000000
,
00000000
00000000
00000000
00003003
,
00000001
00000100
00000010
00001000
00000100
00010000
00001000
00100000
,
00010000
10000000
00100000
01000000
00010000
01000000
00001000
00010000
,
00000100
00010000
00001000
00100000
00001000
00010000
00000100
00001000
,
00000010
00000100
00000001
00000010
00000100
00001000
00000010
00010000
,
00000100
00001000
00000010
00010000
00001000
00100000
00010000
01000000
,
00100000
10000000
01000000
00100000
00010000
00001000
00000100
00000010
,
00000001
00000100
00000010
00001000
00000100
00010000
00001000
00100000
,
00010000
01000000
00100000
10000000
01000000
00100000
00010000
00100000
,
00001000
00010000
00000100
00001000
00000010
00000100
00000001
00000010
,
00000010
00000100
00001000
00000100
00010000
00001000
00010000
00100000
,
00100000
10000000
01000000
00100000
00010000
01000000
00001000
00010000
,
00010000
00000100
00000010
00000001
00001000
00000010
00001000
00010000
,
00010000
00100000
01000000
01000000
10000000
00010000
00100000
00100000
,
00001000
00010000
00000100
00000100
00001000
00000010
00000100
00000100
,
00000001
00000010
00000100
00000100
00000010
00000001
00001000
00001000
,
00000010
00010000
00001000
00001000
00010000
00000100
00010000
00010000
,
00001000
00100000
00010000
01000000
00001000
00010000
00000100
00001000
,
00000010
00010000
00001000
00100000
00010000
01000000
00001000
00010000
,
00022000
00000000
00000000
00000000
,
00000000
00000000
00000000
00000000
,
00000000
00000000
00000000
00000000
,
00133010
00000000
00000000
00000000
;
