#TITLE:Oil Ocean Zone;
#SUBTITLE:Sonic the Hedgehog 2;
#ARTIST:Sega Sound Team;
#TITLETRANSLIT:;
#SUBTITLETRANSLIT:;
#ARTISTTRANSLIT:;
#CREDIT:;
#BANNER:Oil Ocean Zone.jpg;
#BACKGROUND:Oil Ocean Zone-bg.jpg;
#LYRICSPATH:;
#CDTITLE:cdtitle.png;
#MUSIC:Oil Ocean Zone.mp3;
#OFFSET:-0.040;
#SAMPLESTART:49.253;
#SAMPLELENGTH:12.000;
#SELECTABLE:YES;
#BPMS:0.000=121.920;
#STOPS:;
#BGCHANGES:;
// cache tags:
#FIRSTBEAT:0.000;
#LASTBEAT:180.500;
#SONGFILENAME:Songs/VGMP 2/Oil Ocean Zone (Patashu)/Oil Ocean Zone.sm;
#HASMUSIC:1;
#HASBANNER:1;
#MUSICLENGTH:100.597;
// end cache tags

//---------------dance-single - ----------------
#NOTES:
     dance-single:
     :
     Hard:
     12:
     1.000,0.987,1.000,0.020,1.000,579.000,268.000,2.000,0.000,0.000:

1010
1001
1010
0000
0110
0000
0101
0000
0011
0000
1001
0010
0100
0000
0010
0000
,
1001
0101
1001
0000
1010
0000
0110
0000
0101
1000
0110
1000
0101
0000
0110
0000
,
1010
0000
1100
0101
1100
1001
0011
0000
1000
0000
0001
0000
1000
0001
1000
0000
,
1100
0000
0010
0000
0001
0000
0001
0000
0010
0000
0000
0000
0110
0000
0000
0000
0010
0000
1000
0000
0100
0000
0110
0001
1010
0000
0110
0000
0101
0000
0000
0000
,
0100
0000
0000
0000
0000
0000
0000
0000
1000
0000
0000
0000
1000
0000
0000
0000
0001
0000
0000
0000
0000
0000
0000
0000
0110
0000
0000
0000
0000
0000
0000
0000
0100
0000
0000
0000
0001
0000
0000
0000
1000
0000
0000
0000
0110
0000
0000
0000
1000
0010
0000
0000
0001
0000
0000
0000
0110
0000
0000
0000
0000
0000
0000
0000
,
1000
0001
0000
0000
1000
0000
0000
0000
0100
0000
0000
0000
0100
0000
0000
0000
0010
0000
0000
0000
0000
0000
0000
0000
0110
0000
0000
0000
0000
0000
0000
0000
0010
0000
0000
0000
0001
0000
0000
0000
1000
0000
0000
0000
0100
0000
0000
0000
0001
0000
0000
0000
1100
0000
0000
0000
1010
0000
0000
0000
0000
0000
0000
0000
,
0010
0000
0010
0010
0001
0000
0110
0000
0100
0010
1000
0100
0010
0001
0110
0000
,
1001
0101
1001
1000
0010
0000
0110
0000
0010
0001
0100
0001
1010
0100
0011
0000
,
1001
0000
0110
0010
0001
0000
0110
0000
0100
0010
1000
0100
0011
0100
1010
0000
,
0101
0001
0110
0100
0010
0000
0110
0000
0010
1000
0100
0010
0101
0010
1100
0000
,
0110
0000
1010
0010
0001
0000
0110
0000
0110
0001
1100
0010
0100
1000
0011
0000
,
0101
0011
1100
0100
0010
0000
0110
0000
0010
1000
0100
0010
0101
1000
0011
0000
,
0110
0000
1001
1000
0001
0000
0110
0000
0100
0010
1000
0001
1010
0100
1001
0000
,
1010
1000
1001
0001
0010
0000
0011
0000
0110
0001
1010
0001
1100
0001
1010
0000
,
1100
0000
1001
1000
0011
0000
0110
0000
1100
0010
1001
0100
0010
0001
0110
0000
,
0101
0011
1100
0110
0011
0000
1001
0000
0011
1000
0110
0001
1100
0010
1001
0000
,
1100
0010
0101
0100
0011
0000
0101
0000
0110
0001
1010
0100
0001
1000
0110
0000
,
0010
0010
1100
0110
0011
0000
1001
0000
0011
1000
0101
1000
0110
0001
1010
0000
,
1100
0010
0101
0100
0011
0000
0101
0000
0110
0001
1100
0010
0001
0010
1100
0000
,
1010
0011
1000
1000
0100
0100
1001
0010
0101
1000
0011
0001
1100
0010
0101
0000
,
0010
0000
1001
0001
0110
0100
0001
0010
1100
0001
0010
0010
1000
0001
0100
0100
,
0001
0001
0010
0010
0100
0100
1010
0000
0110
1000
0101
0001
0110
0000
0011
0000
,
0100
0000
1001
0000
1100
0000
1000
0000
1001
0010
0001
0000
0001
0000
0001
0000
,
1001
1000
0011
0110
1100
0101
1010
0101
0110
1100
1020
1000
1000
1030
1001
1001
,
1000
0000
0000
0000
0001
0000
0001
0000
0010
0000
0000
0000
0110
0000
0000
0000
0010
0000
1000
0000
0100
0000
0110
0001
1010
0000
0110
0000
0101
0000
0000
0000
,
0100
0000
0000
0000
0000
0000
0000
0000
1000
0000
0000
0000
1000
0000
0000
0000
0001
0000
0000
0000
0000
0000
0000
0000
0110
0000
0000
0000
0000
0000
0000
0000
0100
0000
0000
0000
0001
0000
0000
0000
1000
0000
0000
0000
0110
0000
0000
0000
1000
0010
0000
0000
0001
0000
0000
0000
0110
0000
0000
0000
0000
0000
0000
0000
,
1000
0001
0000
0000
1000
0000
0000
0000
0100
0000
0000
0000
0100
0000
0000
0000
0010
0000
0000
0000
0000
0000
0000
0000
0110
0000
0000
0000
0000
0000
0000
0000
0010
0000
0000
0000
0001
0000
0000
0000
1000
0000
0000
0000
0100
0000
0000
0000
0001
0000
0000
0000
1100
0000
0000
0000
1010
0000
0000
0000
0000
0000
0000
0000
,
0010
0000
0010
0010
0001
0000
0110
0000
0100
0010
1000
0100
0010
0001
0110
0000
,
1001
0101
1001
1000
0010
0000
0110
0000
0010
0001
0100
0001
1010
0100
0011
0000
,
1001
0000
0110
0010
0001
0000
0110
0000
0100
0010
1000
0100
0011
0100
1010
0000
,
0101
0001
0110
0100
0010
0000
0110
0000
0010
1000
0100
0010
0101
0010
1100
0000
,
0110
0000
1010
0010
0001
0000
0110
0000
0110
0001
1100
0010
0100
1000
0011
0000
,
0101
0011
1100
0100
0010
0000
0110
0000
0010
1000
0100
0010
0101
1000
0011
0000
,
0110
0000
1001
1000
0001
0000
0110
0000
0100
0010
1000
0001
1010
0100
1001
0000
,
1010
1000
1001
0001
0010
0000
0011
0000
0110
0001
1010
0001
1100
0001
1010
0000
,
1100
0000
1001
1000
0011
0000
0110
0000
1100
0010
1001
0100
0010
0001
0110
0000
,
0101
0011
1100
0110
0011
0000
1001
0000
0011
1000
0110
0001
1100
0010
1001
0000
,
1100
0010
0101
0100
0011
0000
0101
0000
0110
0001
1010
0100
0001
1000
0110
0000
,
0010
0010
1100
0110
0011
0000
1001
0000
0011
1000
0101
1000
0110
0001
1010
0000
,
1100
0010
0101
0100
0011
0000
0101
0000
0110
0001
1100
0010
0001
0010
1100
0000
,
1010
0011
1000
1000
0100
0100
1001
0010
0101
1000
0011
0001
1100
0010
0101
0000
,
0010
0000
1001
0001
0110
0100
0001
0010
1100
0001
0010
0010
1000
0001
0100
0100
,
0001
0001
0010
0010
0100
0100
1010
0000
0110
1000
0101
0001
0110
0000
0011
0000
,
0100
0000
1001
0000
1100
0000
1000
0000
1001
0010
0001
0000
0001
0000
0001
0000
,
1001
1000
0011
0110
1100
0101
1010
0101
0110
1100
1020
1000
1000
1030
1001
1001
,
1000
1001
0000
0000
0000
0000
0000
0000
;
