#TITLE:Scatman;
#SUBTITLE:Extreme Splitter RMX;
#ARTIST:Kurwastyle Project;
#TITLETRANSLIT:;
#SUBTITLETRANSLIT:;
#ARTISTTRANSLIT:;
#CREDIT:Mad Matt;
#BANNER:../Tachyon Spectrum-bn.png;
#BACKGROUND:../Tachyon Spectrum-bg.png;
#LYRICSPATH:;
#CDTITLE:;
#MUSIC:Scatman.OGG;
#OFFSET:-0.057;
#SAMPLESTART:23.607;
#SAMPLELENGTH:12.000;
#SELECTABLE:YES;
#BPMS:0.000=252.940;
#STOPS:;
#BGCHANGES:;
// cache tags:
#FIRSTBEAT:24.000;
#LASTBEAT:603.000;
#SONGFILENAME:Songs/Tachyon Spectrum/Scatman (Extreme Splitter Rmx) - [Mad Matt]/Scatman.SM;
#HASMUSIC:1;
#HASBANNER:1;
#MUSICLENGTH:145.475;
// end cache tags

//---------------dance-single - Tachyon Beta----------------
#NOTES:
     dance-single:
     Tachyon Beta:
     Easy:
     17:
     1.000,1.000,0.701,0.419,1.000,1205.000,102.000,61.000,99.000,24.000:


0000
0000
0000
0000
,
0000
0000
0000
0000
,
0000
0000
0000
0000
,
0000
0000
0000
0000
,
0000
0000
0000
0000
,
0000
0000
0000
0000
,
0001
0100
0010
1000
0010
0100
0001
1000
0001
1000
0100
1000
0100
0010
0001
0010
,
0100
1000
0001
0010
0100
1000
0001
1000
0001
0100
0001
0100
0020
0000
0000
0030
,
1000
0010
1000
0010
0100
0001
0100
0001
1000
0100
0010
0001
0010
0100
1000
0001
,
0010
0100
1000
0100
1000
0001
0100
0001
0100
0010
1000
0010
2000
0000
0000
3000
,
0001
0010
0100
1000
0001
0010
0100
1000
0100
1000
0001
1000
0001
1000
0010
0100
,
0001
0100
0010
1000
0001
1000
0001
1000
0100
1000
0100
0010
0002
0000
0000
0003
,
1000
0100
1000
0001
0010
0001
1000
0100
0010
0001
0010
0100
1000
0001
1000
0001
,
0100
0010
0100
0010
1000
0001
0100
0010
1000
0001
1000
0001
2000
0000
0000
3000
,
0010
1000
0100
0010
0100
1000
0010
0100
,
0010
1000
0001
0010
0001
0010
0100
1000
,
0100
0010
0001
0100
0010
0100
0001
1000
,
0001
0000
1000
0000
0100
0000
0010
0000
0001
0100
0010
1000
0001
0100
0010
1000
,
0001
1000
0010
0100
0010
1000
0001
0010
,
0001
0100
0010
1000
0010
0100
0001
1000
,
0100
1000
0010
0100
0001
0010
0100
0010
,
0001
1000
0001
0010
0100
1000
0010
1000
,
0001
1M1M
0100
MM11
,
0001
11MM
0010
1MM1
,
0001
M11M
0100
1M1M
,
0001
0000
11MM
0000
0010
0000
1MM1
1000
,
0010
M1M1
1000
M11M
,
0010
M1M1
0010
11MM
,
0100
MM11
0100
M11M
,
0010
0100
1000
0100
0010
0001
1000
0010
,
M221
0330
122M
0330
,
M221
0330
122M
0330
,
M221
0330
122M
0330
,
M221
0330
122M
0330
,
21M2
3003
2M12
3003
,
21M2
3003
2M12
3003
,
21M2
3003
2M12
3003
,
21M2
3003
2M12
3003
,
1001
0000
MMMM
0000
,
1001
0000
0000
1000
0010
0100
0010
0100
,
0001
0100
0010
1000
0001
0100
0010
1000
0010
0100
0001
1000
0010
0100
0001
1000
,
0001
1000
0100
1000
0100
0010
0001
1000
0100
0010
0001
0010
0100
1000
0001
0010
,
0100
1000
0001
0100
0001
0100
0010
1000
0010
1000
0001
0100
0010
1000
0001
0100
,
0010
0110
0110
0110
,
0010
0100
0001
0100
0010
1000
0001
0100
0010
1000
0010
0100
0001
1000
0010
0100
,
0001
1000
0001
1000
0001
0100
0001
0100
0001
1000
0100
0010
0001
1000
0100
0010
,
0001
0010
0100
1000
0001
0010
0100
1000
0001
0010
0001
0010
0100
1000
0100
1000
,
0001
0000
1001
0000
1001
0001
1000
0100
,
0010
0001
0010
0100
1000
0001
0010
0100
1000
0100
1000
0001
0010
0001
0010
0100
,
1000
0001
0100
0001
1000
0010
1000
0001
0100
0010
1000
0010
0100
0001
1000
0010
,
0100
0001
0100
0010
1000
0001
1000
0001
0010
0100
1000
0001
0010
0100
1000
0001
,
0010
0110
0110
0110
,
0100
1000
0100
1000
0001
0100
0001
0100
0010
1000
0010
1000
0001
0010
0100
1000
,
0001
0010
0100
1000
0001
0100
0001
0100
0010
1000
0010
1000
0001
0100
0010
1000
,
0010
0100
0001
1000
0010
0100
0001
1000
0010
1000
0001
0100
0001
1000
0100
0010
,
0001
0000
0011
0000
0011
0010
0100
1000
,
0001
0100
0010
1000
0100
0010
0100
1000
,
0001
0100
0001
0010
0100
0010
0001
0100
,
0010
1000
0001
1000
0100
0010
0100
1000
,
0001
1000
0001
0000
1000
0001
1000
0000
0001
1000
0001
0000
1000
0001
1000
0000
,
0001
0100
0010
1000
0100
0010
0100
1000
,
0010
0100
0010
1000
0001
0010
0100
1000
,
0001
0010
0001
0100
0010
0100
0001
1000
,
0100
0000
0010
0000
0001
0000
1000
0000
0001
0100
0001
0100
0010
1000
0010
1000
,
0001
0010
0100
1000
0001
0100
0010
0100
,
0001
1000
0100
0010
0100
0010
0001
0100
,
0010
0100
0001
0010
0100
1000
0010
0100
,
0001
1000
0001
0000
1000
0001
1000
0000
0001
1000
0001
0000
1000
0001
1000
0000
,
0001
0100
0010
1000
0100
1000
0001
0010
,
0100
0010
0001
0100
0010
0100
0001
1000
,
0100
0010
0001
0010
0100
1000
0001
0100
,
0001
1000
0010
0100
0001
0100
0010
1000
0001
1000
0001
0010
0100
1000
0001
1000
,
0001
0M00
00M0
M000
,
000M
0M00
00M0
M000
,
000M
0M00
00M0
0000
,
0000
0000
0000
0000
,
1010
1010
1100
1100
,
0011
0011
0101
0101
,
1001
1001
0110
0110
,
0011
0011
1010
1010
,
0101
0101
0110
0110
,
1010
1010
1100
1100
,
0100
0010
0100
1000
0001
0100
0010
1000
,
0001
0100
0010
1000
0001
0100
0010
1000
0010
0100
0001
1000
0010
0100
0001
1000
,
0001
0010
0100
1000
0001
0010
0100
1000
0100
0010
0001
1000
0001
1000
0001
0100
,
0001
0100
0010
1000
0010
1000
0001
0100
0010
1000
0010
0100
0001
1000
0010
0100
,
0001
0100
0010
1000
0001
1000
0001
0010
0100
1000
0001
0010
0100
1000
0100
1000
,
0100
1100
1100
1100
,
1000
0100
1000
0100
0010
0001
0010
0001
1000
0010
0100
0001
1000
0010
0100
0001
,
0100
0010
1000
0001
0100
0010
1000
0010
0100
0001
1000
0010
1000
0010
0100
0001
,
0100
0001
1000
0100
0010
0001
1000
0100
0010
0001
0010
0100
1000
0001
0010
0100
,
1000
0000
0001
0000
0100
0000
0010
0000
1000
0000
0001
0000
1000
0001
1000
0001
,
0010
0100
1000
0001
0010
0100
1000
0001
0100
0001
0100
0010
1000
0010
1000
0001
,
0100
0010
1000
0010
0100
0001
1000
0010
0100
0001
0100
0010
1000
0001
0010
0100
,
1000
0100
1000
0100
0010
0001
0010
0001
1000
0100
0010
0001
1000
0001
0100
0010
,
1000
0000
1010
0000
1010
1000
0010
0100
,
0001
1000
0010
0100
0001
0100
0010
1000
0001
1000
0100
0010
0001
1000
0100
0010
,
0100
1000
0001
0010
0100
1000
0001
0100
0001
0100
0010
1000
0010
1000
0100
1000
,
0100
0010
0001
0010
0100
1000
0001
0010
0100
1000
0001
0100
0001
0100
0010
1000
,
0010
0000
0100
0000
0010
0000
1000
0000
0001
0010
0100
1000
0001
0010
0100
1000
,
0001
0100
0001
0100
0010
0100
0010
0100
,
0001
0100
0001
0100
0001
1000
0001
1000
,
0100
1000
0100
1000
0001
0010
0001
0010
,
0100
0000
0010
0000
0100
0000
0010
0000
0100
0000
1000
0000
0001
0010
0100
1000
,
0001
0100
0001
0100
0010
1000
0010
1000
,
0001
0100
0001
0100
0001
1000
0001
1000
,
0001
0010
0001
0010
0100
1000
0100
1000
,
0001
0000
1000
0000
0001
0000
1000
0000
0010
0000
1000
0000
0010
0100
0010
0100
,
0001
0100
0010
1000
0010
0100
0001
0100
,
0010
1000
0010
0100
0001
0010
0100
1000
,
0100
0010
0001
0010
0100
1000
0100
0010
,
0001
0100
0010
1000
0100
0020
0000
0000
,
0130
0100
0010
0010
0100
0100
0010
0010
,
0001
0001
0100
0100
0010
0010
1000
1000
,
0001
0001
1000
1000
0100
0100
0010
0010
,
0001
0001
0100
0100
0010
0020
0000
0030
,
1001
0000
M00M
0000
,
1001
0000
0000
0000
,
0010
1000
0100
0010
0100
1000
0010
0100
,
0010
1000
0001
0010
0001
0010
0100
1000
,
0100
0010
0001
0100
0010
0100
0001
1000
,
0001
0000
1000
0000
0100
0000
0010
0000
0001
0100
0010
1000
0001
0100
0010
1000
,
0001
1000
0010
0100
0010
1000
0001
0010
,
0001
0100
0010
1000
0010
0100
0001
1000
,
0100
1000
0010
0100
0001
0010
0100
0010
,
0001
1000
0001
0010
0100
1000
0010
1000
,
0001
1M1M
0100
MM11
,
0001
11MM
0010
1MM1
,
0001
M11M
0100
1M1M
,
0001
0000
11MM
0000
0010
0000
1MM1
1000
,
0010
M1M1
1000
M11M
,
0010
M1M1
0010
11MM
,
0100
MM11
0100
M11M
,
0100
1000
0010
0100
0001
0010
0100
1000
,
0002
0000
0000
0000
1003
0001
0010
0100
,
1000
0001
0010
0100
1000
0001
1000
0001
4000
0000
0000
0000
0000
0000
0000
0000
,
0000
0000
0000
0000
,
3001
0010
0001
0010
0100
1000
0100
1000
0001
0010
0100
1000
0001
0000
0000
0000
,
2000
0000
0000
0000
0000
0000
0000
3000
0001
0000
0100
0000
0010
0000
1000
0000
,
0001
0100
0010
1000
0001
1000
0001
1000
0004
0000
0000
0000
0000
0000
0000
0000
,
0000
0000
0000
0000
,
1003
0010
1000
0010
0100
0001
0100
0001
1000
0010
0100
0001
1000
0000
0000
0000
,
122M
0330
M221
0330
,
122M
0330
M221
0330
,
21M2
3003
2M12
3003
,
21M2
3003
2M12
3003
,
1020
0130
0201
0310
,
2001
3100
0120
0031
,
0101
0100
0010
1000
0100
0010
0001
1000
,
0001
0100
0001
0100
0010
1000
0010
1000
0001
0010
0100
1000
0001
0010
0100
1000
,
0002
0000
0003
0000
000M
00M0
0M00
0000
;

//---------------dance-single - Mad Matt----------------
#NOTES:
     dance-single:
     Mad Matt:
     Medium:
     17:
     1.000,1.000,0.536,0.419,1.000,1205.000,78.000,61.000,15.000,23.000:



0000
0000
0000
0000
,
0000
0000
0000
0000
,
0000
0000
0000
0000
,
0000
0000
0000
0000
,
0000
0000
0000
0000
,
0000
0000
0000
0000
,
0001
1000
0100
1000
0001
0100
0001
1000
0001
0010
0100
1000
0001
0010
0001
1000
,
0001
0100
0010
1000
0001
1000
0100
1000
0001
0100
0001
1000
0020
0000
0000
0030
,
1000
0010
1000
0001
0100
0001
1000
0100
0010
0100
1000
0001
0010
0100
1000
0001
,
1000
0010
1000
0001
0010
0100
0010
0001
1000
0100
0010
0100
2000
0000
0000
3000
,
0001
0010
0100
1000
0001
1000
0010
1000
0001
0100
0010
0100
0001
1000
0010
1000
,
0001
1000
0100
0010
0001
1000
0100
1000
0001
1000
0010
0100
0002
0000
0000
0003
,
1000
0100
1000
0001
0010
0001
1000
0001
0100
0010
1000
0001
0100
0001
1000
0100
,
1000
0001
1000
0010
0100
0010
1000
0001
1000
0100
1000
0001
0200
0000
0000
0300
,
0010
1000
0100
0010
0100
1000
0010
0100
,
0010
1000
0001
0010
0001
0010
0100
1000
,
0100
0010
0001
0100
0010
0100
0001
1000
,
0001
0000
1000
0000
0100
0000
0010
0000
0001
1000
0010
0100
0001
1000
0010
0100
,
0001
1000
0010
0100
0010
1000
0001
0010
,
0001
0100
0010
1000
0010
0100
0001
1000
,
0100
1000
0010
0100
0001
0010
0100
0010
,
0001
1000
0001
0010
0100
1000
0010
1000
,
0001
1100
0010
1100
,
0001
1100
0010
1100
,
0001
1100
0010
1100
,
0001
0000
1100
0000
0010
0000
1100
0001
,
0010
0101
1000
0101
,
0010
0101
1000
0101
,
0010
0101
1000
0101
,
0010
0100
1000
0001
0100
0010
1000
0010
,
2100
0000
0012
3000
,
2103
0000
0012
3000
,
2100
0003
0012
3000
,
2100
0003
0012
3000
,
1200
0003
0021
0300
,
1200
0030
0021
0300
,
1200
0030
0021
0300
,
1200
0030
0021
0330
,
1001
0000
0000
0000
,
1001
0000
0000
1000
0001
1000
0001
1000
,
0010
0100
0001
1000
0001
0010
0001
1000
0100
1000
0001
1000
0010
0100
0001
1000
,
0001
0010
0001
1000
0100
0010
0100
1000
0001
0010
0001
1000
0001
0100
0010
0100
,
0001
1000
0100
1000
0001
1000
0010
0100
0001
1000
0100
1000
0001
0100
0001
1000
,
0010
0110
0110
0110
,
0010
0100
0001
1000
0001
0010
0001
1000
0100
1000
0001
0010
0100
1000
0001
1000
,
0010
1000
0001
0100
0010
0100
0001
1000
0001
0010
0001
1000
0100
0010
0100
1000
,
0001
1000
0010
1000
0001
0100
0010
0100
0001
1000
0001
0010
0001
1000
0100
0010
,
0001
0000
1001
0000
1001
0001
0010
0100
,
1000
0001
0100
0001
1000
0001
0010
0100
0010
0001
1000
0100
0010
0001
1000
0100
,
1000
0001
1000
0010
0100
0001
1000
0010
0100
0010
1000
0001
0100
0001
1000
0100
,
1000
0001
1000
0010
0100
0010
1000
0001
1000
0100
1000
0001
0010
0100
1000
0001
,
0010
0110
0110
0110
,
0100
1000
0001
0010
0100
0010
0001
1000
0001
0100
0001
1000
0010
0100
0010
1000
,
0001
1000
0100
1000
0001
0010
0100
0010
0001
1000
0100
1000
0001
1000
0010
0100
,
0001
1000
0100
1000
0001
0100
0010
0100
0001
1000
0001
0010
0100
0010
0001
1000
,
0100
0000
1100
0000
1100
1000
0100
1000
,
0001
0100
0010
1000
0100
0010
0100
1000
,
0001
0100
0001
0010
0100
0010
0001
0100
,
0010
1000
0001
1000
0100
0010
0100
1000
,
0001
1000
0001
0000
1000
0001
1000
0000
0001
1000
0001
0000
1000
0001
1000
0000
,
0001
0100
0010
1000
0100
0010
0100
1000
,
0010
0100
0010
1000
0001
0010
0100
1000
,
0001
0010
0001
0100
0010
0100
0001
1000
,
0100
0000
0010
0000
0001
0000
1000
0000
0001
0100
0010
0100
0001
1000
0100
1000
,
0001
0010
0100
1000
0001
0100
0010
0100
,
0001
1000
0100
0010
0100
0010
0001
0100
,
0010
0100
0001
0010
0100
1000
0010
0100
,
0001
1000
0001
0000
1000
0001
1000
0000
0001
1000
0001
0000
1000
0001
1000
0000
,
0001
0100
0010
1000
0100
1000
0001
0010
,
0100
0010
0001
0100
0010
0100
0001
1000
,
0100
0010
0001
0010
0100
1000
0001
0100
,
0001
1000
0010
0100
0001
1000
0100
1000
0001
0010
0100
0010
0001
1000
0010
1000
,
0001
0M00
00M0
M000
,
000M
0M00
00M0
M000
,
000M
0M00
00M0
0000
,
0000
0000
0000
0000
,
0002
0000
0000
0000
0000
0000
0000
0003
0002
0000
0000
0000
0000
0000
0000
0003
0200
0000
0000
0000
0000
0000
0000
0300
0020
0000
0000
0000
0000
0000
0000
0030
,
2000
0000
0000
0000
0000
0000
0000
3000
2000
0000
0000
0000
0000
0000
0000
3000
0002
0000
0000
0000
0000
0000
0000
0003
0020
0000
0000
0000
0000
0000
0000
0030
,
0200
0000
0000
0000
0000
0000
0000
0300
0200
0000
0000
0000
0000
0000
0000
0300
0020
0000
0000
0000
0000
0000
0000
0030
0002
0000
0000
0000
0000
0000
0000
0003
,
0200
0000
0000
0000
0000
0000
0000
0300
0200
0000
0000
0000
0000
0000
0000
0300
0020
0000
0000
0000
0000
0000
0000
0030
2000
0000
0000
0000
0000
0000
0000
3000
,
0002
0000
0000
0000
0000
0000
0000
0003
0002
0000
0000
0000
0000
0000
0000
0003
0020
0000
0000
0000
0000
0000
0000
0030
0200
0000
0000
0000
0000
0000
0000
0300
,
0020
0000
0000
0000
0000
0000
0000
0030
0020
0000
0000
0000
0000
0000
0000
0030
0002
0000
0000
0000
0000
0000
0000
0003
0200
0000
0000
0000
0000
0000
0000
0300
,
0001
0010
0100
1000
0001
0100
0010
1000
,
0001
0100
0010
0100
0001
0100
0010
1000
0001
1000
0100
1000
0001
0010
0100
0010
,
0001
1000
0100
1000
0001
0100
0001
1000
0001
0010
0100
0010
0001
1000
0100
0010
,
0100
1000
0001
0010
0001
1000
0001
0100
0010
0100
0001
1000
0010
0100
0001
1000
,
0100
1000
0001
1000
0010
0100
0010
1000
0001
1000
0100
1000
0001
0010
0100
1000
,
0001
0011
0011
0011
,
0010
0100
1000
0001
0010
0001
1000
0001
0100
0010
0100
0001
1000
0010
1000
0001
,
1000
0100
1000
0001
0010
0100
1000
0001
1000
0010
1000
0001
0100
0010
0100
0001
,
1000
0100
1000
0001
0100
0001
1000
0010
0100
0010
1000
0001
1000
0100
1000
0001
,
0100
0000
0010
0000
0100
0000
0010
0000
1000
0000
0001
0000
1000
0001
1000
0001
,
0010
0100
1000
0001
0010
0100
0010
0001
1000
0001
0100
0010
0100
0001
1000
0001
,
0010
0001
1000
0100
0010
0100
1000
0001
1000
0010
1000
0001
0100
0010
0100
0001
,
1000
0100
1000
0001
0010
0100
1000
0001
0010
0001
1000
0100
1000
0001
1000
0010
,
0100
0000
0110
0000
0110
0100
0010
0100
,
0001
1000
0010
1000
0001
0100
0010
0100
0001
1000
0100
1000
0001
0010
0100
0010
,
0001
1000
0100
0010
0001
1000
0001
0100
0010
0100
0001
1000
0010
1000
0001
1000
,
0100
0010
0001
1000
0100
0010
0100
1000
0001
1000
0010
0100
0010
1000
0001
0100
,
0010
0000
0100
0000
0010
0000
1000
0000
0001
0010
0100
1000
0001
0010
0100
1000
,
0001
0100
0001
0100
0010
0100
0010
0100
,
0001
0100
0001
0100
0001
1000
0001
1000
,
0100
1000
0100
1000
0001
0010
0001
0010
,
0100
0000
0010
0000
0100
0000
0010
0000
0001
0000
1000
0000
0001
0010
0100
1000
,
0001
0100
0001
0100
0010
1000
0010
1000
,
0001
0100
0001
0100
0001
1000
0001
1000
,
0001
0010
0001
0010
0100
1000
0100
1000
,
0001
0000
1000
0000
0001
0000
1000
0000
0010
0000
1000
0000
0010
0100
0010
0100
,
0001
0100
0010
1000
0010
0100
0001
0100
,
0010
1000
0010
0100
0001
0010
0100
1000
,
0100
0010
0001
0010
0100
1000
0100
0010
,
0001
0100
0010
1000
0100
0020
0000
0000
,
0130
1000
0001
0010
0001
1000
0010
1000
,
0001
0100
0001
1000
0100
1000
0001
0010
,
0001
1000
0010
1000
0001
0100
0001
1000
,
0100
1000
0001
0100
0001
0020
0000
0030
,
1001
0000
M00M
0000
,
1001
0000
0000
0000
,
1000
0001
0010
0100
0010
0001
0100
0010
,
0100
0001
1000
0100
1000
0100
0010
0001
,
0010
0100
1000
0010
0100
0010
1000
0001
,
1000
0000
0001
0000
0010
0000
0100
0000
1000
0010
0100
0001
1000
0010
0100
0001
,
1000
0001
0100
0010
0100
0001
1000
0100
,
1000
0010
0100
0001
0100
0010
1000
0001
,
0010
0001
0100
0010
1000
0100
0010
0100
,
1000
0001
1000
0100
0010
0001
0100
0001
,
1000
0101
1000
0011
,
1000
0101
1000
0011
,
1000
0101
1000
0011
,
1000
0000
0101
0000
1000
0000
0011
1000
,
0100
1010
0001
1100
,
0001
1010
0001
1100
,
0001
1010
0001
1100
,
0001
1000
0010
0100
0001
0010
0100
1000
,
0002
0000
0000
0000
1003
0001
0010
0100
,
1000
0001
0010
0001
1000
0010
0100
0010
4000
0000
0000
0000
0000
0000
0000
0000
,
0000
0000
0000
0000
,
3001
0010
0100
0010
0001
1000
0001
0100
0010
0100
0001
1000
0010
0000
0000
0000
,
2000
0000
0000
0000
0000
0000
0000
3000
0001
0000
0100
0000
0010
0000
1000
0000
,
0001
0100
0010
1000
0001
1000
0100
1000
0004
0000
0000
0000
0000
0000
0000
0000
,
0000
0000
0000
0000
,
1003
0010
0100
0010
1000
0001
0010
0001
1000
0100
0010
0100
1000
0000
0000
0000
,
0012
0000
2100
0003
,
0012
3000
2100
0003
,
0012
3000
2100
0003
,
0012
3000
2100
0003
,
3012
0103
0021
1030
,
0012
0103
0021
1030
,
0011
0100
0010
1000
0100
0010
0001
1000
,
0001
0100
0001
1000
0010
1000
0001
1000
0100
0010
0100
1000
0001
0010
0100
1000
,
0002
0000
0003
0000
000M
00M0
0M00
0000
;

//---------------dance-single - Mad Matt----------------
#NOTES:
     dance-single:
     Mad Matt:
     Hard:
     18:
     1.000,1.000,0.522,0.392,1.000,1320.000,76.000,57.000,5.000,23.000:


0000
0000
0000
0000
,
0000
0000
0000
0000
,
0000
0000
0000
0000
,
0000
0000
0000
0000
,
0000
0000
0000
0000
,
0000
0000
0000
0000
,
0001
0100
0001
1000
0010
1000
0100
1000
0001
0100
0001
1000
0010
1000
0100
1000
,
0001
0100
0001
1000
0010
1000
0100
1000
0001
0100
0010
1000
0100
0010
0001
0100
,
0010
1000
0001
0100
0001
0010
0001
1000
0010
1000
0001
0100
0001
0010
0001
1000
,
0010
1000
0001
0100
0001
0010
0001
1000
0010
1000
0100
0010
0001
0100
0010
1000
,
0001
0010
0100
0010
0001
1000
0010
1000
0001
0100
0010
0100
0001
1000
0100
1000
,
0001
0010
0100
0010
0001
1000
0010
1000
0001
0100
0010
1000
0100
0010
0001
1000
,
0100
0010
0100
1000
0001
0010
0001
1000
0010
0100
0010
1000
0001
0100
0001
1000
,
0100
0010
0100
1000
0001
0010
0001
1000
0010
1000
0100
0010
0001
0100
0010
1000
,
0001
1000
0100
0010
0100
1000
0010
0100
,
0010
1000
0001
0010
0001
0010
0100
1000
,
0100
0010
0001
0100
0010
0100
0001
1000
,
0001
0000
1000
0000
0100
0000
0010
0000
0001
0100
0010
0100
0001
1000
0100
1000
,
0001
1000
0010
0100
0010
1000
0001
0010
,
0001
0100
0010
1000
0010
0100
0001
1000
,
0100
1000
0010
0100
0001
0010
0100
0010
,
0001
1000
0001
0010
0100
1000
0010
1000
,
0001
1100
0010
1100
,
0001
1100
0010
1100
,
0001
1100
0010
1100
,
0001
0000
1100
0000
0010
0000
1100
0001
,
0010
0101
1000
0101
,
0010
0101
1000
0101
,
0010
0101
1000
0101
,
0010
0100
1000
0001
0100
0010
1000
0010
,
2100
0000
0012
3000
,
2100
0003
0012
3000
,
2100
0003
0012
3000
,
2100
0003
0012
3000
,
1200
0000
0003
0000
0021
0300
0000
0000
,
1200
0030
0021
0300
,
1200
0030
0021
0300
,
1200
0030
0021
0330
,
1001
0000
0000
0000
,
1001
0000
0000
1000
0001
1000
0001
1000
,
0001
0100
0010
1000
0001
0100
0001
1000
0100
0010
0100
1000
0001
0010
0100
1000
,
0001
0100
0010
0100
0001
1000
0010
1000
0001
0010
0100
0010
0001
1000
0100
1000
,
0001
0100
0010
1000
0001
0100
0001
1000
0100
0010
0100
1000
0001
0010
0100
1000
,
0010
0110
0110
0110
,
0010
0100
0001
0100
0010
1000
0001
1000
0100
0010
0100
1000
0001
0010
0100
0010
,
0001
1000
0010
0100
0010
1000
0001
0100
0001
1000
0100
0010
0100
1000
0001
0010
,
0001
1000
0010
1000
0001
0100
0010
0100
0001
1000
0100
1000
0001
0010
0001
1000
,
0001
0000
1001
0000
1001
0001
0010
0100
,
1000
0010
0100
0010
1000
0001
0100
0001
1000
0100
0010
0100
1000
0001
0010
0001
,
1000
0010
0100
0001
1000
0010
0100
0010
1000
0001
0010
0001
1000
0100
0010
0001
,
1000
0001
0100
0010
0100
0001
1000
0010
1000
0001
0010
0100
0010
0001
1000
0100
,
0010
0110
0110
0110
,
0100
1000
0001
0010
0100
0010
0001
1000
0001
0100
0001
1000
0010
0100
0010
1000
,
0001
1000
0100
0010
0001
1000
0100
1000
0001
0100
0010
0100
0001
1000
0010
0100
,
0001
1000
0100
1000
0001
0010
0100
0010
0001
1000
0001
0100
0010
0100
0001
1000
,
0010
0000
1010
0000
1010
1000
0010
1000
,
0001
0100
0010
1000
0100
0010
0100
1000
,
0001
0100
0001
0010
0100
0010
0001
0100
,
0010
1000
0001
1000
0100
0010
0100
1000
,
0001
1000
0001
0000
1000
0001
1000
0000
0001
1000
0001
0000
1000
0001
1000
0000
,
0001
0100
0010
1000
0100
0010
0100
1000
,
0010
0100
0010
1000
0001
0010
0100
1000
,
0001
0010
0001
0100
0010
0100
0001
1000
,
0100
0000
0010
0000
0001
0000
1000
0000
0001
0010
0100
0010
0001
1000
0010
1000
,
0001
0010
0100
1000
0001
0100
0010
0100
,
0001
1000
0100
0010
0100
0010
0001
0100
,
0010
0100
0001
0010
0100
1000
0010
0100
,
0001
1000
0001
0000
1000
0001
1000
0000
0001
1000
0001
0000
1000
0001
1000
0000
,
0001
0100
0010
1000
0100
1000
0001
0010
,
0100
0010
0001
0100
0010
0100
0001
1000
,
0100
0010
0001
0010
0100
1000
0001
0100
,
0001
1000
0010
0100
0001
1000
0100
1000
0001
0010
0100
0010
0001
1000
0100
1000
,
0001
0010
0001
0100
0001
1000
0100
1000
0001
0010
0001
0100
0001
1000
0100
1000
,
0001
0010
0100
1000
0001
0010
0001
1000
0010
1000
0100
1000
0001
0100
0001
1000
,
0010
1000
0100
1000
0001
0100
0001
1000
0010
1000
0100
1000
0001
0010
0100
1000
,
0001
0010
0100
1000
0001
0100
0010
1000
,
0002
0000
0000
0000
0000
0000
0000
0003
0002
0000
0000
0000
0000
0000
0000
0003
0200
0000
0000
0000
0000
0000
0000
0300
0020
0000
0000
0000
0000
0000
0000
0030
,
2000
0000
0000
0000
0000
0000
0000
3000
2000
0000
0000
0000
0000
0000
0000
3000
0002
0000
0000
0000
0000
0000
0000
0003
0020
0000
0000
0000
0000
0000
0000
0030
,
0200
0000
0000
0000
0000
0000
0000
0300
0200
0000
0000
0000
0000
0000
0000
0300
0020
0000
0000
0000
0000
0000
0000
0030
0002
0000
0000
0000
0000
0000
0000
0003
,
0200
0000
0000
0000
0000
0000
0000
0300
0200
0000
0000
0000
0000
0000
0000
0300
0020
0000
0000
0000
0000
0000
0000
0030
2000
0000
0000
0000
0000
0000
0000
3000
,
0002
0000
0000
0000
0000
0000
0000
0003
0002
0000
0000
0000
0000
0000
0000
0003
0020
0000
0000
0000
0000
0000
0000
0030
0200
0000
0000
0000
0000
0000
0000
0300
,
0020
0000
0000
0000
0000
0000
0000
0030
0020
0000
0000
0000
0000
0000
0000
0030
0002
0000
0000
0000
0000
0000
0000
0003
0200
0000
0000
0000
0000
0000
0000
0300
,
0001
0010
0100
1000
0001
0100
0010
1000
,
0001
0100
0010
0100
0001
1000
0100
1000
0001
0010
0100
0010
0001
1000
0001
0100
,
0001
1000
0100
1000
0001
0010
0001
0100
0001
1000
0100
1000
0001
0010
0001
0100
,
0001
1000
0100
0010
0100
1000
0001
0100
0010
0100
0001
1000
0100
0010
0100
1000
,
0001
0010
0001
1000
0100
1000
0010
1000
0001
0010
0001
1000
0100
1000
0010
1000
,
0001
0011
0011
0011
,
0010
0001
0100
0001
1000
0100
1000
0001
0010
0001
0100
0001
1000
0100
1000
0001
,
0010
0100
0010
0001
1000
0010
0100
0010
1000
0001
0010
0100
0010
0001
1000
0100
,
1000
0010
1000
0001
0010
0001
1000
0100
1000
0010
1000
0001
0010
0001
1000
0001
,
0100
0000
0010
0000
0100
0000
0010
0000
1000
0000
0001
0000
1000
0010
1000
0001
,
0100
0001
0010
0001
1000
0010
1000
0001
0100
0001
0010
0001
1000
0010
1000
0001
,
0010
0100
0010
0001
1000
0010
0100
0010
1000
0001
0010
0100
0010
0001
1000
0100
,
1000
0010
1000
0001
0010
0001
1000
0100
1000
0010
1000
0001
0010
0001
1000
0010
,
0100
0000
0110
0000
0110
0100
0010
0100
,
0001
0100
0001
0010
0001
1000
0010
1000
0001
0100
0001
0010
0001
1000
0010
1000
,
0001
0100
0010
0100
0001
1000
0100
0010
0100
1000
0001
0100
0010
0100
0001
1000
,
0010
1000
0100
1000
0001
0100
0001
1000
0010
1000
0100
1000
0001
0100
0001
1000
,
0001
0000
0100
0000
0010
0000
1000
0000
0001
0010
0100
0010
0001
1000
0010
1000
,
0001
0100
0001
0100
0010
0100
0010
0100
,
0001
0100
0001
0100
0001
1000
0001
1000
,
0100
1000
0100
1000
0001
0010
0001
0010
,
0100
0000
0010
0000
0100
0000
0010
0000
0001
0000
1000
0000
0001
0010
0100
1000
,
0001
0100
0001
0100
0010
1000
0010
1000
,
0001
0100
0001
0100
0001
1000
0001
1000
,
0001
0010
0001
0010
0100
1000
0100
1000
,
0001
0000
1000
0000
0001
0000
1000
0000
0010
0000
1000
0000
0010
0100
0010
0100
,
0001
0100
0010
1000
0010
0100
0001
0100
,
0010
1000
0010
0100
0001
0010
0100
1000
,
0100
0010
0001
0010
0100
1000
0100
0010
,
0001
0100
0010
1000
0100
0020
0000
0000
,
0130
1000
0001
0010
0001
1000
0010
1000
,
0001
0100
0001
1000
0100
1000
0001
0010
,
0001
1000
0010
1000
0001
0100
0001
1000
,
0100
1000
0001
0100
0001
0020
0000
0030
,
1001
0000
M00M
0000
,
1001
0000
0000
0000
,
1000
0001
0010
0100
0010
0001
0100
0010
,
0100
0001
1000
0100
1000
0100
0010
0001
,
0010
0100
1000
0010
0100
0010
1000
0001
,
1000
0000
0001
0000
0010
0000
0100
0000
1000
0010
0100
0010
1000
0001
0010
0001
,
1000
0001
0100
0010
0100
0001
1000
0100
,
1000
0010
0100
0001
0100
0010
1000
0001
,
0010
0001
0100
0010
1000
0100
0010
0100
,
1000
0001
1000
0100
0010
0001
0100
0001
,
1000
0011
0100
0011
,
1000
0011
0100
0011
,
1000
0011
0100
0011
,
1000
0000
0011
0000
0100
0000
0011
1000
,
0100
1010
0001
1010
,
0100
1010
0001
1010
,
0100
1010
0001
1010
,
0100
1000
0010
0100
0001
0010
0100
1000
,
0002
0000
0000
0000
1003
0001
0010
0100
,
1000
0001
0010
0001
1000
0010
0100
0010
1000
0001
0100
0001
1000
0001
0010
0001
,
1000
0100
0010
0001
1000
0001
0100
0001
1000
0100
1000
0001
0010
0100
1000
0001
,
1000
0010
0100
0010
1000
0001
1000
0100
1000
0001
0100
0001
1000
0000
0000
0000
,
0002
0000
0000
0000
1003
0100
0010
0001
,
1000
0100
0010
0001
1000
0001
0100
0001
1000
0010
1000
0001
1000
0100
0010
0001
,
1000
0001
0010
0001
1000
0010
1000
0001
0100
0010
1000
0001
1000
0100
1000
0001
,
1000
0010
0100
0010
1000
0001
0010
0001
1000
0100
0010
0100
1000
0000
0000
0000
,
0012
0000
2100
0003
,
0012
3000
2100
0003
,
0012
3000
2100
0003
,
0012
3000
2100
0003
,
3012
0103
0021
1030
,
0012
0103
0021
1030
,
0011
0100
0010
1000
0100
0010
0001
1000
,
0001
0100
0001
1000
0010
1000
0001
1000
0100
0010
0100
1000
0001
0010
0100
1000
,
0002
0000
0003
0000
000M
00M0
0M00
0000
;

//---------------dance-single - Mad Matt----------------
#NOTES:
     dance-single:
     Mad Matt:
     Challenge:
     19:
     1.000,1.000,0.433,0.296,1.000,1436.000,63.000,43.000,5.000,15.000:

0000
0000
0000
0000
,
0000
0000
0000
0000
,
0000
0000
0000
0000
,
0000
0000
0000
0000
,
0000
0000
0000
0000
,
0000
0000
0000
0000
,
0001
0100
0001
1000
0100
1000
0010
0100
0010
1000
0001
0010
0100
0010
0001
0100
,
0010
1000
0001
1000
0100
1000
0010
0100
0010
1000
0001
0010
0100
1000
0010
0100
,
0001
0010
0001
1000
0010
1000
0100
0010
0100
1000
0001
0100
0010
0100
0001
0010
,
0100
1000
0001
1000
0010
1000
0100
0010
0100
1000
0001
0100
0010
1000
0100
0010
,
0001
1000
0100
1000
0010
0100
0001
1000
0100
0010
0100
1000
0010
0100
0001
0010
,
0001
1000
0010
0100
0001
1000
0100
0010
0100
1000
0010
0100
0010
1000
0001
0010
,
0001
1000
0010
1000
0100
0010
0001
1000
0010
0100
0010
1000
0100
0010
0001
0100
,
0001
1000
0100
0010
0001
1000
0010
0100
0010
1000
0100
0010
0100
1000
0010
0100
,
0001
1000
0100
0010
0100
1000
0010
0100
,
0010
1000
0001
0010
0001
0010
0100
1000
,
0100
0010
0001
0100
0010
0100
0001
1000
,
0001
0000
1000
0000
0100
0000
0010
0000
0001
0100
0010
1000
0100
0010
0001
0100
,
0010
1000
0010
0100
0010
1000
0001
0010
,
0001
0100
0010
1000
0010
0100
0001
1000
,
0100
1000
0010
0100
0001
0010
0100
0010
,
0001
1000
0001
0010
0100
1000
0010
1000
,
0001
1100
0010
1100
,
0001
1100
0010
1100
,
0001
1100
0010
1100
,
0001
0000
1100
0000
0010
0000
1100
0001
,
0010
0101
1000
0101
,
0010
0101
1000
0101
,
0010
0101
1000
0101
,
0010
0100
1000
0001
0100
0010
1000
0010
,
2100
0000
0012
3000
,
2100
0003
0012
3000
,
2100
0003
0012
3000
,
2100
0003
0012
3000
,
1200
0003
0021
0300
,
1200
0030
0021
0300
,
1200
0030
0021
0300
,
1200
0030
0021
0330
,
1001
0000
0000
0000
,
1001
0000
0000
1000
0001
1000
0001
1000
,
0001
0100
0010
0100
0001
0010
0001
1000
0010
0100
0010
1000
0100
1000
0001
0100
,
0010
0100
0001
0010
0001
1000
0010
0100
0010
1000
0100
1000
0001
0100
0010
0100
,
0001
0010
0001
1000
0010
0100
0010
1000
0100
1000
0001
0100
0010
0100
0001
1000
,
0100
0110
0110
0110
,
0010
0100
0010
0001
0100
0001
1000
0100
0010
0100
1000
0010
1000
0001
0010
0100
,
0010
0001
0100
0001
1000
0100
0010
0100
1000
0010
1000
0001
0010
0100
0010
0001
,
0100
0001
1000
0100
0010
0100
1000
0010
1000
0001
0010
0100
0010
0001
0100
0001
,
1000
0000
1001
0000
1001
0001
0010
0100
,
1000
0010
0100
0010
1000
0100
0010
0100
1000
0001
0100
0010
0100
0001
0010
0100
,
0010
0001
1000
0010
0100
0010
1000
0100
0010
0100
1000
0001
0100
0010
0100
0001
,
0010
0100
0010
0001
1000
0010
0100
0010
1000
0100
0010
0100
1000
0001
0100
0010
,
0100
0110
0110
0110
,
0010
1000
0001
0010
0100
0010
0001
0100
0010
0100
0001
1000
0100
0010
0100
1000
,
0010
0100
0010
1000
0001
0010
0100
0010
0001
0100
0010
0100
0001
1000
0100
0010
,
0100
1000
0010
0100
0010
1000
0001
0010
0100
0010
0001
0100
0010
0100
0001
1000
,
0010
0000
1010
0000
1010
1000
0010
1000
,
0001
0100
0010
1000
0100
0010
0100
1000
,
0001
0100
0001
0010
0100
0010
0001
0100
,
0010
1000
0001
1000
0100
0010
0100
1000
,
0001
1000
0001
0000
1000
0001
1000
0000
0001
1000
0001
0000
1000
0001
1000
0000
,
0001
0100
0010
1000
0100
0010
0100
1000
,
0010
0100
0010
1000
0001
0010
0100
1000
,
0001
0010
0001
0100
0010
0100
0001
1000
,
0100
0000
0010
0000
0001
0000
1000
0000
0001
0010
0100
1000
0010
0100
0001
1000
,
0100
0010
0100
1000
0001
0100
0010
0100
,
0001
1000
0100
0010
0100
0010
0001
0100
,
0010
0100
0001
0010
0100
1000
0010
0100
,
0001
1000
0001
0000
1000
0001
1000
0000
0001
1000
0001
0000
1000
0001
1000
0000
,
0001
0100
0010
1000
0100
1000
0001
0010
,
0100
0010
0001
0100
0010
0100
0001
1000
,
0100
0010
0001
0010
0100
1000
0001
0100
,
0001
1000
0010
0100
0001
0010
0001
1000
0010
0100
0010
1000
0001
1000
0100
1000
,
0001
0010
0001
0100
0001
1000
0100
1000
0001
0010
0001
0100
0001
1000
0100
1000
,
0001
0010
0100
1000
0001
0010
0001
1000
0010
1000
0100
1000
0001
0100
0001
1000
,
0010
1000
0100
1000
0001
0100
0001
1000
0010
1000
0100
1000
0001
0010
0100
1000
,
0001
0010
0100
1000
0001
0100
0010
1000
,
0002
0000
0000
0000
0000
0000
0000
0003
0002
0000
0000
0000
0000
0000
0000
0003
0200
0000
0000
0000
0000
0000
0000
0300
0020
0000
0000
0000
0000
0000
0000
0030
,
2000
0000
0000
0000
0000
0000
0000
3000
2000
0000
0000
0000
0000
0000
0000
3000
0002
0000
0000
0000
0000
0000
0000
0003
0020
0000
0000
0000
0000
0000
0000
0030
,
0200
0000
0000
0000
0000
0000
0000
0300
0200
0000
0000
0000
0000
0000
0000
0300
0020
0000
0000
0000
0000
0000
0000
0030
0002
0000
0000
0000
0000
0000
0000
0003
,
0200
0000
0000
0000
0000
0000
0000
0300
0200
0000
0000
0000
0000
0000
0000
0300
0020
0000
0000
0000
0000
0000
0000
0030
2000
0000
0000
0000
0000
0000
0000
3000
,
0002
0000
0000
0000
0000
0000
0000
0003
0002
0000
0000
0000
0000
0000
0000
0003
0020
0000
0000
0000
0000
0000
0000
0030
0200
0000
0000
0000
0000
0000
0000
0300
,
0020
0000
0000
0000
0000
0000
0000
0030
0020
0000
0000
0000
0000
0000
0000
0030
0002
0000
0000
0000
0000
0000
0000
0003
0200
0000
0000
0000
0000
0000
0000
0300
,
0001
0010
0100
1000
0001
0100
0010
1000
,
0001
0100
0010
1000
0100
0010
0001
1000
0001
0100
0010
0100
0001
0010
0001
1000
,
0010
1000
0100
1000
0001
0100
0010
1000
0001
0010
0001
1000
0010
0100
0001
0010
,
0001
1000
0010
0100
0010
1000
0100
1000
0001
0100
0010
1000
0001
0010
0001
0100
,
0010
1000
0001
0010
0001
0100
0001
1000
0100
1000
0001
0100
0010
1000
0100
1000
,
0001
0011
0011
0011
,
0010
0001
0100
0001
1000
0100
0010
0001
1000
0010
1000
0001
0010
0100
1000
0010
,
1000
0001
0010
0100
0010
0001
0100
0001
1000
0100
0010
0001
1000
0010
1000
0100
,
0010
0001
1000
0010
1000
0100
1000
0001
0100
0001
1000
0100
0010
0001
1000
0001
,
0100
0000
0010
0000
0100
0000
0010
0000
1000
0000
0001
0000
1000
0010
0100
0001
,
0010
0100
0010
0001
1000
0010
0100
0001
1000
0100
0010
0100
1000
0010
0100
0001
,
1000
0100
0010
0001
0100
0010
1000
0100
1000
0001
0010
0100
0010
0001
1000
0010
,
0100
0001
0010
0001
1000
0001
0100
0010
1000
0100
1000
0001
0010
0100
1000
0010
,
0100
0000
0110
0000
0110
0100
0010
0100
,
0001
0100
0010
1000
0001
0010
0100
1000
0001
0100
0010
0100
0001
0010
0100
1000
,
0001
0100
0010
1000
0100
0010
0001
0100
0001
1000
0010
0100
0010
1000
0001
0010
,
0100
1000
0010
1000
0001
1000
0100
0010
0001
0100
0001
1000
0010
0100
0001
0010
,
0001
0000
0100
0000
0010
0000
1000
0000
0010
0100
0001
0010
0100
1000
0010
0100
,
0001
0100
0001
0100
0010
0100
0010
0100
,
0001
0100
0001
0100
0001
1000
0001
1000
,
0100
1000
0100
1000
0001
0010
0001
0010
,
0100
0000
0010
0000
0100
0000
0010
0000
0001
0000
1000
0000
0001
0010
0100
1000
,
0001
0100
0001
0100
0010
1000
0010
1000
,
0001
0100
0001
0100
0001
1000
0001
1000
,
0001
0010
0001
0010
0100
1000
0100
1000
,
0001
0000
1000
0000
0001
0000
1000
0000
0010
0000
1000
0000
0010
0100
0010
0100
,
0001
0100
0010
1000
0010
0100
0001
0100
,
0010
1000
0010
0100
0001
0010
0100
1000
,
0100
0010
0001
0010
0100
1000
0100
0010
,
0001
0100
0010
1000
0100
0020
0000
0000
,
0130
1000
0001
0010
0001
1000
0010
1000
,
0001
0100
0001
1000
0100
1000
0001
0010
,
0001
1000
0010
1000
0001
0100
0001
1000
,
0100
1000
0001
0100
0001
0020
0000
0030
,
1001
0000
M00M
0000
,
1001
0000
0000
0000
,
1000
0001
0010
0100
0010
0001
0100
0010
,
0100
0001
1000
0100
1000
0100
0010
0001
,
0010
0100
1000
0010
0100
0010
1000
0001
,
1000
0000
0001
0000
0010
0000
0100
0000
1000
0010
0100
0001
0010
0100
1000
0010
,
0100
0001
0100
0010
0100
0001
1000
0100
,
1000
0010
0100
0001
0100
0010
1000
0001
,
0010
0001
0100
0010
1000
0100
0010
0100
,
1000
0001
1000
0100
0010
0001
0100
0001
,
1000
0011
0100
0011
,
1000
0011
0100
0011
,
1000
0011
0100
0011
,
1000
0000
0011
0000
0100
0000
0011
1000
,
0100
1010
0001
1010
,
0100
1010
0001
1010
,
0100
1010
0001
1010
,
0100
1000
0010
0100
0001
0010
0100
1000
,
0001
0100
0001
1000
0100
1000
0001
0100
0010
1000
0001
1000
0100
1000
0001
0100
,
0010
0100
0001
1000
0100
1000
0001
0100
0001
1000
0001
0010
0100
0010
0001
1000
,
0100
1000
0001
1000
0010
0100
0010
1000
0001
1000
0100
1000
0001
0100
0001
1000
,
0001
0010
0100
1000
0001
0010
0001
1000
0001
0100
0001
1000
0010
0100
0010
1000
,
0001
0010
0001
1000
0010
1000
0001
0010
0100
1000
0001
1000
0010
1000
0001
0010
,
0100
0010
0001
1000
0010
1000
0001
0010
0001
1000
0001
0100
0010
0100
0001
1000
,
0010
1000
0001
1000
0100
0010
0100
1000
0001
1000
0010
1000
0001
0010
0001
1000
,
0001
0100
0010
1000
0001
0100
0001
1000
0001
0010
0001
1000
0100
0010
0100
1000
,
0001
0100
0001
1000
0100
1000
0001
0100
0010
0100
0001
1000
0100
1000
0001
0010
,
0100
0010
0001
1000
0001
0100
0010
0100
0001
1000
0100
0010
0100
1000
0001
0100
,
0010
1000
0001
1000
0100
1000
0010
0100
0001
1000
0001
0100
0001
1000
0100
0010
,
0100
1000
0001
0100
0001
0010
0001
1000
0100
1000
0001
1000
0010
0100
0010
1000
,
0001
0010
0001
1000
0010
1000
0001
0100
0001
1000
0100
0010
0001
1000
0010
1000
,
0001
1000
0010
0100
0010
1000
0001
0100
0001
1000
0100
1000
0001
0010
0001
1000
,
0001
0100
0010
1000
0001
1000
0100
1000
0001
0100
0010
0100
0001
1000
0100
1000
,
0001
0100
0010
1000
0100
1000
0001
0100
0010
0100
0001
1000
0100
0010
0100
1000
,
0002
0000
0003
0000
000M
00M0
0M00
0000
;
