#TITLE:Jehovah's YaHVeH;
#SUBTITLE:East Coast Violation;
#ARTIST:Demetori;
#TITLETRANSLIT:;
#SUBTITLETRANSLIT:;
#ARTISTTRANSLIT:;
#CREDIT:;
#BANNER:Jehova-bn.png;
#BACKGROUND:Jehova-bg.png;
#LYRICSPATH:;
#CDTITLE:;
#MUSIC:Jehovah's YaHVeH.ogg;
#OFFSET:-0.508;
#SAMPLESTART:115.040;
#SAMPLELENGTH:17.040;
#SELECTABLE:YES;
#BPMS:0.000=220.000;
#STOPS:;
#BGCHANGES:;
// cache tags:
#FIRSTBEAT:30.000;
#LASTBEAT:1102.000;
#SONGFILENAME:Songs/Index Tournament 1/Jehovah's YaHVeH (East Coast Violation) [Zaia & Janus5k]/Jehovah's YaHVeH.sm;
#HASMUSIC:1;
#HASBANNER:1;
#MUSICLENGTH:308.480;
// end cache tags

//---------------dance-single - T. Swag vs. C. Wood----------------
#NOTES:
     dance-single:
     T. Swag vs. C. Wood:
     Challenge:
     19:
     1.000,1.000,0.042,0.301,1.000,3631.000,13.000,93.000,0.000,0.000:

0000
0000
0000
0000
,
0000
0000
0000
0000
,
0000
0000
0000
0000
,
0000
0000
0000
0000
,
0000
0000
0000
0000
,
0000
0000
0000
0000
,
0000
0000
0000
0000
,
0000
0000
0000
0000
0000
0000
0000
0000
0000
0000
0000
0000
0000
0000
0000
0000
0000
0000
0000
0000
0000
0000
0000
0000
2000
3000
0000
0000
0000
0000
0000
0000
0000
0000
0000
0000
0020
0030
0000
0000
0000
0000
0000
0000
0000
0000
0000
0000
,
0200
0300
0000
0000
0000
0000
0000
0000
0000
0000
0000
0000
0000
0000
0000
0000
0000
0000
0000
0000
0000
0000
0000
0000
0002
0003
0000
0000
0000
0000
0000
0000
0000
0000
0000
0000
2000
3000
0000
0000
0000
0000
0000
0000
0000
0000
0000
0000
,
0020
0030
0000
0000
0000
0000
0000
0000
0000
0000
0000
0000
0000
0000
0000
0000
0000
0000
0000
0000
0000
0000
0000
0000
2000
3000
0000
0000
0000
0000
0000
0000
0000
0000
0000
0000
0200
0300
0000
0000
0000
0000
0000
0000
0000
0000
0000
0000
,
0020
0030
0000
0000
0000
0000
0000
0000
0000
0000
0000
0000
0000
0000
0000
0000
0000
0000
0000
0000
0000
0000
0000
0000
0002
0003
0000
0000
0000
0000
0000
0000
0000
0000
0000
0000
0020
0030
0000
0000
0000
0000
0000
0000
0000
0000
0000
0000
,
0200
0300
0000
0000
0000
0000
0000
0000
0000
0000
0000
0000
0000
0000
0000
0000
0000
0000
0000
0000
0000
0000
0000
0000
2000
3000
0000
0000
0000
0000
0000
0000
0000
0000
0000
0000
0002
0003
0000
0000
0000
0000
0000
0000
0000
0000
0000
0000
,
0200
0300
0000
0000
0000
0000
0000
0000
0000
0000
0000
0000
0000
0000
0000
0000
0000
0000
0000
0000
0000
0000
0000
0000
0020
0030
0000
0000
0000
0000
0000
0000
0000
0000
0000
0000
2000
3000
0000
0000
0000
0000
0000
0000
0000
0000
0000
0000
,
0002
0003
0000
0000
0000
0000
0000
0000
0000
0000
0000
0000
0000
0000
0000
0000
0000
0000
0000
0000
0000
0000
0000
0000
2000
3000
0000
0000
0000
0000
0000
0000
0000
0000
0000
0000
0200
0300
0000
0000
0000
0000
0000
0000
0000
0000
0000
0000
,
0020
0030
0000
0000
0000
0000
0000
0000
0000
0000
0000
0000
0000
0000
0000
0000
0000
0000
0000
0000
0000
0000
0000
0000
0200
0300
0000
0000
0000
0000
0000
0000
0000
0000
0000
0000
2000
3000
0000
0000
0000
0000
0000
0000
0000
0000
0000
0000
,
0020
0030
0000
0000
0000
0000
0000
0000
0000
0000
0000
0000
0200
0300
0000
0000
0000
0000
0000
0000
0000
0000
0000
0000
0002
0003
0000
0000
0000
0000
0000
0000
0000
0000
0000
0000
0000
0000
0000
0000
0000
0000
0000
0000
0000
0000
0000
0000
,
2000
3000
0000
0000
0000
0000
0000
0000
0000
0000
0000
0000
0000
0000
0000
0000
0000
0000
0000
0000
0000
0000
0000
0000
0200
0300
0000
0000
0000
0000
0000
0000
0000
0000
0000
0000
0020
0030
0000
0000
0000
0000
0000
0000
0000
0000
0000
0000
,
0002
0003
0000
0000
0000
0000
0000
0000
0000
0000
0000
0000
0000
0000
0000
0000
0000
0000
0000
0000
0000
0000
0000
0000
0200
0300
0000
0000
0000
0000
0000
0000
0000
0000
0000
0000
0020
0030
0000
0000
0000
0000
0000
0000
0000
0000
0000
0000
,
2000
3000
0000
0000
0000
0000
0000
0000
0000
0000
0000
0000
0000
0000
0000
0000
0000
0000
0000
0000
0000
0000
0000
0000
0020
0030
0000
0000
0000
0000
0000
0000
0000
0000
0000
0000
0200
0300
0000
0000
0000
0000
0000
0000
0000
0000
0000
0000
,
0002
0003
0000
0000
0000
0000
0000
0000
0000
0000
0000
0000
0000
0000
0000
0000
0000
0000
0000
0000
0000
0000
0000
0000
0020
0030
0000
0000
0000
0000
0000
0000
0000
0000
0000
0000
0200
0300
0000
0000
0000
0000
0000
0000
0000
0000
0000
0000
,
2000
3000
0000
0000
0000
0000
0000
0000
0000
0000
0000
0000
0000
0000
0000
0000
0000
0000
0000
0000
0000
0000
0000
0000
0200
0300
0000
0000
0000
0000
0000
0000
0000
0000
0000
0000
2000
3000
0000
0000
0000
0000
0000
0000
0000
0000
0000
0000
,
0002
0003
0000
0000
0000
0000
0000
0000
0000
0000
0000
0000
0000
0000
0000
0000
0000
0000
0000
0000
0000
0000
0000
0000
0200
0300
0000
0000
0000
0000
0000
0000
0000
0000
0000
0000
0020
0030
0000
0000
0000
0000
0000
0000
0000
0000
0000
0000
,
2000
3000
0000
0000
0000
0000
0000
0000
0000
0000
0000
0000
0000
0000
0000
0000
0000
0000
0000
0000
0000
0000
0000
0000
0002
0003
0000
0000
0000
0000
0000
0000
0000
0000
0000
0000
0000
0000
0000
0000
0000
0000
0000
0000
0000
0000
0000
0000
,
0020
0030
0000
0000
0000
0000
0000
0000
0000
0000
0000
0000
0000
0000
0000
0000
0000
0000
0000
0000
0000
0000
0000
0000
0200
0300
0000
0000
0000
0000
0000
0000
0000
0000
0000
0000
0020
0030
0000
0000
0000
0000
0000
0000
0000
0000
0000
0000
,
0002
0003
0000
0000
0000
0000
0000
0000
0000
0000
0000
0000
0200
0300
0000
0000
0000
0000
0000
0000
0000
0000
0000
0000
0020
0030
0000
0000
0000
0000
0000
0000
0000
0000
0000
0000
2000
3000
0000
0000
0000
0000
0000
0000
0000
0000
0000
0000
,
0200
0300
0000
0000
0000
0000
0000
0000
0000
0000
0000
0000
0020
0030
0000
0000
0000
0000
0000
0000
0000
0000
0000
0000
0002
0003
0000
0000
0000
0000
0000
0000
0000
0000
0000
0000
2000
3000
0000
0000
0000
0000
0000
0000
0000
0000
0000
0000
,
0020
0030
0000
0000
0000
0000
0000
0000
0000
0000
0000
0000
0200
0300
0000
0000
0000
0000
0000
0000
0000
0000
0000
0000
0002
0003
0000
0000
0000
0000
0000
0000
0000
0000
0000
0000
2000
3000
0000
0000
0000
0000
0000
0000
0000
0000
0000
0000
,
0200
0300
0000
0000
0000
0000
0000
0000
0000
0000
0000
0000
0020
0030
0000
0000
0000
0000
0000
0000
0000
0000
0000
0000
0200
0300
0000
0000
0000
0000
0000
0000
0000
0000
0000
0000
2000
3000
0000
0000
0000
0000
0000
0000
0000
0000
0000
0000
,
0002
0000
0000
0000
0003
0000
0000
0000
0000
0000
0000
0000
0000
0000
0000
0000
0000
0000
0000
0000
0000
0000
0000
0000
0000
0000
0000
0000
0000
0000
0000
0000
0000
0000
0000
0000
0000
0000
0000
0000
0000
0000
0000
0000
0000
0000
0000
0000
0200
0000
0000
0000
0300
0000
0000
0000
0000
0000
0000
0000
0000
0000
0000
0000
0000
0000
0000
0000
0000
0000
0000
0000
0000
0000
0000
0000
0000
0000
0000
0000
0000
0000
0000
0000
0000
0000
0000
0000
0000
0000
0000
0000
0000
0000
0000
0000
0020
0000
0000
0000
0000
0000
0030
0000
0000
0000
0000
0000
0000
0000
0000
0000
0000
0000
0000
0000
0000
0000
0000
0000
0000
0000
0000
0000
0000
0000
0000
0000
0000
0000
0000
0000
0000
0000
0000
0000
0000
0000
0000
0000
0000
0000
0000
0000
2000
0000
0000
0000
0000
0000
3000
0000
0000
0000
0000
0000
0000
0000
0000
0000
0000
0000
0000
0000
0000
0000
0000
0000
0000
0000
0000
0000
0000
0000
0000
0000
0000
0000
0000
0000
0000
0000
0000
0000
0000
0000
0000
0000
0000
0000
0000
0000
,
0002
0003
0000
0000
0000
0000
2000
3000
0000
0000
0000
0000
0200
0300
0000
0000
0000
0000
0020
0030
0000
0000
0000
0000
,
0200
0000
0000
0000
0300
0000
0000
0000
0000
0000
0000
0000
2000
0000
0000
0000
3000
0000
0000
0000
0000
0000
0000
0000
0020
0000
0000
0000
0000
0000
0030
0000
0000
0000
0000
0000
0200
0000
0000
0000
0000
0000
0000
0300
0000
0000
0000
0000
,
0002
0000
0000
0000
0000
0003
0000
0000
0020
0000
0000
0000
0000
0000
0000
0000
0230
0000
0000
0000
0000
0000
0000
0000
0000
0000
0300
0000
0000
0000
0000
0000
,
0010
0001
0010
0001
1000
0001
0100
0010
1000
0010
0100
0001
1000
0001
0010
0100
,
1000
0001
0100
0001
1000
0010
0100
0001
1000
0001
0100
0001
1000
0100
0010
0001
,
1000
0001
0010
0001
1000
0100
0010
0100
1000
0001
0010
0100
1000
0001
0100
0001
,
1000
0001
0010
0100
1000
0001
0010
0001
1000
0100
0010
0001
1000
0001
0100
0001
,
1000
0010
1000
0001
0100
0010
1000
0001
0100
0010
0100
0001
1000
0100
1000
0001
,
1000
0010
0100
0001
0100
0010
1000
0001
1000
0010
1000
0001
0010
0100
0010
0001
,
1000
0100
1000
0001
0010
0100
0010
0001
0010
0100
1000
0001
1000
0010
0100
0001
,
1000
0001
0010
0100
1000
0010
0100
0001
1000
0001
0010
0100
1000
0100
0010
0001
,
1000
0001
0100
0010
1000
0010
0100
0001
1000
0001
0010
0100
1000
0001
0100
0001
,
1000
0001
0010
0001
1000
0100
0010
0001
1000
0001
0100
0001
1000
0001
0010
0100
,
1000
0001
0100
0001
1000
0010
0100
0001
1000
0001
0010
0100
1000
0001
0100
0001
,
1000
0001
0010
0001
1000
0100
0010
0001
1000
0010
0100
0010
1000
0001
0010
0001
,
1000
0100
1000
0001
0010
0100
1000
0001
0100
0010
0100
0001
1000
0100
1000
0001
,
1000
0010
0100
0001
1000
0010
1000
0001
0010
0100
0010
0001
1000
0010
1000
0001
,
0010
0100
1000
0001
1000
0100
1000
0001
0100
0010
1000
0001
1000
0100
0010
0001
,
0100
0010
1000
0010
0100
0001
0010
0001
0010
0100
1000
0001
1000
0100
0010
0001
,
1000
0001
0010
0100
1000
0100
0010
0001
1000
0001
0100
0010
1000
0001
0010
0001
,
1000
0001
0100
0001
1000
0010
0100
0001
1000
0001
0010
0001
1000
0001
0100
0010
,
1000
0001
0010
0001
1000
0100
0010
0001
1000
0001
0100
0010
1000
0001
0010
0001
,
1000
0001
0100
0001
1000
0010
0100
0001
1000
0100
0010
0100
1000
0001
0100
0001
,
1000
0010
1000
0001
0100
0010
1000
0001
0010
0100
0010
0001
1000
0010
1000
0001
,
1000
0100
0010
0001
1000
0100
1000
0001
0100
0010
0100
0001
1000
0100
1000
0001
,
1000
0010
0100
0001
0010
0100
0010
0001
1000
0010
1000
0100
0010
0001
1000
0010
,
1000
0001
1000
0001
0010
0100
1000
0001
0100
0001
0100
0010
1000
0001
0010
0100
,
1000
0000
0002
0023
,
0130
1000
0001
1000
0001
0010
0100
1000
0001
1000
0010
0100
0001
0100
0010
1000
,
0001
1000
0010
0100
0010
1000
0001
1000
0100
0010
0100
1000
0001
1000
0010
0100
,
0001
1000
0001
1000
0100
0010
0001
1000
0001
0100
0010
1000
0100
0010
0100
1000
,
0001
0010
0100
1000
0001
1000
0010
0100
0001
1000
0001
0100
0010
1000
0100
0010
,
0001
1000
0100
1000
0100
0010
0001
0100
0010
1000
0010
0100
0001
1000
0001
0010
,
0100
1000
0001
1000
0100
0010
0001
1000
0010
1000
0010
0100
0001
0010
0100
1000
,
0001
1000
0010
0100
0001
1000
0001
0010
0100
1000
0001
0100
0010
1000
0100
0010
,
0001
0100
0001
1000
0100
1000
0001
0010
0001
0010
0100
0010
0001
1000
0001
0100
,
0010
0100
0001
1000
0001
0100
0010
1000
0001
1000
0100
0010
0001
0010
0100
1000
,
0001
1000
0100
0010
0100
1000
0001
1000
0010
0100
0010
1000
0001
1000
0100
0010
,
0001
1000
0001
1000
0010
0100
0001
1000
0001
0010
0100
1000
0010
0100
0010
1000
,
0001
0100
0010
1000
0001
1000
0100
0010
0001
1000
0001
0010
0100
1000
0010
0100
,
0001
1000
0010
1000
0010
0100
0001
0010
0100
1000
0100
0010
0001
1000
0001
0100
,
0010
1000
0001
1000
0010
0100
0001
1000
0100
1000
0100
0010
0001
0100
0010
1000
,
0001
1000
0100
0010
0001
1000
0001
0100
0010
1000
0001
0010
0100
1000
0010
0100
,
0001
0100
0010
1000
0001
1000
0010
0100
0001
0010
0100
1000
0010
0100
0001
1000
,
0001
0010
0100
1000
0010
0100
0010
1000
0100
0010
0001
1000
0001
0100
0010
1000
,
0001
1000
0010
0100
0001
0010
0100
0010
0001
0100
0010
1000
0001
1000
0100
0010
,
0001
1000
0100
1000
0010
1000
0001
0100
0001
0010
0100
1000
0001
1000
0010
1000
,
0001
0100
0010
1000
0100
1000
0001
0010
0001
0100
0010
1000
0001
1000
0100
0010
,
0001
1000
0100
1000
0001
1000
0100
1000
0001
0100
0010
1000
0100
0010
0001
0100
,
0010
1000
0001
1000
0010
1000
0001
1000
0100
0010
0001
0100
0010
1000
0100
0010
,
0001
1000
0010
0100
0001
1000
0001
0010
0001
0100
0010
0100
0001
1000
0100
0010
,
0001
0011
1001
1010
,
1000
0010
0100
0001
1000
0001
1000
0100
0010
0001
1000
0010
0100
0001
0100
0010
,
1000
0100
0010
0001
1000
0001
0010
0001
1000
0010
0100
0010
1000
0100
0010
0001
,
1000
0010
0100
0001
1000
0001
1000
0100
0010
0001
0100
0010
1000
0001
1000
0100
,
0010
0000
0000
0000
0011
0000
0000
0000
1001
0000
0000
0000
0001
1000
0010
1000
,
0100
0010
0001
1000
0001
0100
0010
1000
0010
0100
0010
1000
0001
1000
0001
0010
,
0100
0010
0001
1000
0010
0100
0001
0010
0100
0010
0001
0100
0010
1000
0001
0100
,
0001
1000
0010
1000
0001
1000
0010
0100
0001
1000
0100
0010
0100
1000
0010
0100
,
0001
1000
0001
1000
0010
0100
0001
0100
0010
1000
0001
0100
0001
1000
0100
1000
,
0001
0010
0100
1000
0001
1000
0001
0100
0010
1000
0001
0010
0100
1000
0100
0010
,
0001
0100
0010
1000
0001
1000
0010
1000
0001
0010
0100
0010
0001
0100
0010
1000
,
0001
0010
0100
1000
0001
1000
0001
0100
0010
1000
0100
0010
0001
1000
0010
1000
,
0001
0100
0010
1000
0001
0010
0100
1000
0001
0100
0010
1000
0001
0010
0100
1000
,
0010
0100
0001
1000
0001
0010
0100
1000
0100
0010
0100
1000
0001
1000
0001
0100
,
0010
0100
0001
1000
0100
0010
0001
0100
0010
0100
0001
0010
0100
1000
0001
0010
,
0001
1000
0100
1000
0001
1000
0100
0010
0001
1000
0001
0100
0010
0100
0001
1000
,
0001
0010
0100
1000
0001
0010
0100
0010
0001
1000
0001
1000
0100
0010
0001
1000
,
0001
1000
0010
0100
0001
0100
0010
1000
0001
1000
0100
0010
0001
1000
0010
1000
,
0001
1000
0100
1000
0001
0010
0100
1000
0001
1000
0010
1000
0001
1000
0100
0010
,
0001
1000
0010
1000
0001
0100
0010
1000
0001
1000
0100
0010
0001
1000
0010
1000
,
0001
1000
0100
1000
0001
0010
0100
1000
0001
0100
0010
0100
0001
1000
0100
1000
,
0001
0010
0001
1000
0100
0010
0001
1000
0010
0100
0010
1000
0001
0010
0001
1000
,
0001
0100
0010
1000
0001
0100
0001
1000
0100
0010
0100
1000
0001
0100
0001
1000
,
0100
0010
0001
1000
0001
0010
0001
1000
0010
0100
0001
1000
0001
0010
0100
1000
,
0010
0100
0001
0100
0010
1000
0100
1000
0100
0010
0001
1000
0001
0010
0100
1000
,
0001
1000
0100
0010
0001
0010
0100
1000
0001
1000
0010
0100
0001
1000
0100
1000
,
0001
1000
0010
1000
0001
0100
0010
1000
0001
1000
0100
1000
0001
1000
0010
0100
,
0001
1000
0100
1000
0001
0010
0100
1000
0001
1000
0010
0100
0001
1000
0100
1000
,
0001
1000
0010
1000
0001
0100
0010
1000
0001
0010
0100
0010
0001
1000
0010
1000
,
0001
0100
0001
1000
0010
0100
0001
1000
0100
0010
0100
1000
0001
0100
0001
1000
,
0001
0010
0100
1000
0001
0010
0001
1000
0010
0100
0010
1000
0001
0010
0001
1000
,
0010
0100
0010
1000
0001
0010
0100
0010
0001
1000
0001
1000
0010
0100
0001
1000
,
0100
0000
0010
0000
0001
0000
0000
0000
0000
0000
0000
0000
,
0000
0000
0000
0000
1001
0000
1000
0010
,
0000
1000
0100
0010
0001
0100
0001
0000
,
1000
0100
1000
0000
0100
0010
0001
1000
,
0000
0010
0100
0000
0001
0100
0001
0000
,
1000
0010
1000
0000
0110
0000
0100
0001
,
0000
1000
0010
0000
1000
0000
0001
0010
,
0000
0000
0001
0000
1000
0000
0010
0000
0100
0001
1000
0001
1000
0010
0100
0010
,
1000
0001
1000
0010
0100
0001
1000
0010
0200
0000
0000
0000
0000
0000
0000
0000
,
0000
0000
0000
0000
0000
0000
0000
0000
0310
0100
0001
1000
0001
0100
0010
1000
,
0001
1000
0100
0010
0001
0010
0100
1000
0001
1000
0100
0010
0100
1000
0001
1000
,
0010
0100
0010
1000
0001
1000
0100
0010
0001
1000
0001
1000
0010
0100
0001
1000
,
0001
0010
0100
1000
0010
0100
0010
1000
0001
0100
0010
1000
0001
1000
0100
0010
,
0001
1000
0001
0010
0100
1000
0010
0100
0001
1000
0010
1000
0010
0100
0001
0010
,
0100
1000
0100
0010
0001
1000
0001
0100
0010
1000
0001
1000
0010
0100
0001
1000
,
0100
1000
0100
0010
0001
0100
0010
1000
0001
1000
0100
0010
0001
1000
0001
0100
,
0010
1000
0001
0010
0100
1000
0010
0100
0001
0100
0010
1000
0001
1000
0010
0100
,
0001
0010
0100
1000
0010
0100
0001
1000
0001
0100
0010
0000
0000
0000
1000
0000
,
0001
0000
1000
0000
0000
0000
0001
0000
0010
0001
1000
0000
0000
0000
0100
0000
,
0010
0000
0100
0000
0010
0000
0001
0000
0100
0001
1000
0000
0000
0000
0001
0100
,
0010
0100
0001
0000
0000
0000
1000
0000
0010
1000
0001
0000
0010
0000
0001
0000
,
0100
0000
0010
0000
1000
0000
0100
0010
0001
0000
1000
0000
0001
0000
1000
0000
,
0010
0000
0100
0000
0001
0000
1000
0000
0001
0000
0010
0000
0001
0010
0100
1000
,
0010
0100
0001
0010
0100
1000
0001
1000
0001
1000
0010
0100
0010
1000
0100
0010
,
0100
0010
0001
1000
0010
0100
0010
1000
0001
0000
0000
0000
0000
0000
0000
0000
,
2000
0000
0000
0000
3002
0000
0000
0000
1003
0100
0010
0001
1000
0001
1000
0010
,
0100
0001
1000
0100
0010
0001
0010
0100
1000
0010
0100
0001
1000
0001
0100
0001
,
1000
0100
0010
0100
1000
0010
0100
0001
1000
0100
0010
0001
1000
0001
1000
0010
,
0100
0001
0010
0100
1000
0001
1000
0001
1000
0010
0100
0001
1000
0100
0010
0001
,
1000
0010
0100
0001
1000
0100
0010
0001
1000
0100
1000
0001
1000
0010
0100
0001
,
0100
0010
0100
0001
1000
0001
1000
0100
0010
0100
1000
0001
0100
0010
1000
0100
,
0010
0100
1000
0010
0100
0001
1000
0010
1000
0001
0100
0001
1000
0001
0100
0010
,
1000
0001
0010
0100
0010
0001
0100
0010
1000
0001
1000
0001
0100
0010
1000
0010
,
0100
0001
1000
0010
1000
0001
0010
0001
1000
0100
0010
0001
1000
0001
1000
0010
,
0100
0001
1000
0100
0010
0001
0010
0100
1000
0010
0100
0001
1000
0001
0100
0001
,
1000
0100
0010
0100
1000
0010
0100
0001
1000
0100
0010
0001
1000
0001
1000
0010
,
0100
0001
0010
0100
1000
0001
0100
0001
1000
0010
0100
0001
1000
0100
0010
0001
,
1000
0010
0100
0001
1000
0100
0010
0001
0100
0010
1000
0001
1000
0100
0010
0001
,
0010
0100
0010
0001
1000
0001
1000
0010
0100
0010
1000
0001
0010
0100
1000
0010
,
0100
0010
1000
0100
0010
0001
1000
0100
1000
0001
0010
0001
1000
0001
0010
0100
,
1000
0001
1000
0010
0100
0010
1000
0001
1000
0100
0010
0001
1000
0100
0010
0100
,
1000
0001
1000
0001
0010
0100
1000
0001
1000
0010
1000
0010
0100
0001
0010
0001
,
1000
0001
0100
0001
1000
0001
0010
0001
1000
0100
1000
0100
0010
0001
0100
0001
,
1000
0001
0010
0001
1000
0001
0100
0001
1000
0010
1000
0010
0100
0001
0010
0001
,
1000
0001
0100
0001
1000
0001
0010
0001
1000
0100
1000
0010
0100
0001
0100
0010
,
1000
0001
1000
0001
0100
0010
1000
0001
0100
0001
0100
0001
1000
0010
1000
0100
,
1000
0001
1000
0010
1000
0001
1000
0100
0010
0001
0010
0001
1000
0100
1000
0010
,
1000
0001
1000
0100
1000
0001
1000
0010
0100
0001
0100
0001
1000
0010
1000
0100
,
1000
0001
1000
0010
1000
0001
1000
0100
0010
0000
0000
0000
0011
0000
0000
0000
,
1001
0000
0000
0000
0001
0010
0001
1000
0100
1000
0010
1000
0001
1000
0001
0010
,
0001
0100
0001
1000
0001
1000
0100
1000
0010
1000
0001
1000
0001
0100
0001
0010
,
0001
1000
0010
0100
0010
1000
0001
0100
0010
1000
0001
0010
0100
0010
0001
1000
,
0100
0000
0000
0010
0000
0000
0100
0000
0000
1000
0000
0000
0001
0000
0000
1000
0000
0000
0010
0000
0000
0100
0000
0000
0010
0000
0000
0000
1000
0000
0000
0000
0001
0000
0000
0000
1000
0000
0000
0100
0000
0000
0020
0000
0000
0000
0000
0000
,
0000
0000
0000
0000
0000
0000
0130
0010
0001
0100
0010
1000
0100
1000
0001
0100
,
0010
1000
0100
1000
0001
0100
0010
1000
0100
1000
0001
0100
0001
0010
0100
1000
,
0001
0100
0001
0010
0100
1000
0001
1000
0100
0010
0001
1000
0100
0010
0001
0010
,
0100
1000
0100
1000
0100
0010
0100
1000
0001
0100
0010
1000
0010
1000
0001
0100
,
0010
1000
0001
0010
0100
0010
0001
1000
0010
0100
0001
1000
0001
0100
0001
1000
,
0100
1000
0001
1000
0010
0100
0010
1000
0001
0100
0010
1000
0100
1000
0001
1000
,
0010
0000
0000
0100
0000
0000
0001
0000
0000
1000
0000
0000
0001
0000
0000
0010
0000
0000
0200
0000
0000
0000
0000
0000
0000
0000
0000
0000
0000
0000
0000
0000
0000
0000
0000
0000
1300
0000
0000
0000
0000
0000
0000
0000
0001
0000
0000
0000
,
0000
0010
0000
0100
0000
1000
0000
0001
0010
0100
1000
0100
,
0020
0000
0000
0000
0031
1000
0001
0010
0100
1000
0100
0010
0001
1000
0100
1000
,
0001
0100
0001
1000
0010
0100
0001
1000
0100
0010
0001
1000
0010
0100
0001
0100
,
0010
1000
0002
0000
0000
0000
0000
0000
0013
0100
0010
0100
1000
0100
1000
0100
,
1000
0001
0100
0010
1000
0001
0100
0010
1000
0001
0010
0100
1000
0100
0010
0001
,
1000
0100
1000
0001
0100
0010
0100
0001
1000
0001
0010
0100
0010
0001
1000
0001
,
0100
0010
0100
0001
1000
0001
0010
0100
1000
0010
0100
0001
1000
0001
1000
0100
,
0010
0001
1000
0001
0100
0010
0100
0001
0010
0001
1000
0100
1000
0001
1000
0010
,
0100
0001
0100
0010
1000
0001
1000
0100
0010
0001
1000
0010
0100
0001
1000
0100
,
0010
0001
0100
0010
1000
0100
0010
0001
1000
0001
0100
0010
0100
0001
1000
0001
,
0010
0100
0010
0001
1000
0001
0100
0010
1000
0100
0010
0001
1000
0001
1000
0010
,
0100
0001
1000
0001
1000
0100
0010
0001
0100
0010
1000
0010
0100
0001
1000
0010
,
1000
0001
0010
0100
1000
0001
0100
0010
1000
0001
0010
0001
1000
0001
0100
0001
,
1000
0010
0100
0010
1000
0001
1000
0100
0010
0001
1000
0100
0010
0100
1000
0001
,
0010
0001
1000
0100
1000
0100
0010
0001
1000
0010
0100
0001
0100
0010
1000
0001
,
0100
0001
0100
0010
1000
0001
1000
0010
1000
0001
0010
0100
0010
0001
1000
0100
,
0010
0001
1000
0001
0010
0100
1000
0001
1000
0010
0100
0001
1000
0010
1000
0001
,
0100
0001
1000
0010
0100
0001
1000
0010
1000
0001
0010
0001
1000
0010
0100
0010
,
0100
0001
1000
0100
0010
0100
0010
0001
1000
0010
0100
0001
0100
0001
1000
0100
,
0010
0000
0000
0001
0000
0000
0010
0000
0000
0001
0000
0000
1000
0000
0000
0010
0000
0000
0100
0000
0000
0010
0000
0000
1000
0000
0000
0000
0001
0000
0000
0000
0100
0000
0000
0000
0001
0000
0000
0000
1000
0000
0000
0000
0010
0000
0000
0000
,
1000
0001
0010
0100
0010
0001
1000
0100
0010
0001
1000
0100
,
0010
0001
1000
0001
0010
0001
1000
0000
0000
0000
0000
0000
,
0000
0000
0000
0000
,
0000
0000
1001
0000
,
0000
0000
0000
0000
0000
0000
0001
0000
1000
0000
0010
0000
0100
0000
0000
0001
0000
0000
0000
0000
0000
0100
0000
0000
,
0000
0000
0010
0000
1000
0000
0001
0000
1000
0000
0000
0000
0000
0000
0100
0010
,
0100
0000
0000
0000
0000
0000
1000
0001
1000
0000
1000
0000
0000
0000
0010
0000
,
1000
1000
0000
0001
0100
0000
0010
0100
,
0010
0000
0100
0000
0010
0000
0100
0000
0001
1000
0010
0100
0001
0100
0010
1000
,
0001
0010
0100
1000
0001
1000
0001
0010
0100
0010
0001
1000
0001
0010
0100
1000
,
0001
1000
0010
0100
0001
0100
0010
1000
0001
1000
0010
0100
0010
1000
0001
1000
,
0100
0010
0100
1000
0001
1000
0010
0100
0001
1000
0001
1000
0100
0010
0001
1000
,
0001
0100
0010
1000
0100
0010
0100
1000
0001
0010
0100
1000
0001
1000
0010
0100
,
0001
1000
0001
0100
0010
1000
0100
0010
0001
1000
0100
1000
0100
0010
0001
0100
,
0010
1000
0010
0100
0001
1000
0001
0010
0100
1000
0001
1000
0100
0010
0001
1000
,
0010
1000
0010
0100
0001
0010
0100
1000
0001
1000
0010
0100
0001
1000
0001
0010
,
0100
1000
0001
0100
0010
1000
0100
0010
0001
0010
0100
1000
0001
1000
0100
0010
,
0001
0100
0010
1000
0100
0010
0001
1000
0001
0100
0010
1000
0100
0010
0100
1000
,
0010
0100
0001
1000
0001
0010
0100
1000
0001
1000
0100
0010
0001
0100
0010
0100
,
0001
0010
0100
1000
0001
1000
0010
0100
0001
1000
0010
1000
0100
1000
0001
0010
,
0001
0100
0010
1000
0001
1000
0100
1000
0001
0010
0100
1000
0010
1000
0001
0100
,
0001
0010
0100
1000
0001
1000
0010
0100
0001
1000
0010
1000
0001
1000
0010
1000
,
0001
0010
0100
1000
0010
0100
0001
0010
0100
1000
0001
1000
0100
1000
0001
1000
,
0010
0100
0001
0010
0100
1000
0010
0100
0001
1000
0100
0010
0001
1000
0001
0100
,
0001
0010
0100
0010
0001
1000
0010
0100
0001
0000
1000
0000
0000
0000
0000
0000
,
0002
0000
0000
0000
0023
0000
0000
0000
0130
1000
0001
1000
0010
0100
0001
0010
,
0100
1000
0010
0100
0001
1000
0001
1000
0001
0010
0100
1000
0001
1000
0001
0100
,
0010
1000
0001
0010
0100
1000
0100
0010
0001
0100
0010
1000
0001
1000
0010
1000
,
0001
0010
0100
0010
0001
0100
0010
1000
0001
0010
0100
1000
0001
1000
0001
0100
,
0010
1000
0100
0010
0001
1000
0001
1000
0001
0100
0010
1000
0001
0010
0100
1000
,
0001
0100
0010
1000
0001
0010
0100
1000
0001
0010
0001
1000
0001
0100
0010
1000
,
0010
0100
0010
1000
0001
1000
0001
0010
0100
0010
0001
1000
0010
0100
0001
0010
,
0100
0010
0001
0100
0010
1000
0001
0100
0001
1000
0010
1000
0001
1000
0010
0100
,
0001
1000
0100
0010
0100
1000
0010
0100
0001
1000
0001
1000
0010
0100
0001
0100
,
0010
1000
0001
0100
0001
1000
0100
1000
0001
0010
0100
1000
0001
1000
0001
0100
,
0010
1000
0001
0010
0100
1000
0100
0010
0001
0100
0010
1000
0001
1000
0010
1000
,
0001
0010
0100
0010
0001
0100
0010
1000
0001
0010
0100
1000
0001
1000
0001
0100
,
0010
1000
0100
0010
0001
1000
0010
1000
0001
0100
0010
1000
0001
0010
0100
1000
,
0001
0100
0010
1000
0001
0010
0100
1000
0010
0100
0001
1000
0001
0010
0100
1000
,
0100
0010
0100
1000
0001
1000
0001
0100
0010
0100
0001
1000
0100
0010
0001
0100
,
0010
0100
0001
0010
0100
1000
0001
0010
0001
1000
0100
1000
0001
1000
0100
0010
,
0001
1000
0001
0100
0010
0100
0001
1000
0001
0010
0100
1000
0001
0010
0100
0010
,
0001
1000
0001
1000
0100
0010
0001
1000
0001
0100
0010
1000
0001
1000
0001
0010
,
0100
1000
0001
0100
0010
1000
0010
0100
0001
0010
0100
1000
0001
1000
0100
1000
,
0001
0100
0010
0100
0001
0010
0100
1000
0001
0100
0010
1000
0001
1000
0001
0010
,
0100
1000
0010
0100
0001
1000
0001
1000
0001
0010
0100
1000
0001
0100
0010
1000
,
0001
0010
0100
1000
0001
0100
0010
1000
0001
0100
0001
1000
0001
0010
0100
1000
,
0100
0010
0100
1000
0001
1000
0001
0100
0010
0100
0001
1000
0100
0010
0001
0100
,
0010
0100
0001
0010
0100
1000
0001
0010
0001
1000
0100
1000
0001
1000
0100
0010
,
0001
1000
0010
0100
0010
1000
0100
0010
0001
1000
0001
1000
0100
0010
0001
0010
,
0100
1000
0001
0010
0001
1000
0010
1000
0001
0100
0010
1000
0001
1000
0001
0010
,
0100
1000
0001
0100
0010
1000
0010
0100
0001
0010
0100
1000
0001
1000
0100
1000
,
0001
0100
0010
0100
0001
0010
0100
1000
0001
0100
0010
1000
0001
1000
0001
0010
,
0100
1000
0010
0100
0001
1000
0100
1000
0001
0010
0100
1000
0001
0100
0010
1000
,
0001
0010
0100
1000
0001
0100
0010
1000
0001
0010
0001
1000
0100
0010
0100
1000
,
0001
1000
0001
0010
0100
1000
0001
1000
0010
0100
0001
0100
0010
1000
0001
1000
,
0010
0100
0001
0100
0010
1000
0001
0100
0010
1000
0001
1000
0001
0010
0100
1000
,
0001
1000
0001
0100
0010
1000
0001
1000
0001
0010
0100
0010
0001
1000
0100
0010
,
0001
0100
0010
1000
0001
0000
0000
0000
1000
0001
0100
0010
1000
0010
0100
0001
,
1000
0001
0010
0100
1000
0001
0100
0001
1000
0001
0010
0001
1000
0100
0010
0001
,
1000
0001
0100
0001
1000
0001
0010
0100
1000
0001
0100
0001
1000
0010
0100
0001
,
1000
0001
0010
0100
1000
0001
0100
0001
1000
0001
0010
0001
1000
0100
0010
0001
,
1000
0010
0100
0010
1000
0001
0010
0001
1000
0100
1000
0001
0010
0100
1000
0001
,
0100
0010
0100
0001
1000
0100
1000
0001
1000
0010
0100
0001
1000
0010
1000
0001
,
0010
0100
0010
0001
1000
0010
1000
0001
0010
0100
1000
0001
1000
0100
1000
0001
,
0100
0010
1000
0001
1000
0100
0010
0001
0100
0010
1000
0010
0100
0001
0010
0001
,
0010
0100
1000
0001
1000
0100
0010
0001
1000
0001
0010
0100
1000
0100
0010
0001
,
1000
0001
0100
0010
1000
0001
0010
0001
1000
0001
0100
0001
1000
0010
0100
0001
,
1000
0001
0010
0001
1000
0001
0100
0010
1000
0001
0010
0001
1000
0100
0010
0001
,
1000
0001
0100
0010
1000
0001
0010
0001
1000
0001
0100
0001
1000
0010
0100
0001
,
1000
0100
0010
0100
1000
0001
0100
0001
1000
0010
1000
0001
0100
0010
1000
0001
,
0010
0100
0010
0001
1000
0010
1000
0001
1000
0100
0010
0001
1000
0100
1000
0001
,
0100
0010
0100
0001
1000
0100
1000
0001
1000
0010
0100
0001
0010
0100
0010
0001
,
1000
0010
1000
0100
0010
0001
1000
0010
1000
0001
1000
0001
0010
0100
1000
0001
,
0100
0001
0100
0010
1000
0001
0010
0100
1000
0001
0100
0010
1000
0001
0100
0010
,
1000
0001
1000
0001
0100
0010
0100
0001
1000
0100
1000
0100
0010
0001
1000
0100
,
1000
0001
0010
0100
1000
0001
0010
0001
1000
0001
0100
0010
1000
0001
0100
0010
,
1000
0001
1000
0001
0100
0010
0100
0001
1000
0100
1000
0100
0010
0001
1000
0100
,
1000
0001
0010
0001
1000
0100
0010
0001
1000
0001
0100
0010
1000
0001
0010
0100
,
1000
0001
1000
0001
0010
0100
0010
0001
1000
0001
0100
0010
1000
0010
1000
0001
,
1000
0100
0010
0001
0010
0001
1000
0010
0100
0001
1000
0001
1000
0010
0100
0001
,
1000
0001
1000
0010
0100
0001
1000
0001
1000
0100
0010
0001
0010
0001
1000
0100
,
0010
0001
0010
0001
0100
0000
0000
0000
0110
0000
0000
0000
0000
0000
0110
0000
,
0000
0220
0330
0000
;
