#TITLE:Never Gonna Come Back Down;
#SUBTITLE:;
#ARTIST:BT;
#TITLETRANSLIT:;
#SUBTITLETRANSLIT:;
#ARTISTTRANSLIT:;
#CREDIT:Arch0wl;
#BANNER:NGCBD-bn.png;
#BACKGROUND:NGCBD-bg.png;
#LYRICSPATH:;
#CDTITLE:!arch0wltitle.png;
#MUSIC:ngcbd.ogg;
#OFFSET:-2.831;
#SAMPLESTART:45.180;
#SAMPLELENGTH:19.400;
#SELECTABLE:YES;
#BPMS:0.000=136.000;
#STOPS:;
#BGCHANGES:0.000=ngcbd-bg.png=1.000=0=0=1,
99999=-nosongbg-=1.000=0=0=0 // don't automatically add -songbackground-
;
// cache tags:
#FIRSTBEAT:0.000;
#LASTBEAT:199.000;
#SONGFILENAME:Songs/Archmage and Dark0wl Hammer of Thor UltraHyperMegaPack/Never Gonna Come Back Down/ngcbd.sm;
#HASMUSIC:1;
#HASBANNER:1;
#MUSICLENGTH:90.794;
// end cache tags

//---------------dance-single - Arch0wl----------------
#NOTES:
     dance-single:
     Arch0wl:
     Hard:
     11:
     0.955,0.904,0.132,0.011,1.000,594.000,12.000,1.000,0.000,0.000:
1010
0000
1001
0000
0001
0000
1000
0100
1000
0000
0010
0000
0001
0000
0010
0000
,
1100
0000
1010
0000
1000
0000
0001
0100
0001
0000
1000
0000
0010
0000
0100
0000
,
0011
0000
0110
0000
0010
0000
0001
0010
0001
0000
0100
0000
0010
0000
0001
0000
,
1010
0000
1100
0000
1000
0000
0010
0100
0010
0000
0100
0000
1000
0000
0100
0000
,
0011
0000
0110
0000
0100
0000
1000
0010
1000
0000
0001
0000
0100
0000
0010
0000
,
1100
0000
0101
0000
0010
0000
0001
0010
0001
0000
1000
0000
0010
0000
0100
0000
,
0001
0000
0100
0001
1000
0010
0100
0000
0001
0000
1000
0100
0010
0001
0100
0000
,
0001
0000
1000
0010
0100
0001
0010
0000
0100
1000
0001
0100
0010
0000
1000
0000
,
0001
0000
1000
0001
0100
0010
1000
0100
1000
0010
0100
0001
0100
0010
1000
0100
,
0010
0000
0001
1000
0010
0100
0001
0010
0001
0100
0010
1000
0010
0000
1000
0001
,
1000
0000
0100
0010
0001
1000
0100
0010
0100
1000
0001
0010
0001
1000
0100
0010
,
0001
0000
0010
0100
1000
0001
0010
0100
0010
0001
1000
0010
1000
0000
0001
1000
,
0001
0000
0100
0000
0010
1000
0010
0100
0001
0010
0100
1000
0010
0100
0001
0100
,
0010
0000
0100
0001
0100
0010
1000
0100
0010
0001
0100
0010
1000
0000
0001
1000
,
0001
0000
0100
0001
0010
0100
1000
0010
0100
0001
0010
0001
1000
0010
1000
0100
,
0010
0000
0001
1000
0100
0010
0001
0100
0010
1000
0100
1000
0001
0000
1000
0000
,
0010
0000
0100
0001
0000
0100
0001
0000
1000
0000
0010
1000
0000
0010
1000
0000
,
0001
0000
0100
0010
0000
0100
0010
0000
1000
0001
0000
0001
1000
0000
0010
0000
,
0100
0000
0001
0010
0000
0001
0010
0000
0100
0000
1000
0100
0000
1000
0100
0000
,
0010
0000
0001
1000
0000
0001
1000
0000
0100
0010
0000
0010
0100
0000
1000
0000
,
0010
0100
0010
0001
0000
0010
1000
0000
0010
0000
0100
0001
0010
0100
1000
0000
,
0001
1000
0001
0010
0000
0010
1000
0000
0010
0100
0010
0001
1000
0010
0100
0000
,
0001
1000
0100
0010
0000
0001
0010
0000
0001
0000
0100
1000
0100
0001
1000
0000
,
1000
0100
0010
0001
0000
1000
0010
0000
0100
0001
0100
0010
1000
0100
0010
0000
,
0001
0000
0100
0000
0010
0000
1000
0001
0010
0001
1000
0000
0001
0000
0100
0010
,
1000
0000
0100
0000
0010
0000
0001
1000
0010
1000
0100
0000
1000
0000
0001
1000
,
0010
0000
0100
0000
0010
0000
1000
0100
0010
0100
0001
0000
0100
0000
1000
0010
,
0001
0000
0010
0000
0100
0000
0010
1000
0010
0100
0001
0000
0100
0000
0001
0010
,
1000
0000
0010
0000
0001
0000
1000
0100
0001
0100
0010
0000
0100
0000
1000
0001
,
0010
0000
0001
0000
1000
0000
0001
0100
0010
0100
0001
0000
1000
0000
0001
0100
,
1000
0000
0100
0000
0010
0000
1000
0001
0100
0010
1000
0000
0100
0000
0010
0001
,
1000
0000
0010
0000
0001
0000
0010
1000
0100
0001
0100
0000
1000
0000
0001
0100
,
0010
0000
1000
0000
0100
0000
0010
1000
0010
0001
0010
0000
0100
0000
1000
0010
,
0001
0000
0010
0000
0100
0000
0010
1000
0100
0010
0100
0000
1000
0000
0001
1000
,
0010
0000
1000
0000
0001
0000
1000
0001
0100
0001
0010
0000
0100
0000
1000
0001
,
0010
0000
0100
0000
1000
0000
0001
0100
0010
0100
1000
0000
0100
0000
0001
1000
,
0100
0000
0010
0000
0100
0000
1000
0100
0010
0100
0001
0000
0100
0000
1000
0001
,
0010
0000
0100
0000
1000
0000
0001
0100
0010
1000
0010
0000
0100
0000
0001
0100
,
1000
0000
0100
0000
0001
0000
1000
0010
0100
0001
0010
0000
0001
0000
1000
0010
,
0100
0000
0001
0000
1000
0000
0010
1000
0100
0010
0001
0000
1000
0000
0001
0100
,
0001
1000
0010
1000
0001
0010
0001
0100
0010
0100
0001
1000
0001
0100
0010
1000
,
0001
0010
0001
1000
0010
1000
0001
0100
0001
1000
0100
0010
0001
0100
0010
0100
,
0001
1000
0001
0100
0010
1000
0001
0010
0001
1000
0010
1000
0001
0100
0001
1000
,
0100
1000
0001
0010
0001
1000
0100
1000
0001
0100
0010
1000
0010
0100
0001
0010
,
0100
1000
0010
0100
0001
1000
0001
0100
0010
0100
0001
0100
0001
1000
0010
1000
,
0001
0010
0001
1000
0100
1000
0001
0100
0001
1000
0010
0100
0001
0010
0100
1000
,
0001
0100
0010
1000
0100
0010
0001
0100
0010
0100
0001
1000
0001
0100
0010
0100
,
0001
0010
0001
1000
0010
1000
0001
0010
0100
1000
0010
0100
0001
0010
0100
1000
,
0001
0100
0010
1000
0001
0000
0000
0000
0000
0000
0000
0000
0001
0000
0000
0000
,
0000
0001
0200
0300
;
