#TITLE:Ranma 1/2;
#SUBTITLE:- Us After This;
#ARTIST:Doco;
#TITLETRANSLIT:;
#SUBTITLETRANSLIT:;
#ARTISTTRANSLIT:;
#CREDIT:;
#BANNER:RanmaLogo.png;
#BACKGROUND:Ranmabg1.png;
#LYRICSPATH:;
#CDTITLE:;
#MUSIC:RanmaOAV.mp3;
#OFFSET:1.020;
#SAMPLESTART:38.532;
#SAMPLELENGTH:12.000;
#SELECTABLE:YES;
#BPMS:0.000=151.700;
#STOPS:;
#BGCHANGES:;
// cache tags:
#FIRSTBEAT:3.000;
#LASTBEAT:274.500;
#SONGFILENAME:Songs/Anime Songs/RanmaOAV/Ranma.sm;
#HASMUSIC:1;
#HASBANNER:1;
#MUSICLENGTH:109.220;
// end cache tags

//---------------dance-single - ----------------
#NOTES:
     dance-single:
     :
     Easy:
     1:
     0.175,0.125,0.009,0.000,0.000,133.000,1.000,0.000,0.000,0.000:  // measure 1
0000
0000
0000
0000
,  // measure 2
0000
0000
0000
1000
0000
0000
0000
0001
,  // measure 3
0000
0000
0000
1000
0000
0000
0000
0001
,  // measure 4
0000
0000
0000
1000
0000
0000
0000
0001
,  // measure 5
0000
0000
0000
0100
0000
0000
0000
0010
,  // measure 6
0000
0000
0000
0100
0000
0000
0000
0010
,  // measure 7
0000
0000
0000
1000
0000
0000
0000
0001
,  // measure 8
0000
0000
0000
1000
0000
0000
0000
0001
,  // measure 9
0000
0000
0000
0010
0000
0000
0000
0100
,  // measure 10
0000
0000
0000
1000
0000
0000
0000
0001
,  // measure 11
0000
0000
0000
0100
0000
0000
0000
0001
,  // measure 12
0000
0000
0000
1000
0000
0000
0000
0100
,  // measure 13
0000
0000
0000
0001
0000
0000
0000
1000
,  // measure 14
0000
0000
0000
0010
0000
0000
0000
0001
,  // measure 15
0000
0000
0000
0100
0000
0000
0000
1000
,  // measure 16
0000
0000
0000
0001
0000
0000
0000
0010
,  // measure 17
0000
0000
0000
0100
0000
0000
0000
1000
,  // measure 18
0000
0000
0000
0100
0000
0000
0000
0010
,  // measure 19
0000
0000
0000
0001
0000
0000
0000
0100
,  // measure 20
0000
0000
0000
0001
0000
0000
0000
0100
,  // measure 21
0000
0000
0000
0010
0000
0000
0000
1000
,  // measure 22
0000
0000
0000
0001
0000
0000
0000
0100
,  // measure 23
0000
0000
0000
0001
0000
0000
0000
0001
,  // measure 24
0000
0000
0000
0001
0000
0000
0000
1000
,  // measure 25
0000
0000
0000
1000
0000
0000
0000
1000
,  // measure 26
0000
0000
0000
0100
0000
0000
0000
0010
,  // measure 27
0000
0000
0000
0010
0000
0000
0000
0100
,  // measure 28
0000
0000
0000
1000
0000
0000
0000
0001
,  // measure 29
0000
0000
0000
0100
0000
0000
0000
0010
,  // measure 30
0000
0000
0000
1000
0000
0000
0000
0001
,  // measure 31
0000
0000
0000
1000
0000
0000
0000
0100
,  // measure 32
0000
0000
0000
0010
0000
0000
0000
0001
,  // measure 33
0000
0000
0000
1000
0000
0000
0000
0100
,  // measure 34
0000
0000
0000
0010
0000
0000
0000
0001
,  // measure 35
0000
0000
0000
1000
0000
0000
0000
0100
,  // measure 36
0000
0000
0000
0010
0000
0000
0000
0001
,  // measure 37
0000
0000
0000
0100
0000
0000
0000
1000
,  // measure 38
0000
0000
0000
0001
0000
0000
0000
1000
,  // measure 39
0000
0000
0000
0100
0000
0000
0000
1000
,  // measure 40
0000
0000
0000
0010
0000
0000
0000
0001
,  // measure 41
0000
0000
0000
0100
0000
0000
0000
0010
,  // measure 42
0000
0000
0000
0001
0000
0000
0000
1000
,  // measure 43
0000
0000
0000
0100
0000
0000
0000
0010
,  // measure 44
0000
0000
0000
0001
0000
0000
0000
0001
,  // measure 45
0000
0000
0000
1000
0000
0000
0000
1000
,  // measure 46
0000
0000
0000
0010
0000
0000
0000
0010
,  // measure 47
0000
0000
0000
0100
0000
0000
0000
0100
,  // measure 48
0000
0000
0000
0001
0000
0000
0000
0001
,  // measure 49
0000
0000
0000
1000
0000
0000
0000
0100
,  // measure 50
0000
0000
0000
1000
0000
0000
0000
0100
,  // measure 51
0000
0000
0000
1000
0000
0000
0000
0100
,  // measure 52
0000
0000
0000
0001
0000
0000
0000
0100
,  // measure 53
0000
0000
0000
0001
0000
0000
0000
0100
,  // measure 54
0000
0000
0000
0001
0000
0000
0000
0100
,  // measure 55
0000
0000
0000
0010
0000
0000
0000
0100
,  // measure 56
0000
0000
0000
0010
0000
0000
0000
0010
,  // measure 57
0000
0000
0000
0100
0000
0000
0000
0001
,  // measure 58
0000
0000
0000
0010
0000
0000
0000
0001
,  // measure 59
0000
0000
0000
0010
0000
0000
0000
1000
,  // measure 60
0000
0000
0000
0010
0000
0000
0000
1000
,  // measure 61
0000
0000
0000
0010
0000
0000
0000
1000
,  // measure 62
0000
0000
0000
0100
0000
0000
0000
0001
,  // measure 63
0000
0000
0000
0010
0000
0000
0000
1000
,  // measure 64
0000
0000
0000
0100
0000
0000
0000
0001
,  // measure 65
0000
0000
0000
0010
0000
0000
0000
1000
,  // measure 66
0000
0000
0000
0001
0000
0000
0000
1000
,  // measure 67
0000
0000
0000
0001
0000
0000
0000
1000
,  // measure 68
0000
0000
0000
0000
,  // measure 69
0000
0000
0000
1001
0000
0000
0000
0000
;

//---------------dance-single - ----------------
#NOTES:
     dance-single:
     :
     Medium:
     4:
     0.348,0.251,0.000,0.000,0.000,266.000,0.000,0.000,0.000,0.000:  // measure 1
0000
0000
0000
0000
,  // measure 2
0000
0000
0000
1000
0000
0001
0000
1000
,  // measure 3
0000
0001
0000
1000
0000
0001
0000
0100
,  // measure 4
0000
0010
0000
0100
0000
0010
0000
0100
,  // measure 5
0000
0010
0000
1000
0000
0001
0000
0000
,  // measure 6
0000
0000
0000
1000
0000
0001
0000
1000
,  // measure 7
0000
0001
0000
1000
0000
0001
0000
0100
,  // measure 8
0000
0010
0000
1000
0000
0100
0000
0001
,  // measure 9
0000
0010
0000
1000
0000
0001
0000
0100
,  // measure 10
0000
0010
0000
0001
0000
0100
0000
0010
,  // measure 11
0000
0001
0000
0100
0000
1000
0000
0010
,  // measure 12
0000
0001
0000
0100
0000
1000
0000
0010
,  // measure 13
0000
0001
0000
0100
0000
0001
0000
0100
,  // measure 14
0000
0001
0000
1000
0000
0100
0000
1000
,  // measure 15
0000
0100
0000
0010
0000
0001
0000
0010
,  // measure 16
0000
0001
0000
1000
0000
0010
0000
1000
,  // measure 17
0000
0010
0000
0001
0000
0100
0000
1000
,  // measure 18
0000
0010
0000
0001
0000
0100
0000
1000
,  // measure 19
0000
0010
0000
0001
0000
0100
0000
0001
,  // measure 20
0000
0010
0000
1000
0000
0100
0000
0001
,  // measure 21
0000
1000
0000
0001
0000
0100
0000
0010
,  // measure 22
0000
0001
0000
1000
0000
0010
0000
0100
,  // measure 23
0000
0100
0000
0001
0000
1000
0000
0100
,  // measure 24
0000
0010
0000
1000
0000
0001
0000
0010
,  // measure 25
0000
0100
0000
0001
0000
1000
0000
0100
,  // measure 26
0000
0010
0000
1000
0000
1000
0000
1000
,  // measure 27
0000
1000
0000
0001
0000
0001
0000
0001
,  // measure 28
0000
0001
0000
0100
0000
0100
0000
0100
,  // measure 29
0000
0100
0000
0010
0000
0010
0000
0010
,  // measure 30
0000
0010
0000
1000
0000
1000
0000
0001
,  // measure 31
0000
0001
0000
1000
0000
1000
0000
0001
,  // measure 32
0000
0001
0000
0100
0000
0010
0000
1000
,  // measure 33
0000
0100
0000
1000
0000
0001
0000
0100
,  // measure 34
0000
0001
0000
0100
0000
1000
0000
0100
,  // measure 35
0000
0001
0000
0100
0000
1000
0000
1000
,  // measure 36
0000
0010
0000
0001
0000
0010
0000
1000
,  // measure 37
0000
0010
0000
0001
0000
0001
0000
0100
,  // measure 38
0000
0010
0000
0001
0000
0100
0000
0010
,  // measure 39
0000
0100
0000
1000
0000
0010
0000
0100
,  // measure 40
0000
1000
0000
0010
0000
0001
0000
0100
,  // measure 41
0000
0001
0000
1000
0000
0010
0000
1000
,  // measure 42
0000
0001
0000
0010
0000
0001
0000
0100
,  // measure 43
0000
1000
0000
0100
0000
0001
0000
1000
,  // measure 44
0000
0100
0000
0010
0000
0001
0000
0100
,  // measure 45
0000
1000
0000
0100
0000
0001
0000
1000
,  // measure 46
0000
0010
0000
0001
0000
0100
0000
0001
,  // measure 47
0000
1000
0000
0100
0000
0010
0000
0001
,  // measure 48
0000
0100
0000
0010
0000
0001
0000
0001
,  // measure 49
0000
1000
0000
0100
0000
0010
0000
0001
,  // measure 50
0000
1000
0000
0010
0000
0001
0000
1000
,  // measure 51
0000
0100
0000
0010
0000
1000
0000
0001
,  // measure 52
0000
0100
0000
0001
0000
0010
0000
1000
,  // measure 53
0000
0010
0000
0001
0000
1000
0000
0100
,  // measure 54
0000
0010
0000
0001
0000
0100
0000
1000
,  // measure 55
0000
0010
0000
0010
0000
0100
0000
0100
,  // measure 56
0000
0010
0000
0010
0000
0100
0000
0100
,  // measure 57
0000
0001
0000
1000
0000
0001
0000
0001
,  // measure 58
0000
1000
0000
1000
0000
0001
0000
1000
,  // measure 59
0000
0100
0000
0010
0000
1000
0000
0001
,  // measure 60
0000
0010
0000
0100
0000
1000
0000
0001
,  // measure 61
0000
0001
0000
1000
0000
0100
0000
0010
,  // measure 62
0000
0001
0000
1000
0000
0100
0000
0010
,  // measure 63
0000
1000
0000
0100
0000
1000
0000
0100
,  // measure 64
0000
0001
0000
0100
0000
0001
0000
0100
,  // measure 65
0000
0010
0000
1000
0000
0100
0000
0010
,  // measure 66
0000
0001
0000
0100
0000
0010
0000
1000
,  // measure 67
0000
0001
0000
0100
0000
1000
0000
0100
,  // measure 68
0000
0001
0000
0100
0000
0000
0000
0000
,  // measure 69
1000
0000
0000
0000
0100
0100
0000
0000
;

//---------------dance-single - ----------------
#NOTES:
     dance-single:
     :
     Hard:
     7:
     0.467,0.470,0.458,0.000,0.000,307.000,50.000,0.000,0.000,0.000:  // measure 1
0000
0000
0000
0000
0000
0000
1000
0001
,  // measure 2
0000
1000
0100
1000
0001
0100
0001
1000
,  // measure 3
0000
0100
0000
1001
0000
0110
0000
0010
,  // measure 4
0000
0100
0001
0100
1000
0100
1000
0001
,  // measure 5
0000
0001
0000
1000
0000
0001
0000
0000
,  // measure 6
1010
0000
0000
0101
0000
1000
0000
0001
,  // measure 7
0000
0001
0001
1000
0000
1000
0000
0001
,  // measure 8
0001
1000
0000
0100
0000
1000
0100
1000
,  // measure 9
0000
0001
0000
0100
0001
0100
0000
1000
,  // measure 10
0000
0001
0001
0001
0000
0001
0000
1000
,  // measure 11
1000
1000
0000
0001
0000
0010
0000
0100
,  // measure 12
0000
0010
0000
0100
0000
1000
0001
0010
,  // measure 13
0100
0000
0000
0001
0000
0000
0001
0101
,  // measure 14
0000
0010
0000
0100
0000
0010
0100
0010
,  // measure 15
0000
0001
0000
1000
0000
0001
0000
1000
,  // measure 16
0001
1000
0000
1001
0000
1100
0000
0101
,  // measure 17
0000
1001
0000
1010
0000
0011
0000
1001
,  // measure 18
0000
1000
0000
0001
0000
0001
1000
0001
,  // measure 19
0000
0001
0000
1000
0000
0001
0001
1000
,  // measure 20
1000
1000
0000
1001
0000
0110
0000
1001
,  // measure 21
0000
1010
0000
0000
0101
0000
0000
0001
,  // measure 22
1000
0100
1000
0001
0000
0010
0000
0010
,  // measure 23
0001
1000
0100
0010
0000
1000
0000
1000
,  // measure 24
0100
1000
0100
0001
0000
0100
0000
0100
,  // measure 25
0001
1000
0100
1000
0000
0100
0000
0100
,  // measure 26
0010
0100
0010
0100
0000
0001
0000
0001
,  // measure 27
0100
0001
0100
0001
0000
1000
0000
1000
,  // measure 28
0100
1000
0100
1000
0000
0001
0000
1001
,  // measure 29
0101
0000
0000
0010
0000
0100
0000
0110
,  // measure 30
0000
1000
0000
0001
0000
1001
0000
1000
,  // measure 31
0000
0001
0000
1000
0000
0001
0000
1001
,  // measure 32
0000
0110
0000
1000
0001
0010
0100
1000
,  // measure 33
0100
0001
1000
0001
1000
0100
0010
0001
,  // measure 34
0000
0010
0000
0001
0000
1000
0000
0100
,  // measure 35
0000
1000
0000
0010
0000
0001
0000
0100
,  // measure 36
0001
0000
0000
1010
0000
0011
0000
1010
,  // measure 37
0000
1100
0000
0000
0101
0000
0000
0001
,  // measure 38
0000
1000
0000
0001
0000
1000
0000
0001
,  // measure 39
1000
0001
0000
0001
1000
0001
0000
0010
,  // measure 40
0000
0100
0000
0010
0000
0100
0000
0010
,  // measure 41
0100
0010
0000
0010
0100
0010
0000
0010
,  // measure 42
0000
0001
0000
0100
0000
1000
0000
0100
,  // measure 43
0000
0001
0000
0100
0000
1000
0000
0010
,  // measure 44
0000
0001
0000
0010
0000
0001
0000
1000
,  // measure 45
1000
0000
0000
0000
0000
0000
0000
1001
,  // measure 46
0100
0000
0000
1001
0010
0000
0010
1001
,  // measure 47
0000
1000
0001
1000
0001
0100
0100
0000
,  // measure 48
0000
0000
0000
1001
0000
1001
0000
1001
,  // measure 49
0000
1001
0000
1000
0001
0000
0000
1000
,  // measure 50
0000
0001
0000
1000
0000
0001
0000
1000
,  // measure 51
0000
0001
0100
0010
0100
0000
0110
0000
,  // measure 52
0000
0000
0000
0110
0000
0110
0000
1001
,  // measure 53
0000
0110
0000
0010
0100
0000
0000
1000
,  // measure 54
0000
1000
0000
1000
0000
0001
0000
0001
,  // measure 55
0000
0001
0000
0100
0000
0100
0000
0100
,  // measure 56
0000
0010
0000
0010
0000
0010
0000
1000
,  // measure 57
0000
0001
0000
1000
0000
0001
0000
1000
,  // measure 58
1000
0000
0000
0000
0000
0000
0000
1000
,  // measure 59
0000
0010
0000
1000
0100
0000
0000
0110
,  // measure 60
0000
0100
0000
0001
0000
1000
0000
1001
,  // measure 61
0000
1001
0000
0000
0000
0000
0000
0000
,  // measure 62
0000
0000
0000
0000
0000
1001
0000
0010
,  // measure 63
0010
0000
0000
0000
0000
1000
0001
1000
,  // measure 64
0001
0000
0000
0000
0000
1000
0001
1000
,  // measure 65
0001
0000
0000
0000
0000
1000
0001
1000
,  // measure 66
0001
1000
0001
1000
0001
1000
0001
0000
,  // measure 67
1001
1001
1001
1001
,  // measure 68
0110
0000
0000
0011
0000
0000
0000
1000
,  // measure 69
1000
0000
0000
0001
0100
0000
0000
0000
;
