#TITLE:Center Stage;
#SUBTITLE:;
#ARTIST:Kita Khyber;
#TITLETRANSLIT:;
#SUBTITLETRANSLIT:;
#ARTISTTRANSLIT:;
#CREDIT:;
#BANNER:../Zeppelin_bn.png;
#BACKGROUND:../bg_Zeppelin.png;
#LYRICSPATH:;
#CDTITLE:../cdtitle_ZAiA.png;
#MUSIC:Kita Khyber - Center Stage.ogg;
#OFFSET:1.410;
#SAMPLESTART:45.731;
#SAMPLELENGTH:22.960;
#SELECTABLE:YES;
#BPMS:0.000=168.000;
#STOPS:;
#BGCHANGES:;
// cache tags:
#FIRSTBEAT:4.000;
#LASTBEAT:263.500;
#SONGFILENAME:Songs/Cirque du Zeppelin/Center Stage - [Zaia]/Center Stage.sm;
#HASMUSIC:1;
#HASBANNER:1;
#MUSICLENGTH:97.175;
// end cache tags

//---------------dance-single - 8/16----------------
#NOTES:
     dance-single:
     8/16:
     Challenge:
     12:
     1.000,1.000,0.031,0.000,1.000,717.000,3.000,0.000,0.000,0.000:
0000
0000
0000
0000
,
1000
0100
0010
0100
1000
0010
0100
0001
,
0000
0000
0000
0000
1000
0000
0000
1000
0010
0000
0000
0000
0000
0000
0000
0000
,
0100
0001
0010
0001
0100
0010
1000
0100
,
0000
0000
0000
0000
0010
0000
0000
0010
0100
0000
0000
0000
0000
0000
0000
0000
,
1000
0001
0100
0010
0100
0001
1000
0100
,
0000
0000
0000
0000
1000
0000
0000
1000
0010
0000
0000
0000
0000
0000
0000
0000
,
0100
0001
1000
0100
1000
0001
0010
0100
,
0000
0000
0000
0000
1000
0000
0000
1000
0001
0000
0000
0000
0010
0000
0000
0000
,
0100
1000
0001
1000
0010
0100
0010
1000
0100
0010
0001
1000
0001
0100
0010
1000
,
0001
0010
0001
1000
0100
1000
0100
0010
0001
1000
0010
0100
0001
1000
0010
1000
,
0001
0010
0001
1000
0001
0100
0010
0100
0001
0010
0100
1000
0001
1000
0010
0100
,
0001
1000
0100
1000
0001
0010
0001
0010
0100
1000
0001
0100
0010
1000
0001
0100
,
0010
1000
0001
1000
0100
0010
0100
1000
0010
0100
0001
1000
0001
0010
0100
1000
,
0001
0100
0001
1000
0010
1000
0010
0100
0001
1000
0100
0010
0001
1000
0100
1000
,
0001
0100
0001
1000
0001
0010
0100
0010
0001
0100
0010
1000
0001
1000
0100
0010
,
0001
1000
0010
1000
0001
0100
0001
0100
0010
1000
0001
0010
0100
1000
0001
1000
,
0010
0100
0001
1000
0010
1000
0100
0010
,
0001
1000
0000
0001
0000
0100
0000
0010
0000
1000
0000
0001
0010
0000
0100
0000
,
1000
0010
1000
0001
0010
0100
1000
0001
,
0100
0010
0000
0100
0000
0001
0000
0010
0000
0100
0000
0010
0001
0000
1000
0000
,
0100
0010
0001
1000
0100
1000
0010
0100
,
0001
1000
0000
0001
0000
0010
0000
0100
0000
1000
0000
0001
0100
0000
0010
0000
,
1000
0100
1000
0001
0100
0010
1000
0001
,
0010
0100
0000
0010
0000
0001
0000
0100
0000
0010
0000
0100
0001
0000
1000
0000
,
0100
0000
1000
0000
0001
0000
0100
0010
0000
1000
0000
0001
0010
0000
0100
0000
,
1000
0000
0001
0000
0100
0000
0010
0100
0000
0001
0000
1000
0100
0000
0010
0000
,
0100
0000
1000
0000
0010
0000
1000
0100
0000
0010
0000
0001
1000
0000
0010
0000
,
0100
0000
0001
0000
0010
0000
0001
1000
0000
0010
0000
0100
0001
0000
0010
0000
,
0100
0000
1000
0000
0010
0000
0100
0001
0000
0010
0000
0001
1000
0000
0010
0000
,
0100
0000
0001
0000
0010
0000
0100
0010
0000
0001
0000
1000
0010
0000
0100
0000
,
0010
0000
1000
0000
0100
0000
1000
0001
0000
0100
0000
0010
1000
0000
0100
0000
,
0010
0000
0001
0000
0100
0000
0001
1000
0000
0100
0000
0010
0001
0000
0100
0000
,
0010
1000
0100
1000
0001
1000
0010
0100
0001
0010
0100
1000
0001
0100
0010
0100
,
0001
0010
0001
1000
0001
0100
0010
1000
0001
0010
0100
1000
0010
0100
0001
1000
,
0100
0010
0001
0100
0001
1000
0001
0010
0100
1000
0010
0100
0001
1000
0100
0010
,
0100
1000
0010
1000
0001
0100
0001
0010
0100
1000
0001
1000
0010
0100
0001
0010
,
0100
1000
0010
1000
0001
1000
0100
0010
0001
0100
0010
1000
0001
0010
0100
0010
,
0001
0100
0001
1000
0001
0010
0100
1000
0001
0100
0010
1000
0100
0010
0001
1000
,
0010
0100
0001
0010
0001
1000
0001
0100
0010
1000
0100
0010
0001
1000
0010
0100
,
0010
1000
0100
1000
0001
0010
0001
0100
0010
1000
0001
0010
0100
1000
0001
1000
,
0010
0100
0001
0010
0001
1000
0100
1000
0010
0100
0001
1000
0001
0010
0100
1000
,
0001
1000
0010
1000
0001
0100
0001
0010
0100
0010
0100
1000
0001
0100
0001
1000
,
0100
0010
0001
0100
0010
1000
0001
0100
0001
1000
0100
0010
0100
1000
0001
0100
,
0010
1000
0100
1000
0001
0010
0100
0010
0001
0100
0010
1000
0100
0010
0001
1000
,
0010
0100
0001
1000
0001
0100
0001
0010
0100
1000
0001
0100
0010
0100
0001
1000
,
0100
1000
0001
0010
0100
1000
0010
0100
0001
0100
0010
1000
0100
0010
0100
1000
,
0010
1000
0001
0010
0001
0100
0010
1000
0001
0010
0100
1000
0001
0100
0010
0100
,
0001
1000
0100
0010
0001
1000
0010
0100
0001
1000
0001
0010
0100
1000
0001
1000
,
0010
0100
0001
1000
0100
1000
0010
0100
,
0001
1000
0000
0001
0000
0010
0000
0100
0000
1000
0000
0001
0100
0000
0010
0000
,
1000
0100
1000
0001
0100
0010
1000
0001
,
0010
0100
0000
0010
0000
0001
0000
0100
0000
0010
0000
0100
0001
0000
1000
0000
,
0010
0100
0001
1000
0010
1000
0100
0010
,
0001
1000
0000
0001
0000
0100
0000
0010
0000
1000
0000
0001
0010
0000
0100
0000
,
1000
0010
1000
0001
0010
0100
1000
0001
,
0100
0010
0000
0100
0000
0001
0000
0010
0000
0100
0000
0010
0001
0000
1000
0000
,
0010
0000
1000
0000
0001
0000
0010
0100
0000
1000
0000
0001
0100
0000
0010
0000
,
1000
0000
0001
0000
0010
0000
0100
0010
0000
0001
0000
1000
0010
0000
0100
0000
,
0010
0000
1000
0000
0100
0000
1000
0010
0000
0100
0000
0001
1000
0000
0100
0000
,
0010
0000
0001
0000
0100
0000
0001
1000
0000
0100
0000
0010
0001
0000
0100
0000
,
0010
0000
1000
0000
0100
0000
0010
0001
0000
0100
0000
0001
1000
0000
0100
0000
,
0010
0000
0001
0000
0100
0000
0010
0100
0000
0001
0000
1000
0100
0000
0010
0000
,
0100
0000
1000
0000
0010
0000
1000
0001
0000
0010
0000
0100
1000
0000
0010
0000
,
0100
0000
0001
0000
0010
0000
0001
1000
0000
0010
0000
0100
0001
0000
0010
0000
,
0011
0001
1000
1010
0010
0100
0001
1001
;

//---------------dance-single - 8/4/5/1----------------
#NOTES:
     dance-single:
     8/4/5/1:
     Hard:
     11:
     0.983,1.000,0.031,0.000,1.000,666.000,3.000,0.000,0.000,0.000:
0000
0000
0000
0000
,
1000
0100
0010
0100
1000
0010
0100
0001
,
0000
0000
0000
0000
1000
0000
0000
1000
0010
0000
0000
0000
0000
0000
0000
0000
,
0100
0001
0010
0001
0100
0010
1000
0100
,
0000
0000
0000
0000
0010
0000
0000
0010
0100
0000
0000
0000
0000
0000
0000
0000
,
1000
0001
0100
0010
0100
0001
1000
0100
,
0000
0000
0000
0000
1000
0000
0000
1000
0010
0000
0000
0000
0000
0000
0000
0000
,
0100
0001
1000
0100
1000
0001
0010
0100
,
0000
0000
0000
0000
1000
0000
0000
1000
0001
0000
0000
0000
0010
0000
0000
0000
,
0100
1000
0001
1000
0010
0100
0010
1000
0100
0010
0001
1000
0001
0100
0010
1000
,
0001
0010
0001
1000
0100
1000
0100
0010
0001
1000
0010
0100
0001
1000
0010
1000
,
0001
0010
0001
1000
0001
0100
0010
0100
0001
0010
0100
1000
0001
1000
0010
0100
,
0001
1000
0100
1000
0001
0010
0001
0010
0100
1000
0001
0100
0010
1000
0001
0100
,
0010
1000
0001
1000
0100
0010
0100
1000
0010
0100
0001
1000
0001
0010
0100
1000
,
0001
0100
0001
1000
0010
1000
0010
0100
0001
1000
0100
0010
0001
1000
0100
1000
,
0001
0100
0001
1000
0001
0010
0100
0010
0001
0100
0010
1000
0001
1000
0100
0010
,
0001
1000
0010
1000
0001
0100
0001
0100
0010
1000
0001
0010
0100
1000
0001
1000
,
0010
0100
0001
1000
0010
1000
0100
0010
,
0001
1000
0000
0001
0000
0100
0000
0010
0000
1000
0000
0001
0010
0000
0100
0000
,
1000
0010
1000
0001
0010
0100
1000
0001
,
0100
0010
0000
0100
0000
0001
0000
0010
0000
0100
0000
0010
0001
0000
1000
0000
,
0100
0010
0001
1000
0100
1000
0010
0100
,
0001
1000
0000
0001
0000
0010
0000
0100
0000
1000
0000
0001
0100
0000
0010
0000
,
1000
0100
1000
0001
0100
0010
1000
0001
,
0010
0100
0000
0010
0000
0001
0000
0100
0000
0010
0000
0100
0001
0000
1000
0000
,
0100
0000
1000
0000
0001
0000
0100
0010
0000
1000
0000
0001
0010
0000
0100
0000
,
1000
0000
0001
0000
0100
0000
0010
0100
0000
0001
0000
1000
0100
0000
0010
0000
,
0100
0000
1000
0000
0010
0000
1000
0100
0000
0010
0000
0001
1000
0000
0010
0000
,
0100
0000
0001
0000
0010
0000
0001
1000
0000
0010
0000
0100
0001
0000
0010
0000
,
0100
0000
1000
0000
0010
0000
0100
0001
0000
0010
0000
0001
1000
0000
0010
0000
,
0100
0000
0001
0000
0010
0000
0100
0010
0000
0001
0000
1000
0010
0000
0100
0000
,
0010
0000
1000
0000
0100
0000
1000
0001
0000
0100
0000
0010
1000
0000
0100
0000
,
0010
0000
0001
0000
0100
0000
0001
1000
0000
0100
0000
0010
0001
0000
0100
0000
,
0010
1000
0100
1000
0001
1000
0010
0100
0001
0010
0100
1000
0001
0100
0010
0100
,
0001
0010
0001
1000
0001
0100
0010
1000
0001
0010
0100
1000
0010
0100
0001
1000
,
0100
0010
0001
0100
0001
1000
0001
0010
0100
1000
0010
0100
0001
1000
0100
0010
,
0100
1000
0010
1000
0001
0100
0001
0010
0100
1000
0001
1000
0010
0100
0001
0010
,
0100
1000
0001
1000
0010
1000
0100
0000
,
0010
0001
0100
0001
1000
0010
1000
0000
,
0100
0010
0001
1000
0010
0100
0001
0000
,
1000
0001
0010
0001
1000
0100
1000
0010
0100
0001
1000
0100
0010
0001
1000
0001
,
0100
0010
1000
0100
1000
0001
0010
0001
0100
0010
1000
0001
1000
0100
0010
0001
,
1000
0001
0100
0001
1000
0010
1000
0100
0010
0100
0010
0001
1000
0010
1000
0001
,
0010
0100
1000
0010
0100
0001
1000
0010
1000
0001
0010
0100
0010
0001
1000
0010
,
0100
0001
0010
0001
1000
0100
0010
0100
1000
0010
0100
0001
0010
0100
1000
0001
,
0100
0010
1000
0001
0010
0100
0010
0001
,
1000
0010
0100
0010
1000
0100
1000
0001
,
0010
0001
0100
0010
1000
0100
0010
0001
,
1000
0001
0010
0100
1000
0001
0100
0010
1000
0001
1000
0100
0010
0001
1000
0001
,
0100
0010
1000
0001
0010
0001
0100
0010
,
1000
0001
0000
1000
0000
0100
0000
0010
0000
0001
0000
1000
0010
0000
0100
0000
,
0001
0010
0001
1000
0010
0100
0001
1000
,
0100
0010
0000
0100
0000
1000
0000
0010
0000
0100
0000
0010
1000
0000
0001
0000
,
0100
0010
1000
0001
0100
0001
0010
0100
,
1000
0001
0000
1000
0000
0010
0000
0100
0000
0001
0000
1000
0100
0000
0010
0000
,
0001
0100
0001
1000
0100
0010
0001
1000
,
0010
0100
0000
0010
0000
1000
0000
0100
0000
0010
0000
0100
1000
0000
0001
0000
,
0100
0000
0001
0000
1000
0000
0100
0010
0000
0001
0000
1000
0010
0000
0100
0000
,
0001
0000
1000
0000
0100
0000
0010
0100
0000
1000
0000
0001
0100
0000
0010
0000
,
0100
0000
0001
0000
0010
0000
0001
0100
0000
0010
0000
1000
0001
0000
0010
0000
,
0100
0000
1000
0000
0010
0000
1000
0001
0000
0010
0000
0100
1000
0000
0010
0000
,
0100
0000
0001
0000
0010
0000
0100
1000
0000
0010
0000
1000
0001
0000
0010
0000
,
0100
0000
1000
0000
0010
0000
0100
0010
0000
1000
0000
0001
0010
0000
0100
0000
,
0010
0000
0001
0000
0100
0000
0001
1000
0000
0100
0000
0010
0001
0000
0100
0000
,
0010
0000
1000
0000
0100
0000
1000
0001
0000
0100
0000
0010
1000
0000
0100
0000
,
1100
1000
0001
0101
0100
0010
1000
1001
;

//---------------dance-single - 4/4/4----------------
#NOTES:
     dance-single:
     4/4/4:
     Medium:
     10:
     0.906,1.000,0.031,0.041,1.000,609.000,3.000,4.000,0.000,0.000:
0000
0000
0000
0000
,
1000
0100
0010
0100
1000
0010
0100
0001
,
0000
0000
0000
0000
1000
0000
0000
1000
0010
0000
0000
0000
0000
0000
0000
0000
,
0100
0001
0010
0001
0100
0010
1000
0100
,
0000
0000
0000
0000
0010
0000
0000
0010
0100
0000
0000
0000
0000
0000
0000
0000
,
1000
0001
0100
0010
0100
0001
1000
0100
,
0000
0000
0000
0000
1000
0000
0000
1000
0010
0000
0000
0000
0000
0000
0000
0000
,
0100
0001
1000
0100
1000
0001
0010
0100
,
0000
0000
0000
0000
1000
0000
0000
1000
0001
0000
0000
0000
0010
0000
0000
0000
,
0100
1000
0001
1000
0010
0100
0010
1000
0100
0010
0001
1000
0001
0100
0010
1000
,
0001
0010
0001
1000
0100
1000
0100
0010
0001
1000
0010
0100
0001
1000
0010
1000
,
0001
0010
0001
1000
0001
0100
0010
0100
0001
0010
0100
1000
0001
1000
0010
0100
,
0001
1000
0100
1000
0001
0010
0001
0010
0100
1000
0001
0100
0010
1000
0001
0100
,
0010
1000
0001
0010
0100
1000
0010
0200
,
0000
0000
0300
0000
0001
0000
0000
0001
1000
0000
0000
0000
0000
0000
0000
0000
,
0100
0010
0001
0100
0010
1000
0001
0020
,
0000
0000
0030
0000
0100
0000
0000
0100
2000
0000
0000
0000
3002
0000
0000
0000
,
0103
0010
1000
0001
0100
0001
0010
0100
,
1000
0001
0000
1000
0000
0010
0000
0100
0000
0001
0000
1000
0100
0000
0010
0000
,
0001
0100
0001
1000
0100
0010
0001
1000
,
0010
0100
0000
0010
0000
1000
0000
0100
0000
0010
0000
0100
1000
0000
0001
0000
,
0010
0100
1000
0001
0010
0001
0100
0010
,
1000
0001
0000
1000
0000
0100
0000
0010
0000
0001
0000
1000
0010
0000
0100
0000
,
0001
0010
0001
1000
0010
0100
0001
1000
,
0100
0010
0000
0100
0000
1000
0000
0010
0000
0100
0000
0010
1000
0000
0001
0000
,
0010
0000
0001
0000
1000
0000
0010
0100
0000
0001
0000
1000
0100
0000
0010
0000
,
0001
0000
1000
0000
0010
0000
0100
0010
0000
1000
0000
0001
0010
0000
0100
0000
,
0010
0000
0001
0000
0100
0000
0001
0010
0000
0100
0000
1000
0001
0000
0100
0000
,
0010
0000
1000
0000
0100
0000
1000
0001
0000
0100
0000
0010
1000
0000
0100
0000
,
0010
0000
0001
0000
0100
0000
0010
1000
0000
0100
0000
1000
0001
0000
0100
0000
,
0010
0000
1000
0000
0100
0000
0010
0100
0000
1000
0000
0001
0100
0000
0010
0000
,
0100
0000
0001
0000
0010
0000
0001
1000
0000
0010
0000
0100
0001
0000
0010
0000
,
0100
0000
1000
0000
0010
0000
1000
0001
0000
0010
0000
0100
1000
0000
0010
0000
,
0100
0001
0010
0001
1000
0001
0100
0010
1000
0100
0010
0001
1000
0010
0100
0010
,
1000
0100
1000
0001
1000
0010
0100
0001
1000
0100
0010
0001
0100
0010
1000
0001
,
0010
0100
1000
0010
1000
0001
1000
0100
0010
0001
0100
0010
1000
0001
0010
0100
,
0010
0001
0100
0001
1000
0010
1000
0100
0010
0001
1000
0001
0100
0010
1000
0100
,
0010
0001
1000
0001
0100
0001
0010
0000
,
0100
1000
0010
1000
0001
0100
0001
0000
,
0010
0100
1000
0001
0100
0010
1000
0000
,
0001
0010
0100
1000
0010
0100
0001
1000
,
0010
0100
0001
0010
0001
1000
0100
1000
0010
0100
0001
1000
0001
0010
0100
1000
,
0001
1000
0010
1000
0001
0100
0001
0010
0100
0010
0100
1000
0001
0100
0001
1000
,
0100
0010
0001
0100
0010
1000
0001
0100
0001
1000
0100
0010
0100
1000
0001
0100
,
0010
1000
0100
1000
0001
0010
0100
0010
0001
0100
0010
1000
0100
0010
0001
1000
,
0010
0100
0001
1000
0100
0010
0100
1000
,
0001
0100
0010
0100
0001
0010
0001
1000
,
0100
1000
0010
0100
0001
0010
0100
1000
,
0010
0100
0001
1000
0100
0010
0001
1000
,
0010
0100
0001
1000
0100
1000
0010
0100
,
0001
1000
0000
0001
0000
0010
0000
0100
0000
1000
0000
0001
0100
0000
0010
0000
,
1000
0100
1000
0001
0100
0010
1000
0001
,
0010
0100
0000
0010
0000
0001
0000
0100
0000
0010
0000
0100
0001
0000
1000
0000
,
0010
0100
0001
1000
0010
1000
0100
0010
,
0001
1000
0000
0001
0000
0100
0000
0010
0000
1000
0000
0001
0010
0000
0100
0000
,
1000
0010
1000
0001
0010
0100
1000
0001
,
0100
0010
0000
0100
0000
0001
0000
0010
0000
0100
0000
0010
0001
0000
1000
0000
,
0010
0000
1000
0000
0001
0000
0010
0100
0000
1000
0000
0001
0100
0000
0010
0000
,
1000
0000
0001
0000
0010
0000
0100
0010
0000
0001
0000
1000
0010
0000
0100
0000
,
0010
0000
1000
0000
0100
0000
1000
0010
0000
0100
0000
0001
1000
0000
0100
0000
,
0010
0000
0001
0000
0100
0000
0001
1000
0000
0100
0000
0010
0001
0000
0100
0000
,
0010
0000
1000
0000
0100
0000
0010
0001
0000
0100
0000
0001
1000
0000
0100
0000
,
0010
0000
0001
0000
0100
0000
0010
0100
0000
0001
0000
1000
0100
0000
0010
0000
,
0100
0000
1000
0000
0010
0000
1000
0001
0000
0010
0000
0100
1000
0000
0010
0000
,
0100
0000
0001
0000
0010
0000
0001
1000
0000
0010
0000
0100
0001
0000
0010
0000
,
0011
0001
1000
1010
0010
0100
0001
1001
;
