#TITLE:the Dream Duel;
#SUBTITLE:;
#ARTIST:dBu Music;
#TITLETRANSLIT:;
#SUBTITLETRANSLIT:;
#ARTISTTRANSLIT:;
#CREDIT:;
#BANNER:banner.png;
#BACKGROUND:bg.png;
#LYRICSPATH:;
#CDTITLE:;
#MUSIC:the Dream Duel.mp3;
#OFFSET:-4.360;
#SAMPLESTART:16.014;
#SAMPLELENGTH:12.000;
#SELECTABLE:YES;
#BPMS:0.000=170.000,305.000=170.200,465.000=170.000;
#STOPS:368.750=0.020
,464.875=0.020
;
#BGCHANGES:;
// cache tags:
#FIRSTBEAT:0.000;
#LASTBEAT:497.000;
#SONGFILENAME:Songs/keyboard/the Dream Duel/the Dream duel.sm;
#HASMUSIC:1;
#HASBANNER:1;
#MUSICLENGTH:188.969;
// end cache tags

//---------------dance-single - ----------------
#NOTES:
     dance-single:
     :
     Hard:
     12:
     1.000,1.000,1.000,0.000,1.000,1561.000,461.000,0.000,0.000,0.000:
1001
0000
0000
0000
1001
0000
0000
0000
1001
0000
0000
0000
1001
0000
0000
1001
,
0000
0000
1001
0000
0000
0000
0101
0000
0101
0000
0000
0000
0101
0000
0000
0101
,
0000
0000
0110
0000
0000
0000
0000
0000
0110
0000
0000
0000
0110
0000
0000
0110
,
0000
0000
0110
0000
0000
0000
0110
0000
0110
0000
0000
0000
0110
0000
0000
0110
,
0000
0000
0101
0000
1001
0000
0000
0000
1001
0000
0000
0000
1001
0000
0000
1001
,
0000
0000
1001
0000
0000
0000
0101
0000
0101
0000
0000
0000
0101
0000
0000
0101
,
0000
0000
0110
0000
0000
0000
0000
0000
0110
0000
0000
0000
0110
0000
0000
0110
,
0000
0000
0110
0000
0000
0000
0110
0000
0110
0000
0000
0000
0110
0000
0000
0110
,
0000
0000
0110
0000
0011
0100
1000
0100
0011
0100
1000
0010
0101
0010
0100
1001
,
0100
0010
0101
1000
0010
0001
1100
0001
0110
0001
1000
0010
1100
0001
0010
1100
,
0001
0100
1010
0001
0010
0100
1000
0100
0011
1000
0100
0001
1010
0100
1000
0011
,
0100
1000
0011
0100
0001
1000
0110
1000
0011
0100
0001
1000
0110
0001
1000
0110
,
1000
0001
1010
0100
1001
0100
0010
0100
0011
1000
0100
1000
0011
1000
0100
0011
,
0100
0010
0101
1000
0100
0010
1001
0010
1100
0010
0001
0100
1010
0100
0001
1010
,
0100
0001
1100
0010
0100
0001
0010
1000
0101
0010
1000
0001
0110
1000
0001
0110
,
1000
0001
0110
1000
0001
0100
0011
0100
1010
0100
0010
0001
1010
0100
0001
1010
,
0100
0001
1010
0001
1100
0010
0001
0010
1100
0010
0001
0100
1010
0100
0010
1001
,
0010
0100
1010
0001
0100
1000
0011
1000
0110
1000
0001
0100
0011
1000
0100
0011
,
1000
0010
0101
1000
0100
0010
0001
0010
1100
0001
0010
1000
0101
0010
0001
1100
,
0010
0001
1100
0010
1000
0001
0110
0001
1100
0010
1000
0001
0110
1000
0001
0110
,
0001
1000
0101
0010
1001
0010
0100
0010
1100
0001
0010
0001
1100
0001
0010
1100
,
0010
0100
1010
0001
0010
0100
1001
0100
0011
0100
1000
0010
0101
0010
1000
0101
,
0010
1000
0011
0100
0010
1000
0100
0001
1010
0100
0001
1000
0110
0001
1000
0110
,
0001
1000
0110
0001
1000
0010
0101
1000
0110
1000
0001
0010
1100
0001
0010
0101
,
1000
0010
0101
0010
0101
1000
0010
1000
0101
1000
0010
0001
1100
0001
1000
0110
,
1000
0001
1100
0010
0001
0100
1010
0100
1001
0100
0010
0001
1010
0100
0001
1010
,
0100
1000
0011
0100
0001
1000
0010
1000
0101
0010
1000
0100
0011
1000
0010
0101
,
1000
0010
0101
1000
0100
0010
1001
0010
0101
1000
0100
0010
1001
0100
0010
1001
,
0010
0100
0011
1000
0110
1000
0001
1000
0101
0010
1000
0010
0101
0010
1000
0101
,
1000
0001
1100
0010
1000
0001
0110
0001
1010
0001
0100
1000
0011
1000
0100
0011
,
1000
0100
1010
0001
1000
0100
0001
0010
1100
0001
0010
0100
1001
0010
0100
1001
,
0010
0100
1001
0010
0100
1000
0011
0100
1001
0100
0010
1000
0101
0010
1000
0011
,
0100
1000
0011
0100
1000
0100
0010
1000
0100
0010
1000
0100
0010
1000
0100
0010
,
1000
0010
0001
0100
0010
0001
0100
0010
1000
0100
0010
1000
0100
0010
0001
1000
,
0100
0010
0001
1000
0010
1000
0010
0100
0001
1000
0010
0100
0001
0100
0010
1000
,
0001
0100
0010
1000
0001
0100
0010
0100
0010
0001
1000
0100
0010
0001
0010
0100
,
1001
0000
0100
0000
1001
0000
0010
0100
1000
0000
0011
1000
0101
0000
0010
0100
,
1000
0000
0100
0010
1001
0000
0010
0100
0010
0000
0011
1100
0011
0000
1010
0001
,
0110
0000
0100
0000
1010
0000
0001
0010
1000
0000
0110
1000
0101
0000
0010
0100
,
0001
0000
0010
0100
1001
0000
0010
0100
1000
0000
0100
0010
1000
0000
0001
0010
,
0100
0000
0000
0000
1001
0000
0100
0010
0001
0000
1010
0001
0110
0000
0010
0100
,
1000
0000
0100
0010
1001
0000
0100
0010
0001
0000
1001
0110
1001
0000
1010
0001
,
0110
0000
0010
0000
1001
0000
0001
0100
0010
0000
0101
0010
1001
0000
0010
0100
,
0010
0000
0001
0100
0010
0000
0100
1000
0001
0000
0100
0010
1000
0000
0100
0010
,
0001
0000
0000
0000
0101
0000
1000
0100
0010
0000
1010
0001
0110
0000
0100
0001
,
1000
0000
0100
0010
1001
0000
0100
0010
1000
0000
0101
1010
0101
0000
1100
0001
,
0110
0000
1000
0000
0101
0000
1000
0010
0100
0000
0011
1000
0101
0000
0010
0100
,
0001
0000
1000
0010
0101
0000
0010
0001
0100
0000
0010
0001
1000
0000
0100
0010
,
1000
0000
0000
0000
1001
0000
0010
0100
1000
0000
0011
1000
0101
0000
0010
0100
,
1000
0000
0001
0100
0011
0000
1000
0010
0100
0000
1001
0110
1001
0000
1100
0010
,
1001
0000
0100
0000
0011
0000
0100
0010
1000
0000
0101
0010
1100
0000
0001
0010
,
0100
0000
1000
0001
0100
0010
0100
0010
0100
0000
0010
0100
0000
0100
0000
0100
,
0010
0100
0010
0100
1010
0000
0001
0010
1000
0000
0011
1000
0110
0000
0001
0010
,
0100
1000
0100
0000
0011
0000
0100
0001
0010
0000
1001
0110
1001
0000
1001
0100
,
0011
0100
1010
0000
0101
0000
1000
0100
0010
0000
1001
0010
1100
0000
0001
0010
,
0100
1000
0100
0000
1001
0000
0001
0010
1100
0000
0001
0100
1010
0000
0001
0100
,
0010
1000
0100
0000
0011
0000
1000
0100
0010
0000
1100
0001
0110
0000
0001
0010
,
0100
1000
0100
0000
0011
0000
1000
0001
0100
0000
0101
1010
0101
0000
1100
0001
,
1010
0001
0110
0000
1001
0000
0100
0010
1000
0000
0011
0100
1001
0000
0010
0100
,
1000
0100
0010
0000
0001
0000
1000
0100
0010
0000
0010
0100
0001
0000
0010
0100
,
1000
0100
0010
0000
1001
0000
0010
0001
1000
0000
0101
1000
0011
0000
0100
0010
,
1000
0100
0010
0000
1001
0000
0100
0010
0001
0000
1100
0011
1100
0000
1001
0100
,
0011
1000
0110
0000
1001
0000
0100
0001
1000
0000
0011
1000
0101
0000
0010
0100
,
1000
0100
0010
0000
0101
0000
0010
0001
1100
0000
0101
1000
0011
0000
0100
0010
,
1000
0100
0010
0000
0101
0000
1000
0001
0100
0000
0110
1000
0011
0000
0100
0010
,
1000
0001
0100
0000
0011
0000
1000
0001
0100
0000
0101
1010
0101
0000
0110
1000
,
0011
0100
1001
0000
1010
0000
0100
0010
1000
0000
0011
1000
0101
0000
0010
0100
,
1000
0100
0010
0000
0001
1000
0001
1000
0001
0000
1000
0001
0000
0001
0000
0001
,
1000
0001
1000
0001
1000
0100
0010
0001
1000
0100
0010
0100
1000
0001
0010
0100
,
0010
0001
0100
0010
0100
0001
0010
0100
1000
0010
0100
0001
0100
0010
0100
0001
,
0010
0100
1000
0100
0010
0001
0100
0010
0100
1000
0010
0001
0100
0010
0100
1000
,
0001
0010
0100
0010
0100
1000
0001
0100
0010
1000
0100
0010
0001
0010
0100
1000
,
0100
0010
0001
1000
0100
0010
0001
1000
0100
1000
0100
0010
0001
1000
0100
0010
,
0001
0010
0100
1000
0001
0100
0010
0100
0010
0001
0010
0100
1000
0100
0010
0001
,
0010
0100
1000
0001
0100
0010
0100
0010
1000
0001
0100
0010
0100
1000
0001
0010
,
0100
1000
0001
0100
0010
0100
0001
1000
0010
0100
0010
0001
0010
0100
1000
0100
,
0010
0001
0010
0100
1001
0000
0000
0000
1001
0000
0000
0000
1001
0000
0000
1001
,
0000
0000
1001
0000
0000
0000
0101
0000
0101
0000
0000
0000
0101
0000
0000
0101
,
0000
0000
0110
0000
0000
0000
0000
0000
0110
0000
0000
0000
0110
0000
0000
0110
,
0000
0000
0110
0000
0000
0000
0110
0000
0110
0000
0000
0000
0110
0000
0000
0110
,
0000
0000
0101
0000
1001
0000
0000
0000
1001
0000
0000
0000
1001
0000
0000
1001
,
0000
0000
1001
0000
0000
0000
0101
0000
0101
0000
0000
0000
0101
0000
0000
0101
,
0000
0000
0110
0000
0000
0000
0000
0000
0110
0000
0000
0000
0110
0000
0000
0110
,
0000
0000
0110
0000
0000
0000
0110
0000
0110
0000
0000
0000
0110
0000
0000
0110
,
0000
0000
0110
0000
0011
0100
1000
0100
0011
0100
1000
0010
0101
0010
0100
1001
,
0100
0010
0101
1000
0010
0001
1100
0001
0110
0001
1000
0010
1100
0001
0010
1100
,
0001
0100
1010
0001
0010
0100
1000
0100
0011
1000
0100
0001
1010
0100
1000
0011
,
0100
1000
0011
0100
0001
1000
0110
1000
0011
0100
0001
1000
0110
0001
1000
0110
,
1000
0001
1010
0100
1001
0100
0010
0100
0011
1000
0100
1000
0011
1000
0100
0011
,
0100
0010
0101
1000
0100
0010
1001
0010
1100
0010
0001
0100
1010
0100
0001
1010
,
0100
0001
1100
0010
0100
0001
0010
1000
0101
0010
1000
0001
0110
1000
0001
0110
,
1000
0001
0110
1000
0001
0100
0011
0100
1010
0001
0100
0001
1010
0100
0001
1010
,
0100
0001
1010
0100
1010
0000
0001
0010
1000
0000
0011
1000
0110
0000
0001
0010
,
0100
1000
0100
0000
0011
0000
0100
0001
0010
0000
1001
0110
1001
0000
1001
0100
,
0011
0100
1010
0000
0101
0000
1000
0100
0010
0000
1001
0010
1100
0000
0001
0010
,
0100
1000
0100
0000
1001
0000
0001
0010
1100
0000
0001
0100
1010
0000
0001
0100
,
0010
1000
0100
0000
0011
0000
1000
0100
0010
0000
1100
0001
0110
0000
0001
0010
,
0100
1000
0100
0000
0011
0000
1000
0001
0100
0000
0101
1010
0101
0000
1100
0001
,
1010
0001
0110
0000
1001
0000
0100
0010
1000
0000
0011
0100
1001
0000
0010
0100
,
1000
0100
0010
0000
0001
0000
1000
0100
0010
0000
0010
0100
0001
0000
0010
0100
,
1000
0100
0010
0000
1001
0000
0010
0001
1000
0000
0101
1000
0011
0000
0100
0010
,
1000
0100
0010
0000
1001
0000
0100
0010
0001
0000
1100
0011
1100
0000
1001
0100
,
0011
1000
0110
0000
1001
0000
0100
0001
1000
0000
0011
1000
0101
0000
0010
0100
,
1000
0100
0010
0000
0101
0000
0010
0001
1100
0000
0101
1000
0011
0000
0100
0010
,
1000
0100
0010
0000
0101
0000
1000
0001
0100
0000
0110
1000
0011
0000
0100
0010
,
1000
0001
0100
0000
0011
0000
1000
0001
0100
0000
0101
1010
0101
0000
0110
1000
,
0011
0100
1001
0000
1010
0000
0100
0010
1000
0000
0011
1000
0101
0000
0010
0100
,
1000
0100
0010
0000
0001
1000
0001
1000
0001
0000
1000
0001
0000
0001
0000
0001
,
1000
0001
1000
0001
1010
0000
0100
0010
1000
0000
0011
1000
0110
0000
0001
0010
,
0100
1000
0100
0000
0011
0000
0100
0010
1000
0000
0011
1100
0011
0000
1010
0001
,
0110
1000
0101
0000
1010
0000
0001
0010
0100
0000
0010
0100
1001
0000
0010
0100
,
1000
0001
0100
0000
0010
0000
1000
0001
0100
0000
0010
1000
0101
0000
0010
1001
,
0100
0010
1100
0000
0011
0000
0100
1000
0001
0000
1010
0101
1010
0000
0001
1100
,
0001
0010
1100
0000
0011
0000
0100
1000
0011
0000
1100
0010
0101
0000
1010
0001
,
1100
0010
0101
0000
1010
0000
0100
0010
0001
0000
0010
0100
1000
0000
0100
0010
,
1000
0001
0100
0000
0011
0000
1000
0011
0100
0000
0101
0010
1100
0000
0001
1010
,
0100
0010
0101
0000
0001
0010
0100
1000
0001
0010
0100
1000
0001
0010
0100
1000
,
0001
0010
0100
1000
0001
0010
0100
1000
0001
0010
0100
1000
0010
0100
0010
1000
,
0100
0010
0001
1000
0100
0010
0001
1000
0100
0010
0001
1000
0100
0010
0001
1000
,
0100
0000
0000
0010
0000
0000
0001
0000
0000
1000
0000
0000
0100
0000
0000
0010
0000
0000
0001
0000
0000
1000
0000
0000
0100
0000
0000
0010
0000
0000
0001
0000
0000
1000
0000
0000
0100
0000
0000
0000
0010
0000
0000
0000
0001
0000
0000
0000
,
0100
0000
0010
0000
1000
0100
0001
0000
1100
0000
0000
0000
0010
0000
0100
0000
1010
0000
0000
0000
0101
0000
1000
0000
0010
0000
0000
0000
0101
0000
0010
0000
,
0100
1000
0101
0000
1000
0000
0011
1000
0101
0000
1010
0100
1000
0000
0110
1000
,
0101
0010
1100
0000
0110
0000
0011
0100
1010
0000
0101
0010
0100
0000
1010
0100
,
0011
0100
0010
0000
1001
0110
1001
0110
1001
0100
0011
1100
0001
1100
0010
1100
,
0011
0100
0010
0100
1001
0000
0000
0000
0000
0000
0000
0000
0000
0000
0000
0000
;
