#TITLE:A Parenthesis in Eternity;
#SUBTITLE:Dark Matter Dimensions (2009);
#ARTIST:Scar Symmetry;
#TITLETRANSLIT:;
#SUBTITLETRANSLIT:;
#ARTISTTRANSLIT:;
#CREDIT:;
#BANNER:parenthesis-BN.JPG;
#BACKGROUND:parenthesis-BG.jpg;
#LYRICSPATH:;
#CDTITLE:MetzgerSM-cdtitle.png;
#MUSIC:Scar Symmetry - A Parenthesis In Ethernity.mp3;
#OFFSET:-0.248;
#SAMPLESTART:127.300;
#SAMPLELENGTH:20.160;
#SELECTABLE:YES;
#BPMS:0.000=89.460,1.667=93.500,2.333=94.500,5.000=94.500,6.000=94.500,9.000=111.000,11.000=89.460,12.667=93.500,13.333=94.500,19.333=94.500,20.000=106.800,22.000=89.460,23.667=93.500,24.333=94.500,31.000=111.500,33.000=89.460,34.667=93.500,35.333=94.500,42.000=111.000,44.000=89.460,45.667=93.500,46.333=94.500,53.000=111.000,55.000=89.460,56.667=93.500,57.333=94.500,64.000=123.456,68.000=180.200,229.000=168.100,232.250=189.300,233.500=180.200,528.000=130.500,529.000=89.460,529.667=93.500,530.333=94.500,537.000=111.000,539.000=89.460,540.667=93.500,541.333=94.500,548.000=85.500,550.500=88.000,552.000=180.200,720.000=72.500,720.750=44.500;
#STOPS:;
#BGCHANGES:;
// cache tags:
#FIRSTBEAT:0.000;
#LASTBEAT:722.250;
#SONGFILENAME:Songs/Astronomic Metal Collection 2/(MetzgerSM) A Parenthesis In Eternity/Scar Symmetry - A Parenthesis In Ethernity.sm;
#HASMUSIC:1;
#HASBANNER:1;
#MUSICLENGTH:282.749;
// end cache tags

//---------------dance-single - Blank----------------
#NOTES:
     dance-single:
     Blank:
     Challenge:
     13:
     1.000,1.000,1.000,0.325,1.000,2069.000,378.000,92.000,0.000,72.000:

1000
0100
0010
0001
0000
0010
0100
1000
0000
0100
0001
0100
,
0010
0100
0001
0100
1000
0100
0010
0001
0000
0010
0100
1000
,
0000
0100
0010
0001
0000
0000
0000
0000
0000
0001
0010
0100
,
1000
0000
0100
0010
0001
0000
0010
1000
0010
0100
0010
1000
,
0010
0001
0010
0100
1000
0000
0100
0010
0001
0000
0010
0100
,
1000
0000
0000
0000
0000
0000
0100
0001
1000
0010
0000
1000
,
0001
0100
0000
0001
0010
0001
1000
0001
0010
0001
0100
0001
,
1000
0010
0000
1000
0001
0100
0000
0001
1000
0010
0000
0000
,
0000
0000
0000
0010
1000
0001
0100
0000
0001
1000
0010
0000
,
1000
0100
1000
0001
1000
0100
1000
0010
1000
0001
0100
0000
,
0001
1000
0010
0000
1000
0001
0100
0000
0000
0000
0000
0000
,
0100
0001
1000
0010
0000
1000
0001
0100
0000
0001
0010
0001
,
1000
0001
0010
0001
0100
0001
1000
0010
0000
1000
0001
0100
,
0000
0001
1000
0010
0000
0000
0000
0000
0000
1000
0100
0010
,
0001
0000
0010
0100
1000
0000
0100
0001
0100
0010
0100
0001
,
0100
1000
0100
0010
0001
0000
0010
0100
1000
0000
0100
0010
,
0002
0000
0000
0000
0000
0000
0000
0000
0000
0000
0000
0000
0000
0000
0000
0003
,
0011
1100
0010
1000
0222
0000
0000
0000
0000
0000
0000
0000
0000
0000
0000
0000
,
0000
0000
0000
0000
0000
0000
0000
0000
0000
0300
1030
0000
0103
0000
0010
0000
,
0001
0100
0010
0002
0000
0203
0302
0000
,
0103
2000
0000
0000
0000
0000
0000
0000
,
0000
0000
3000
0000
0012
0000
0203
0000
0000
0000
0302
0023
2030
0000
0000
0000
,
3100
0010
0002
0000
0013
0100
2000
0000
,
3010
0100
0001
0002
0000
0203
0302
0000
,
0013
0100
1020
0000
0000
0000
0000
0000
0000
0000
0000
0000
0000
0000
0000
0000
,
0000
0000
0030
1100
0000
0001
1100
0000
,
0010
1100
0000
0000
1010
0100
0000
1010
,
0100
1001
0101
0011
0000
1000
0011
0000
,
0010
0110
0000
0000
0110
0010
0000
0110
,
0010
1010
1000
1101
0000
0010
1100
0000
,
1000
1100
0000
0000
1010
0001
0000
1010
,
0001
0110
0101
0011
0000
1000
0011
0000
,
0100
0000
1101
0000
0000
0000
0000
0000
1001
0100
0011
1100
0010
0100
0011
1100
,
0010
0001
1100
0011
1100
0010
1101
0010
0100
1000
0101
0010
1101
0010
0001
0100
,
1000
0010
1101
0010
0001
0100
1000
0010
1101
0010
1100
0001
0100
0010
1101
0010
,
1000
0010
1101
0010
0101
1000
0111
1000
0010
0001
0110
1000
0111
1000
0001
0010
,
0100
1000
0111
1000
0010
0001
0010
0100
1011
0100
1001
0010
0100
1000
0111
1000
,
0001
0100
1011
0100
1010
0001
1110
0001
0100
1000
0110
0001
1110
0001
1000
0100
,
0010
0001
1110
0001
1000
0100
0010
0001
1110
0001
1100
0010
0100
0001
1110
0001
,
0100
0001
1110
0001
0110
1000
0111
1000
0010
0001
0110
1000
0111
1000
0010
0100
,
1000
0100
1011
0100
0001
0010
1000
0100
0010
0100
0011
1100
0010
1000
0001
1000
,
0001
0100
0011
1100
0011
1100
0001
0010
0100
1000
0011
0100
1000
0100
1000
0010
,
0100
0010
1001
0010
0100
1000
0001
0010
0100
1000
0110
1000
0010
1000
0100
1000
,
0100
0010
0101
0010
0100
1000
0001
0010
0100
0010
1100
0010
1000
0100
1000
0010
,
0100
0010
1001
0010
0100
1000
0010
0100
1000
0100
1001
0010
1000
0100
1000
0010
,
1000
0010
0101
0010
0100
1000
0010
0100
1000
0100
1001
0010
1000
0100
1000
0010
,
0100
0010
1001
0010
0100
1000
0001
0010
1000
0100
1001
0010
1000
0100
1000
0010
,
0100
0010
0101
0010
0100
1000
0001
0010
0100
0010
1001
0100
1000
0010
1000
0010
,
0100
0010
0101
0010
0100
1000
0010
0100
1000
0100
1001
0010
0100
0010
0100
0010
,
0001
1000
0001
1000
0001
1000
0101
0010
0100
1000
0011
0100
1000
0100
1000
0010
,
0100
0010
1001
0010
0100
1000
0001
0010
0100
1000
0110
1000
0010
1000
0100
1000
,
0100
0010
0101
0010
0100
1000
0001
0010
0100
0010
1100
0010
1000
0100
1000
0010
,
0100
0010
1001
0010
0100
1000
0010
0100
1000
0100
1001
0010
1000
0100
1000
0010
,
1000
0010
0101
0010
0100
1000
0010
0100
1000
0100
1001
0010
1000
0100
1000
0010
,
0100
0010
1001
0010
0100
1000
0001
0010
1000
0100
1001
0010
1000
0100
1000
0010
,
0100
0010
0101
0010
0100
1000
0001
0010
0100
0010
1001
0100
1000
0010
1000
0010
,
0100
0010
0101
0010
0100
1000
0010
0100
1000
0100
1001
0010
0100
1000
0100
0010
,
0100
0000
0000
1000
0000
0000
0011
0000
0000
1100
0000
0000
0011
0000
0000
0000
0000
0000
0000
0000
0000
0000
0000
0000
1010
0000
0000
0000
0000
0000
0000
0000
0101
0000
0000
0000
0000
0000
0000
0000
1010
0000
0000
0000
0000
0000
0000
0000
,
0011
1100
0000
0000
1000
0100
0011
0000
0000
0000
0001
0000
0011
0000
0000
0000
,
0100
0011
0000
0000
0101
0010
0000
0101
,
0010
1001
1010
1100
0000
0001
1100
0000
,
0100
0110
0000
0000
0110
0100
0000
0110
,
0100
1000
0101
0010
0001
0100
1011
0000
0000
0000
0100
0000
0011
0000
0000
0000
,
0001
0011
0000
0000
0101
1000
0000
0101
,
1000
0110
1010
1100
0000
0001
1100
0000
,
0010
0000
0000
0000
0000
0000
0000
0000
1011
0000
0000
0000
0000
0000
0000
0000
0000
0000
0000
0000
0000
0000
0000
0000
0000
0000
0000
0000
0000
0000
0000
0000
1001
0000
0000
0000
0010
0000
0000
0000
0101
0000
0000
0000
0000
0000
0000
0000
1001
0000
0000
0000
0000
0000
0000
1100
0000
0011
0000
0000
0000
0000
0000
0000
,
1100
0000
0011
0000
1001
0000
1011
0100
0010
0001
1010
0100
1011
0100
1000
0010
,
0001
0100
1011
0100
1000
0010
0001
0100
1011
0100
0011
1000
0010
0100
1011
0100
,
0001
0100
1011
0100
1010
0001
1110
0001
0100
1000
0110
0001
1110
0001
1000
0100
,
0010
0001
1110
0001
0100
1000
0100
0010
1101
0010
1001
0100
0010
0001
1110
0001
,
1000
0010
1101
0010
0101
1000
0111
1000
0010
0001
0110
1000
0111
1000
0001
0010
,
0100
1000
0111
1000
0001
0010
0100
1000
0111
1000
0011
0100
0010
1000
0111
1000
,
0010
1000
0111
1000
0110
0001
1110
0001
0100
1000
0110
0001
1110
0001
0100
0010
,
0001
0010
1101
0010
0001
0100
1000
0100
0010
0100
0011
0100
1000
0010
0101
1010
,
0001
0000
0010
0000
1100
0011
0000
0000
1100
0000
0011
0000
1000
0000
0100
0000
0010
0000
0001
0000
1100
0000
0010
0000
0001
0000
0010
0000
0001
0000
0100
0000
,
0010
0100
1001
0100
0010
0001
1000
0100
0010
0001
0110
0001
0100
0001
0010
0001
,
0010
0100
1010
0100
0010
0001
1000
0100
0010
0100
0011
0100
0001
0010
0001
0100
,
0010
0100
1001
0100
0010
0001
0100
0010
0001
0010
1001
0100
0001
0010
0001
0100
,
0001
0100
1010
0100
0010
0001
0100
0010
0001
0010
1001
0100
0001
0010
0001
0100
,
0010
0100
1001
0100
0010
0001
1000
0100
0001
0010
1001
0100
0001
0010
0001
0100
,
0010
0100
1010
0100
0010
0001
1000
0100
0010
0100
1001
0010
0001
0100
0001
0100
,
0010
0100
1010
0100
0010
0001
0100
0010
1000
0001
0110
1000
0001
1000
0001
1000
,
0001
0010
0100
0010
0100
0010
1100
0001
1000
0010
0101
1000
0010
1000
0010
0001
,
1000
0001
0110
0001
1000
0010
0100
0001
1000
0010
1001
0010
0001
0010
1000
0010
,
1000
0001
1100
0001
1000
0010
0100
0001
1000
0001
1010
0001
0010
1000
0010
0001
,
1000
0001
0110
0001
1000
0010
0001
1000
0010
1000
0110
0001
0010
1000
0010
0001
,
0010
0001
1100
0001
1000
0010
0001
1000
0010
1000
0110
0001
0010
1000
0010
0001
,
1000
0001
0110
0001
1000
0010
0100
0001
0010
1000
0110
0001
0010
1000
0010
0001
,
1000
0001
1100
0001
1000
0010
0100
0001
1000
0001
0110
1000
0010
0001
0010
0001
,
1000
0001
1100
0001
0100
1000
0010
0100
1000
0100
1000
0010
0100
1000
0100
0010
,
0100
0000
0000
1000
0000
0000
0101
0000
0000
1010
0000
0000
0101
0000
0000
1010
0000
0000
0100
0000
0010
0000
0001
0000
0100
0000
0010
0000
0001
0000
0100
0000
0010
0000
0001
0000
0100
0000
0010
0000
0001
0000
0100
0000
0010
0000
0001
0000
,
0100
0010
0001
0100
0010
0001
0100
0010
0001
0100
1000
0001
0100
1000
0001
0100
1000
0001
0100
1000
0001
0100
1000
0001
,
0100
1000
0001
0100
1000
0001
0100
1000
0001
0100
1000
0010
0100
1000
0010
0100
1000
0010
0100
1000
0010
0100
1000
0010
,
0100
1000
0010
0100
1000
0010
0100
1000
0010
0100
0001
0100
0001
0100
0001
0100
0001
0010
1000
0010
1000
0010
0100
0010
,
0100
0000
0010
0000
0100
0000
0010
0000
0001
0000
1000
0000
0001
0000
1000
0000
0001
0000
0100
0000
0000
0010
0000
0000
0100
0000
0000
1000
0000
0000
0100
0000
0000
0010
0000
0000
1000
0000
0000
0100
0000
0000
1000
0000
0000
0010
0000
0000
,
0100
1000
0001
0010
0100
1000
0010
0100
0010
0100
1000
0010
0100
1000
0100
0010
,
1000
0100
0020
0000
0000
0000
0032
0000
0000
0000
0000
0000
0000
0000
0000
0000
,
0000
2003
3200
0000
0000
0000
0000
0000
,
0000
0000
0000
2300
0000
0000
0000
3020
,
0000
0000
0000
0000
0000
0000
0000
0000
0000
0000
0000
0000
0000
0000
0000
0230
0000
0000
0000
0000
0000
0000
0000
0000
0000
0000
0000
0000
0000
0000
0000
0000
0000
0000
0000
0000
0000
0000
0000
0000
0000
0000
0000
0000
0000
0000
0000
0000
0000
0000
0000
0000
0000
0000
0000
0000
0000
0000
0302
0000
0000
0000
0000
0000
,
0000
0023
0000
0000
,
0230
0000
0000
0000
0000
0000
0000
0000
2300
0000
0000
0000
0000
0000
0000
0000
3200
0000
0000
0000
0000
0000
0000
0000
0000
0000
0000
0000
0000
0000
0000
0000
0000
0000
0000
0000
0000
0000
0000
0000
0000
0302
0000
0000
0000
0000
0000
0000
0203
0000
0000
0000
0000
0000
0000
0000
0000
0000
0000
0000
0300
0000
0000
0000
,
0020
0000
0000
0000
0000
0000
0000
0000
0000
0000
0000
0000
0000
0000
0000
0000
0000
0000
0000
0000
0000
0000
0000
0000
0030
0000
2000
0000
0000
0000
0000
0000
0000
0000
0000
0000
0000
0000
0000
0000
0000
0000
0000
0000
0000
0000
0000
0000
0000
0000
0000
0000
0000
3000
0000
0000
0020
0000
0000
0000
0000
0000
0000
0000
,
0000
0000
0000
0000
0000
0000
0000
0000
0000
0000
0000
0000
0000
0000
0000
0000
0000
0230
0000
0000
0000
0000
0000
0000
0000
0000
0000
0000
0000
0000
0000
0000
0000
0000
0000
0000
0000
0000
0000
0000
0000
0000
0000
0000
0000
0000
0000
0000
0000
0000
0000
0300
0000
0000
0000
0000
0000
0000
0000
0020
0032
0000
0000
0000
,
0000
0000
0000
0000
0000
0000
0000
0003
0020
0000
0000
0000
0000
0000
0000
0000
0000
0000
0000
0000
0000
0000
0000
0000
0000
0000
0000
0000
0000
0000
0000
0000
,
0000
2030
3200
0000
0000
0000
0000
0000
,
0000
0000
0300
0011
1100
0011
1100
1000
,
1000
1100
1000
1000
1000
1010
0101
0001
,
0001
0101
0001
1001
0110
1001
0110
0010
,
0010
1010
0010
0010
0010
1010
0110
0100
,
0100
0000
0101
0000
1001
0100
0011
0000
0011
0000
0011
0000
1010
0000
1000
0000
,
1000
1010
1000
1000
1000
1100
1010
1001
,
0001
0000
0001
0000
1001
0000
1001
0001
0001
0000
0001
0001
1001
0000
1100
0000
,
0110
0101
0110
0002
2003
3002
2003
0000
,
0000
0010
0000
3011
1100
0011
1100
0100
,
0100
1100
0100
0100
0100
0110
1001
0001
,
0001
1001
0001
0101
1010
0101
1010
0010
,
0010
0110
0010
0010
0010
0110
1010
1000
,
1000
0000
1001
0000
0101
1000
0011
0000
0011
0000
0011
0000
0110
0000
0100
0000
,
0100
0110
0100
0100
0100
1100
0110
0011
,
0001
0000
0001
0000
0001
0000
0101
0000
1001
0001
0101
0000
1001
0001
0101
0000
,
1100
1010
1001
0201
0320
0230
0320
0000
,
0130
0000
0000
0000
0001
0000
0000
0000
0010
0000
0000
0000
1000
0000
0000
0000
0001
0000
0000
0000
0010
0000
0000
0000
0100
0000
0000
0000
1000
0000
0000
0000
0001
0000
0000
0000
0010
0000
0000
0000
0100
0000
0000
0000
1000
0000
0000
0000
0001
0000
0000
0000
0010
0000
0000
0000
0200
0300
0000
0000
0020
0030
0000
0000
,
0002
0003
0000
0000
2000
3000
0000
0000
0200
0300
0000
0000
0020
0030
0000
0000
0002
0000
0000
0000
0000
0000
0000
0000
0000
0000
0000
0000
0000
0000
0000
0000
0000
0000
0000
0000
0000
0000
0000
0000
0000
0000
0003
0002
0000
0000
0000
0000
0000
0000
0000
0000
0000
0000
0000
0000
0000
0000
0000
0000
0000
0000
0000
0000
,
0000
0203
0000
0000
0000
2300
0000
0000
0000
3020
0000
0000
0000
0000
0000
0000
0000
0000
0000
0000
2030
0000
3000
0000
2000
0000
0000
0000
0000
0000
0000
0000
,
0000
0000
0000
0000
0000
0000
0000
0000
0000
0000
0000
0000
0000
0000
0000
0000
3000
0000
0000
0000
0000
0000
0000
0000
0002
0000
0000
0000
0000
0000
0000
0000
0000
0000
0000
0000
0000
0000
0000
0000
0000
0000
0000
0000
0000
0000
0000
0000
0000
0000
0000
0000
0000
0000
0000
0003
0002
0000
0000
0000
0000
0000
0000
0000
,
0023
0000
0000
0000
0230
0000
0000
0000
0302
0000
0000
0000
0000
0000
0000
0000
0000
0023
0000
0000
0000
0000
0000
0000
0030
2000
0000
0000
0000
0000
0000
0000
,
0000
0000
3200
0000
0000
0000
0000
0000
0000
0000
0320
0000
0000
0000
0000
0000
0000
0000
0032
0000
0000
0000
0000
0000
0000
0000
0000
0000
0000
0000
0000
0000
0000
0000
0000
0000
0000
0000
0000
0000
0003
0000
0000
0000
0000
0000
0000
0000
0000
0000
0000
0020
0000
0000
0000
0000
0000
0000
0000
0000
0000
0000
0000
0000
,
0000
0000
0000
0000
0000
0000
0000
0000
0000
0000
0000
0230
0000
0000
0000
0000
0000
0000
0300
0200
0000
0000
0000
0000
0000
0000
0000
0000
0000
0000
0000
0300
0001
0000
0000
0000
0000
0000
0000
0000
0010
0000
0000
0000
0100
0000
0000
0000
1000
0000
0000
0000
0000
0000
0000
0000
0010
0000
0000
0000
0100
0000
0000
0000
,
1000
0100
0010
0100
0010
0001
1000
0100
1000
0100
0010
0001
0100
0010
0001
1000
,
0100
0010
0100
0010
0001
1000
0100
0010
0001
0100
0010
0001
1000
0100
0010
0100
,
0001
0100
0010
0001
0010
0100
0010
0001
1000
0100
0010
0100
0021
0000
0000
0000
,
0000
0000
0000
0230
0000
0000
2301
0000
0000
0000
0010
0000
0100
0000
0010
0000
0000
0000
0100
0000
0001
0000
0100
0000
,
0010
0100
3001
0100
1000
0100
0010
0001
0000
0010
0100
1000
,
0000
0100
0010
0001
0000
0000
0000
0000
0000
0001
0010
0100
,
1000
0000
0100
0010
0001
0000
0010
1000
0010
0100
0010
1000
,
0010
0001
0010
0100
1000
0000
0100
0010
0001
0000
0010
0100
,
2002
0000
0000
0000
0000
0220
0000
3333
,
0111
1000
0001
0100
0011
1000
0111
1000
0010
0001
0100
1000
0111
1000
0010
0001
,
0100
1000
0111
1000
0101
0010
0001
1000
0111
1000
0100
1000
0111
1000
0110
0001
,
1110
0001
1000
0010
1100
0001
1110
0001
1000
0010
1000
0001
1110
0001
1000
0010
,
1000
0001
1110
0001
0110
1000
0001
0010
1101
0010
0100
1000
0111
1000
0011
0100
,
1011
0100
0010
1000
0011
0100
1011
0100
0010
1000
0001
0100
1011
0100
1000
0010
,
1000
0100
1011
0100
0011
1000
0001
0100
1011
0100
0001
0100
1011
0100
1001
0010
,
1101
0010
0001
0100
1001
0010
1101
0010
1000
0001
0100
0001
1110
0001
0010
1000
,
0100
0000
0001
0000
1000
0000
0001
0000
1010
0000
0001
0000
0100
0000
1000
0000
0011
0000
0000
0000
0000
0000
0000
0000
1100
0011
0000
0000
1100
0000
0010
0000
,
0001
0010
1000
0100
0011
1000
0100
1000
0100
0010
1000
0010
0101
0010
1000
0100
,
0001
0010
1000
0100
1010
0100
0010
0100
1000
0100
1000
0010
1001
0010
1000
0100
,
0001
0010
1000
0010
1100
0010
0100
1000
0100
0010
1000
0010
0101
0010
1000
0100
,
0010
1000
0100
1000
0101
0010
0100
1000
0100
0010
0100
0010
1001
0010
1000
0100
,
0010
1000
0100
1000
0101
0010
0100
1000
0100
0010
1000
0010
0101
0010
1000
0100
,
0001
0010
0100
1000
0101
0010
0100
1000
0100
0010
1000
0010
1001
0010
1000
0100
,
0001
0010
1000
0010
0101
1000
0100
0010
0100
0010
1000
0010
1100
0001
1000
0100
,
0010
0001
1000
0100
0011
1100
0011
1100
0011
0100
0011
1100
0010
0100
0010
0100
,
1001
0010
1000
0100
0011
1000
0100
1000
0100
0010
1000
0010
0101
0010
1000
0100
,
0001
0010
1000
0100
1010
0100
0010
0100
1000
0100
1000
0010
1001
0010
1000
0100
,
0001
0010
1000
0010
1100
0010
0100
1000
0100
0010
1000
0010
0101
0010
1000
0100
,
0010
1000
0100
1000
0101
0010
0100
1000
0100
0010
0100
0010
1001
0010
1000
0100
,
0010
1000
0100
1000
0101
0010
0100
1000
0100
0010
1000
0010
0101
0010
1000
0100
,
0001
0010
0100
1000
0101
0010
0100
1000
0100
0010
1000
0010
1001
0010
1000
0100
,
0001
0010
1000
0010
0101
1000
0100
0010
0100
0010
1000
0010
1001
0010
1000
0100
,
0010
1000
0100
1000
0101
0010
1000
0100
0001
0010
1000
0010
0101
1000
0100
0000
,
0011
0000
0000
0000
0000
0000
0000
0000
0000
0000
0000
0000
0000
0000
0000
0000
0000
0000
0010
0000
0000
0100
0000
0000
1000
0000
0000
0000
0000
0000
0000
0000
1000
0000
0000
0000
0000
0000
0000
0000
1000
0000
0000
0000
0000
0000
0000
0000
,
0000
0000
0000
0001
0000
0000
0010
0000
0000
0000
0100
0000
0000
1000
0000
0000
0100
0000
0000
0000
0010
0000
0000
0000
0000
0100
0000
0000
0000
0000
0000
0010
0000
0000
0000
0000
0100
0000
0000
0000
0010
0000
0000
0000
0000
0100
0000
0000
0000
0000
0000
0010
0000
0000
0000
0000
0100
0000
0000
0000
0000
0010
0000
0000
,
1001
0000
0000
0000
0000
0000
0000
0000
0000
0000
0000
0000
0000
0000
0000
0000
0000
0000
0000
0000
0000
0000
0000
0000
1000
0000
0000
0000
0100
0000
0000
0000
0000
0020
0000
0000
0030
0000
0000
0000
0000
0000
0000
0000
0000
0000
0020
0000
0000
0030
0000
0001
0000
0000
0000
0010
0000
0000
0000
0100
0000
0000
0000
2000
,
0000
0000
3000
0000
0000
0000
0000
0000
0000
0000
0000
0000
2000
0000
0000
3000
0000
0000
0000
0000
0000
0000
0000
0000
0000
0000
0000
0000
0100
0000
0000
0000
0010
0000
0000
0001
0000
0000
1000
0000
0000
0000
0100
0000
0000
0000
0000
0000
0010
0000
0000
0000
0001
0000
0000
0000
0000
0010
0000
0000
0000
0000
0000
0000
,
1001
0000
0000
0000
0000
0000
0000
0000
0000
0000
0000
0000
0000
0000
0000
0000
1001
0000
0000
0000
0000
0000
0000
0000
0000
0000
0000
0000
0000
0000
0000
0000
0001
0000
0010
0000
0000
0000
0100
0000
1000
0000
0000
0000
0000
0000
0000
0000
0100
0000
0010
0000
0000
0000
0000
0100
0000
0000
1000
0000
0000
0001
0000
0010
,
0000
0000
0000
0100
0000
0000
0000
0000
0000
1000
0000
0000
0000
0000
0000
0000
0000
0000
0010
0000
0000
0000
0000
0000
0001
0000
0000
0000
0000
0000
0100
0000
0000
0000
0000
0000
0000
0000
0000
0000
0000
0000
0010
0000
0000
0000
0000
0000
0000
0000
0000
0000
0000
0000
0100
0000
0000
0000
0000
0000
0001
0000
0000
0000
0000
0000
1000
0000
0000
0000
0000
0000
0000
0000
0000
0000
0000
0000
0010
0000
0000
0000
0000
0000
0000
0000
0000
0100
0000
0000
0000
0000
0000
0000
0000
0000
0010
0000
0000
0000
0000
0000
0000
0000
0000
0100
0000
0000
0000
0000
0000
0000
0000
0000
0010
0000
0000
0000
0000
0000
0001
0000
0000
0000
0000
0000
0000
0000
0000
1000
0000
0000
0000
0000
0000
0000
0000
0000
0100
0000
0000
0000
0000
0000
0000
0000
0000
0000
0000
0000
0010
0000
0000
0000
0000
0000
0000
0000
0000
0000
0000
0000
0000
0000
0000
0100
0000
0000
0000
0000
0000
0000
0000
0000
0010
0000
0000
0000
0000
0000
0000
0000
0000
0000
0100
0000
0000
0000
0000
0000
0000
0000
,
0011
0000
0000
0000
0101
0000
0000
1010
0001
0000
0010
0000
1000
0100
0010
0001
,
0100
0000
0010
0000
1000
0000
0000
0000
0100
0000
0000
0000
0000
0000
0000
0001
0010
0000
0100
1000
0000
0001
0010
0000
0000
0100
0000
1000
0010
0000
0100
0000
,
0011
0000
0000
0010
1100
0000
0010
0000
0000
0100
0011
0000
1000
0000
0000
0100
,
1001
0000
0010
0000
0000
0001
0110
0000
1000
0100
0010
0100
0010
0100
0010
0100
,
0011
0000
0000
0000
0000
0000
0000
0000
0000
0000
0000
0000
0000
0000
0000
0000
0001
0010
0000
1000
0100
0000
0000
0000
0010
0000
0001
0010
0000
1000
0100
0010
,
0001
0000
0000
0000
1000
0000
0000
0000
0100
0000
0000
0010
0000
0000
0001
0000
0000
1000
0000
0000
0000
0100
0000
0010
0000
0000
0000
0000
0001
0000
0100
0000
1000
0000
0000
0000
0000
0001
0000
0000
0010
0000
0000
0000
0000
0100
0000
0000
0000
1000
0000
0000
0001
0000
0010
0000
0000
0100
0000
0000
1000
0000
0000
0000
,
0010
0100
0010
1000
0001
0100
0010
0100
0001
1000
0001
0100
0010
0100
1000
0001
,
1000
0010
0100
0001
1000
0010
0100
0001
0010
0100
0010
1000
0011
1100
0011
1100
,
0011
0000
0000
0000
0000
0000
0000
0000
0000
0000
0000
0000
0001
0000
0000
0010
0000
0000
0100
0000
0000
1000
0000
0000
0100
0000
0000
0010
0000
0000
0001
0000
0000
0010
0000
0000
0100
0000
0000
0000
1000
0000
0000
0000
0100
0000
0000
0000
,
0010
0000
0000
0001
0000
0010
0000
0000
0100
0000
0000
0000
1000
0000
0000
0000
0100
0000
0000
0000
0010
0000
0000
0000
0001
0000
0010
0000
0100
0000
0000
0000
1000
0000
0000
0000
0100
0000
0010
0000
0000
0001
0000
0000
1000
0000
0000
0000
,
0110
0000
0000
0000
0000
0000
0000
0000
0000
0000
0000
0000
0000
0000
0000
0000
0000
0000
0000
0000
0000
0000
0000
0000
0000
0000
0000
0000
0000
0000
0000
0000
0000
0000
0000
0000
0000
0000
0000
0000
0000
0000
0000
0000
0000
0000
0000
0000
1000
0000
0000
0000
0000
0000
0010
0000
0000
0000
0000
0000
0000
0100
0000
0000
,
0000
0000
0000
0000
0000
0000
0000
0000
0100
0000
0000
0000
0000
0000
0001
0000
0000
0000
0000
0000
0000
0010
0000
0000
0000
0000
0000
0000
0100
0000
0000
0000
0000
0010
0000
0000
0000
0000
0000
0001
0000
0000
0000
0000
0000
0000
1000
0000
0000
0100
0000
0000
0000
0000
0000
0000
0010
0000
0000
0000
0000
0000
0000
0000
,
2000
0000
3000
0000
0200
0000
0000
0300
0020
0000
0000
0030
0002
0000
0000
0003
0002
0000
0000
0000
0000
0000
0000
0000
0000
0000
0000
0000
0000
0000
0000
0000
0000
0000
0000
0000
0003
0000
0000
0000
0000
0000
0000
0000
0000
0000
0000
0000
0000
0000
0000
0000
0000
0000
0000
0000
0000
0000
0000
0000
0000
0000
0000
0000
;

//---------------dance-single - Copied from Blank----------------
#NOTES:
     dance-single:
     Copied from Blank:
     Hard:
     11:
     1.000,1.000,0.421,1.000,1.000,1946.000,119.000,947.000,0.000,8.000:
1000
0100
0010
0001
0000
0010
0100
1000
0000
0100
0001
0100
,
0010
0100
0001
0100
1000
0100
0010
0001
0000
0010
0100
1000
,
0000
0100
0010
0001
0000
0000
0000
0000
0000
1000
0100
0010
,
0001
0000
0010
0100
1000
0000
0100
0001
0100
0010
0100
0001
,
0100
1000
0100
0010
0001
0000
0010
0100
1000
0000
0100
0010
,
0001
0000
0000
0000
0000
0000
1000
0100
0010
0001
0000
0010
,
0100
1000
0000
0100
0001
0100
0010
0100
0001
0100
1000
0100
,
0010
0001
0000
0010
0100
1000
0000
0100
0010
0001
0000
0000
,
0000
0000
0000
1000
0100
0010
0001
0000
0010
0100
1000
0000
,
0100
0001
0100
0010
0100
0001
0100
1000
0100
0010
0001
0000
,
0010
0100
1000
0000
0100
0010
0001
0000
0000
0000
0000
0000
,
1000
0100
0010
0001
0000
0010
0100
1000
0000
0100
0001
0100
,
0010
0100
0001
0100
1000
0100
0010
0001
0000
0010
0100
1000
,
0000
0100
0010
0001
0000
0000
0000
0000
0000
1000
0100
0010
,
0001
0000
0010
0100
1000
0000
0100
0001
0100
0010
0100
0001
,
0100
1000
0100
0010
0001
0000
0010
0100
1000
0000
0100
0010
,
0002
0000
0000
0000
0000
0000
0000
0000
0000
0000
0000
0000
0000
0000
0000
0003
,
0010
0100
1000
0100
0020
0000
0000
0000
0000
0000
0000
0000
0000
0000
0000
0000
,
0000
0000
0000
0000
0000
1030
0100
0010
,
0001
0100
0010
0002
0000
0203
0302
0000
,
0103
2000
0000
0000
0000
0000
0000
0000
,
0000
0000
3000
0000
0012
0000
0203
0000
0000
0000
0302
0023
2030
0000
0000
0000
,
3100
0010
0002
0000
0013
0100
2000
0000
,
3010
0100
0001
0002
0000
0203
0302
0000
,
0013
0100
0020
0000
0000
0000
0000
0000
0000
0000
0000
0000
0000
0000
0000
0000
,
0000
0000
0030
1100
0000
0001
1100
0000
,
0010
1100
0000
0000
1010
0100
0000
1010
,
0100
1001
0101
0011
0000
1000
0011
0000
,
0010
0110
0000
0000
0110
0010
0000
0110
,
0010
1010
1000
1100
0000
0010
1100
0000
,
1000
1100
0000
0000
1010
0001
0000
1010
,
0001
0110
0101
0011
0000
1000
0011
0000
,
0100
0000
0101
0000
0000
0000
0000
0000
1001
0100
0010
0100
0001
1000
0010
0100
,
1000
0000
0000
0000
0001
0000
0000
0000
0100
0000
0000
0000
0010
0000
0000
0000
0001
0000
0000
0000
0100
0000
0000
0000
2000
3000
0000
0000
0001
0000
0000
0000
0010
0000
0000
0000
0100
0000
0000
0000
1000
0000
0000
0000
0010
0000
0000
0000
2000
3000
0000
0000
0010
0000
0000
0000
0001
0000
0000
0000
1000
0000
0000
0000
,
0001
0000
0000
0000
0010
0000
0000
0000
2000
3000
0000
0000
0100
0000
0000
0000
0001
0000
0000
0000
0010
0000
0000
0000
0001
0000
0000
0000
0100
0000
0000
0000
2000
3000
0000
0000
0010
0000
0000
0000
0100
0000
0000
0000
0010
0000
0000
0000
0100
0000
0000
0000
0001
0000
0000
0000
2000
3000
0000
0000
0001
0000
0000
0000
,
0100
0000
0000
0000
0010
0000
0000
0000
2000
3000
0000
0000
0010
0000
0000
0000
0200
0300
0000
0000
0010
0000
0000
0000
0002
0003
0000
0000
1000
0000
0000
0000
0100
0000
0000
0000
1000
0000
0000
0000
0100
0000
0000
0000
1000
0000
0000
0000
0002
0003
0000
0000
0100
0000
0000
0000
0010
0000
0000
0000
0100
0000
0000
0000
,
1000
0000
0000
0000
0100
0000
0000
0000
0002
0003
0000
0000
0010
0000
0000
0000
1000
0000
0000
0000
0100
0000
0000
0000
0010
0000
0000
0000
1000
0000
0000
0000
0200
0300
0000
0000
0001
0000
0000
0000
0010
0000
0000
0000
0100
0000
0000
0000
1000
0000
0000
0000
0010
0000
0000
0000
0200
0300
0000
0000
1000
0000
0000
0000
,
0010
0000
0000
0000
0100
0000
0000
0000
0020
0030
0000
0000
0001
0000
0000
0000
0200
0300
0000
0000
0010
0000
0000
0000
2000
3000
0000
0000
0001
0000
0000
0000
0010
0000
0000
0000
0001
0000
0000
0000
0010
0000
0000
0000
0100
0000
0000
0000
2000
3000
0000
0000
0100
0000
0000
0000
0010
0000
0000
0000
0001
0000
0000
0000
,
0010
0000
0000
0000
0100
0000
0000
0000
2000
3000
0000
0000
0100
0000
0000
0000
0010
0000
0000
0000
0001
0000
0000
0000
1000
0000
0000
0000
0010
0000
0000
0000
0200
0300
0000
0000
0001
0000
0000
0000
0010
0000
0000
0000
0001
0000
0000
0000
1000
0000
0000
0000
0010
0000
0000
0000
0200
0300
0000
0000
0001
0000
0000
0000
,
1000
0000
0000
0000
0010
0000
0000
0000
0200
0300
0000
0000
0001
0000
0000
0000
0020
0030
0000
0000
1000
0000
0000
0000
0002
0003
0000
0000
0010
0000
0000
0000
0100
0000
0000
0000
1000
0000
0000
0000
0100
0000
0000
0000
0010
0000
0000
0000
0002
0003
0000
0000
1000
0000
0000
0000
0001
0000
0000
0000
1000
0000
0000
0000
,
0010
0000
0000
0000
0100
0000
0000
0000
2000
0000
0000
3000
0010
0000
0000
0000
0100
0000
0000
0000
0001
0000
0000
0000
0010
0000
0000
0000
0100
0000
0000
0000
0010
0000
0000
0000
0100
0000
0000
0000
1000
0000
0000
0000
0100
0000
0000
0000
0010
0000
0000
0000
0100
0000
0000
0000
0010
0000
0000
0000
0001
0000
0000
0000
,
1000
0000
0000
0000
0010
0000
0000
0000
0100
0000
0000
0000
0010
0000
0000
0000
0100
0000
0000
0000
0010
0000
0000
0000
0002
0003
0000
0000
0020
0030
0000
0000
0200
0300
0000
0000
2000
3000
0000
0000
0020
0030
0000
0000
0200
0300
0000
0000
2000
3000
0000
0000
0200
0300
0000
0000
2000
3000
0000
0000
0020
0030
0000
0000
,
0200
0300
0000
0000
0020
0030
0000
0000
0002
0003
0000
0000
0020
0030
0000
0000
0200
0300
0000
0000
2000
3000
0000
0000
0002
0003
0000
0000
0020
0030
0000
0000
0200
0300
0000
0000
2000
3000
0000
0000
0200
0300
0000
0000
2000
3000
0000
0000
0020
0030
0000
0000
2000
3000
0000
0000
0200
0300
0000
0000
2000
3000
0000
0000
,
0200
0300
0000
0000
0020
0030
0000
0000
0002
0003
0000
0000
0020
0030
0000
0000
0200
0300
0000
0000
2000
3000
0000
0000
0002
0003
0000
0000
0020
0030
0000
0000
0200
0300
0000
0000
0020
0030
0000
0000
0200
0300
0000
0000
0020
0030
0000
0000
2000
3000
0000
0000
0200
0300
0000
0000
2000
3000
0000
0000
0020
0030
0000
0000
,
0200
0300
0000
0000
0020
0030
0000
0000
0002
0003
0000
0000
0020
0030
0000
0000
0200
0300
0000
0000
2000
3000
0000
0000
0020
0030
0000
0000
0200
0300
0000
0000
2000
3000
0000
0000
0200
0300
0000
0000
2000
3000
0000
0000
0020
0030
0000
0000
2000
3000
0000
0000
0200
0300
0000
0000
2000
3000
0000
0000
0020
0030
0000
0000
,
2000
3000
0000
0000
0020
0030
0000
0000
0002
0003
0000
0000
0020
0030
0000
0000
0200
0300
0000
0000
2000
3000
0000
0000
0020
0030
0000
0000
0200
0300
0000
0000
2000
3000
0000
0000
0200
0300
0000
0000
2000
3000
0000
0000
0020
0030
0000
0000
2000
3000
0000
0000
0200
0300
0000
0000
2000
3000
0000
0000
0020
0030
0000
0000
,
0200
0300
0000
0000
0020
0030
0000
0000
0002
0003
0000
0000
0020
0030
0000
0000
0200
0300
0000
0000
2000
3000
0000
0000
0002
0003
0000
0000
0020
0030
0000
0000
2000
3000
0000
0000
0200
0300
0000
0000
2000
3000
0000
0000
0020
0030
0000
0000
2000
3000
0000
0000
0200
0300
0000
0000
2000
3000
0000
0000
0020
0030
0000
0000
,
0200
0300
0000
0000
0020
0030
0000
0000
0002
0003
0000
0000
0020
0030
0000
0000
0200
0300
0000
0000
2000
3000
0000
0000
0002
0003
0000
0000
0020
0030
0000
0000
0200
0300
0000
0000
0020
0030
0000
0000
2000
3000
0000
0000
0200
0300
0000
0000
2000
3000
0000
0000
0020
0030
0000
0000
2000
3000
0000
0000
0020
0030
0000
0000
,
0200
0300
0000
0000
0020
0030
0000
0000
0002
0003
0000
0000
0020
0030
0000
0000
0200
0300
0000
0000
2000
3000
0000
0000
0020
0030
0000
0000
0200
0300
0000
0000
2000
3000
0000
0000
0200
0300
0000
0000
2000
3000
0000
0000
0020
0030
0000
0000
0001
0000
0000
0000
0010
0000
0000
0000
0100
0000
0000
0000
1000
0000
0000
0000
,
0001
0000
0000
0000
0010
0000
0000
0000
0100
0000
0000
0000
1000
0000
0000
0000
0001
0000
0000
0000
0100
0000
0000
0000
0002
0003
0000
0000
0020
0030
0000
0000
0200
0300
0000
0000
2000
3000
0000
0000
0020
0030
0000
0000
0200
0300
0000
0000
2000
3000
0000
0000
0200
0300
0000
0000
2000
3000
0000
0000
0020
0030
0000
0000
,
0200
0300
0000
0000
0020
0030
0000
0000
0002
0003
0000
0000
0020
0030
0000
0000
0200
0300
0000
0000
2000
3000
0000
0000
0002
0003
0000
0000
0020
0030
0000
0000
0200
0300
0000
0000
2000
3000
0000
0000
0200
0300
0000
0000
2000
3000
0000
0000
0020
0030
0000
0000
2000
3000
0000
0000
0200
0300
0000
0000
2000
3000
0000
0000
,
0200
0300
0000
0000
0020
0030
0000
0000
0002
0003
0000
0000
0020
0030
0000
0000
0200
0300
0000
0000
2000
3000
0000
0000
0002
0003
0000
0000
0020
0030
0000
0000
0200
0300
0000
0000
0020
0030
0000
0000
0200
0300
0000
0000
0020
0030
0000
0000
2000
3000
0000
0000
0200
0300
0000
0000
2000
3000
0000
0000
0020
0030
0000
0000
,
0200
0300
0000
0000
0020
0030
0000
0000
0002
0003
0000
0000
0020
0030
0000
0000
0200
0300
0000
0000
2000
3000
0000
0000
0020
0030
0000
0000
0200
0300
0000
0000
2000
3000
0000
0000
0200
0300
0000
0000
2000
3000
0000
0000
0020
0030
0000
0000
2000
3000
0000
0000
0200
0300
0000
0000
2000
3000
0000
0000
0020
0030
0000
0000
,
2000
3000
0000
0000
0020
0030
0000
0000
0002
0003
0000
0000
0020
0030
0000
0000
0200
0300
0000
0000
2000
3000
0000
0000
0020
0030
0000
0000
0200
0300
0000
0000
2000
3000
0000
0000
0200
0300
0000
0000
2000
3000
0000
0000
0020
0030
0000
0000
2000
3000
0000
0000
0200
0300
0000
0000
2000
3000
0000
0000
0020
0030
0000
0000
,
0200
0300
0000
0000
0020
0030
0000
0000
0002
0003
0000
0000
0020
0030
0000
0000
0200
0300
0000
0000
2000
3000
0000
0000
0002
0003
0000
0000
0020
0030
0000
0000
2000
3000
0000
0000
0200
0300
0000
0000
2000
3000
0000
0000
0020
0030
0000
0000
2000
3000
0000
0000
0200
0300
0000
0000
2000
3000
0000
0000
0020
0030
0000
0000
,
0200
0300
0000
0000
0020
0030
0000
0000
0002
0003
0000
0000
0020
0030
0000
0000
0200
0300
0000
0000
2000
3000
0000
0000
0002
0003
0000
0000
0020
0030
0000
0000
0200
0300
0000
0000
0020
0030
0000
0000
2000
3000
0000
0000
0200
0300
0000
0000
2000
3000
0000
0000
0020
0030
0000
0000
2000
3000
0000
0000
0020
0030
0000
0000
,
0200
0300
0000
0000
0020
0030
0000
0000
0002
0003
0000
0000
0020
0030
0000
0000
0200
0300
0000
0000
2000
3000
0000
0000
0020
0030
0000
0000
0200
0300
0000
0000
2000
3000
0000
0000
0200
0300
0000
0000
2000
3000
0000
0000
0020
0030
0000
0000
0200
0300
0000
0000
2000
3000
0000
0000
0200
0300
0000
0000
0020
0030
0000
0000
,
0200
0000
0000
0300
0000
0000
0000
0000
0000
0000
0000
0000
2000
0000
0000
3000
0000
0000
0000
0000
0000
0000
0000
0000
0010
0000
0000
0000
0000
0000
0000
0000
0000
0000
0000
0000
0100
0000
0000
0000
0000
0000
0000
0000
0000
0000
0000
0000
0010
0000
0000
0000
0000
0000
0000
0000
0000
0000
0000
0000
0000
0000
0000
0000
0000
0000
0000
0000
0000
0000
0000
0000
0000
0000
0000
0000
0000
0000
0000
0000
0000
0000
0000
0000
0000
0000
0000
0000
0000
0000
0000
0000
0000
0000
0000
0000
1010
0000
0000
0000
0000
0000
0000
0000
0000
0000
0000
0000
0000
0000
0000
0000
0000
0000
0000
0000
0000
0000
0000
0000
0000
0000
0000
0000
0000
0000
0000
0000
0101
0000
0000
0000
0000
0000
0000
0000
0000
0000
0000
0000
0000
0000
0000
0000
0000
0000
0000
0000
0000
0000
0000
0000
0000
0000
0000
0000
0000
0000
0000
0000
1010
0000
0000
0000
0000
0000
0000
0000
0000
0000
0000
0000
0000
0000
0000
0000
0000
0000
0000
0000
0000
0000
0000
0000
0000
0000
0000
0000
0000
0000
0000
0000
,
0010
0100
0000
0000
0001
0010
1100
0000
0000
0000
0001
0000
1100
0000
0000
0000
,
0010
1100
0000
0000
1010
0100
0000
1010
,
0100
1001
0101
0011
0000
1000
0011
0000
,
0010
0110
0000
0000
0110
0010
0000
0110
,
0010
0001
0010
0100
1000
0010
0101
0000
0000
0000
0010
0000
1100
0000
0000
0000
,
1000
1100
0000
0000
1010
0001
0000
1010
,
0001
0110
0101
0011
0000
1000
0011
0000
,
0100
0000
0000
0000
0000
0000
0000
0000
1001
0000
0000
0000
0000
0000
0000
0000
0000
0000
0000
0000
0000
0000
0000
0000
0000
0000
0000
0000
0000
0000
0000
0000
0001
0000
0000
0000
0010
0000
0000
0000
0100
0000
0000
0000
0000
0000
0000
0000
1000
0000
0000
0000
0000
0000
0000
0100
0000
0010
0000
0000
0000
0000
0000
0000
,
1000
0000
0000
0000
0000
0000
0000
0000
0001
0000
0000
0000
0000
0000
0000
0000
0010
0000
0000
0000
0000
0000
0000
0000
2000
3000
0000
0000
0100
0000
0000
0000
0010
0000
0000
0000
0100
0000
0000
0000
0010
0000
0000
0000
0001
0000
0000
0000
2000
3000
0000
0000
0100
0000
0000
0000
0010
0000
0000
0000
0001
0000
0000
0000
,
0010
0000
0000
0000
0100
0000
0000
0000
2000
3000
0000
0000
0010
0000
0000
0000
0001
0000
0000
0000
0010
0000
0000
0000
0001
0000
0000
0000
0010
0000
0000
0000
2000
3000
0000
0000
0100
0000
0000
0000
1000
0000
0000
0000
0100
0000
0000
0000
1000
0000
0000
0000
0010
0000
0000
0000
2000
3000
0000
0000
0001
0000
0000
0000
,
0100
0000
0000
0000
0001
0000
0000
0000
2000
3000
0000
0000
0001
0000
0000
0000
0200
0300
0000
0000
1000
0000
0000
0000
0002
0003
0000
0000
1000
0000
0000
0000
0010
0000
0000
0000
1000
0000
0000
0000
0100
0000
0000
0000
1000
0000
0000
0000
0002
0003
0000
0000
0010
0000
0000
0000
0100
0000
0000
0000
1000
0000
0000
0000
,
0100
0000
0000
0000
0010
0000
0000
0000
0002
0003
0000
0000
0100
0000
0000
0000
1000
0000
0000
0000
0100
0000
0000
0000
0001
0000
0000
0000
0010
0000
0000
0000
0200
0300
0000
0000
1000
0000
0000
0000
0010
0000
0000
0000
0001
0000
0000
0000
1000
0000
0000
0000
0001
0000
0000
0000
0200
0300
0000
0000
1000
0000
0000
0000
,
0010
0000
0000
0000
0100
0000
0000
0000
0020
0030
0000
0000
1000
0000
0000
0000
0200
0300
0000
0000
0001
0000
0000
0000
2000
3000
0000
0000
0100
0000
0000
0000
0010
0000
0000
0000
0001
0000
0000
0000
0010
0000
0000
0000
0100
0000
0000
0000
2000
3000
0000
0000
0001
0000
0000
0000
0010
0000
0000
0000
0001
0000
0000
0000
,
1000
0000
0000
0000
0100
0000
0000
0000
2000
3000
0000
0000
0100
0000
0000
0000
0010
0000
0000
0000
0001
0000
0000
0000
0010
0000
0000
0000
1000
0000
0000
0000
0200
0300
0000
0000
0001
0000
0000
0000
0010
0000
0000
0000
0100
0000
0000
0000
0010
0000
0000
0000
1000
0000
0000
0000
0200
0300
0000
0000
0010
0000
0000
0000
,
0001
0000
0000
0000
0010
0000
0000
0000
0200
0300
0000
0000
0001
0000
0000
0000
0020
0030
0000
0000
1000
0000
0000
0000
0002
0003
0000
0000
1000
0000
0000
0000
0100
0000
0000
0000
1000
0000
0000
0000
0100
0000
0000
0000
0010
0000
0000
0000
0002
0003
0000
0000
0100
0000
0000
0000
0001
0000
0000
0000
0100
0000
0000
0000
,
0010
0000
0000
0000
0100
0000
0000
0000
2000
0000
0000
3000
0010
0000
0000
0000
0100
0000
0000
0000
0010
0000
0000
0000
1000
0000
0000
0000
0100
0000
0000
0000
0001
0000
0000
0000
0010
0000
0000
0000
1000
0000
0000
0000
0001
0000
0000
0000
1000
0000
0000
0000
0010
0000
0000
0000
0100
0000
0000
0000
0010
0000
0000
0000
,
1000
0000
0000
0000
0001
0000
0000
0000
0100
0000
0010
0000
0000
0000
0000
0000
1000
0000
0000
0000
0100
0000
0000
0000
0002
0003
0000
0000
0020
0030
0000
0000
0200
0300
0000
0000
2000
3000
0000
0000
0020
0030
0000
0000
0200
0300
0000
0000
2000
3000
0000
0000
0200
0300
0000
0000
2000
3000
0000
0000
0020
0030
0000
0000
,
0200
0300
0000
0000
0020
0030
0000
0000
0002
0003
0000
0000
0020
0030
0000
0000
0200
0300
0000
0000
2000
3000
0000
0000
0002
0003
0000
0000
0020
0030
0000
0000
0200
0300
0000
0000
2000
3000
0000
0000
0200
0300
0000
0000
2000
3000
0000
0000
0020
0030
0000
0000
2000
3000
0000
0000
0200
0300
0000
0000
2000
3000
0000
0000
,
0200
0300
0000
0000
0020
0030
0000
0000
0002
0003
0000
0000
0020
0030
0000
0000
0200
0300
0000
0000
2000
3000
0000
0000
0002
0003
0000
0000
0020
0030
0000
0000
0200
0300
0000
0000
0020
0030
0000
0000
0200
0300
0000
0000
0020
0030
0000
0000
2000
3000
0000
0000
0200
0300
0000
0000
2000
3000
0000
0000
0020
0030
0000
0000
,
0200
0300
0000
0000
0020
0030
0000
0000
0002
0003
0000
0000
0020
0030
0000
0000
0200
0300
0000
0000
2000
3000
0000
0000
0020
0030
0000
0000
0200
0300
0000
0000
2000
3000
0000
0000
0200
0300
0000
0000
2000
3000
0000
0000
0020
0030
0000
0000
2000
3000
0000
0000
0200
0300
0000
0000
2000
3000
0000
0000
0020
0030
0000
0000
,
2000
3000
0000
0000
0020
0030
0000
0000
0002
0003
0000
0000
0020
0030
0000
0000
0200
0300
0000
0000
2000
3000
0000
0000
0020
0030
0000
0000
0200
0300
0000
0000
2000
3000
0000
0000
0200
0300
0000
0000
2000
3000
0000
0000
0020
0030
0000
0000
2000
3000
0000
0000
0200
0300
0000
0000
2000
3000
0000
0000
0020
0030
0000
0000
,
0200
0300
0000
0000
0020
0030
0000
0000
0002
0003
0000
0000
0020
0030
0000
0000
0200
0300
0000
0000
2000
3000
0000
0000
0002
0003
0000
0000
0020
0030
0000
0000
2000
3000
0000
0000
0200
0300
0000
0000
2000
3000
0000
0000
0020
0030
0000
0000
2000
3000
0000
0000
0200
0300
0000
0000
2000
3000
0000
0000
0020
0030
0000
0000
,
0200
0300
0000
0000
0020
0030
0000
0000
0002
0003
0000
0000
0020
0030
0000
0000
0200
0300
0000
0000
2000
3000
0000
0000
0002
0003
0000
0000
0020
0030
0000
0000
0200
0300
0000
0000
0020
0030
0000
0000
2000
3000
0000
0000
0200
0300
0000
0000
2000
3000
0000
0000
0020
0030
0000
0000
2000
3000
0000
0000
0020
0030
0000
0000
,
0200
0300
0000
0000
0020
0030
0000
0000
0002
0003
0000
0000
0020
0030
0000
0000
0200
0300
0000
0000
2000
3000
0000
0000
0020
0030
0000
0000
0200
0300
0000
0000
2000
3000
0000
0000
0200
0300
0000
0000
2000
3000
0000
0000
0020
0030
0000
0000
0001
0000
0000
0000
0010
0000
0000
0000
0100
0000
0000
0000
1000
0000
0000
0000
,
0001
0000
0000
0000
0010
0000
0000
0000
0100
0000
0000
0000
1000
0000
0000
0000
0001
0000
0000
0000
0100
0000
0000
0000
0002
0003
0000
0000
0020
0030
0000
0000
0200
0300
0000
0000
2000
3000
0000
0000
0020
0030
0000
0000
0200
0300
0000
0000
2000
3000
0000
0000
0200
0300
0000
0000
2000
3000
0000
0000
0020
0030
0000
0000
,
0200
0300
0000
0000
0020
0030
0000
0000
0002
0003
0000
0000
0020
0030
0000
0000
0200
0300
0000
0000
2000
3000
0000
0000
0002
0003
0000
0000
0020
0030
0000
0000
0200
0300
0000
0000
2000
3000
0000
0000
0200
0300
0000
0000
2000
3000
0000
0000
0020
0030
0000
0000
2000
3000
0000
0000
0200
0300
0000
0000
2000
3000
0000
0000
,
0200
0300
0000
0000
0020
0030
0000
0000
0002
0003
0000
0000
0020
0030
0000
0000
0200
0300
0000
0000
2000
3000
0000
0000
0002
0003
0000
0000
0020
0030
0000
0000
0200
0300
0000
0000
0020
0030
0000
0000
0200
0300
0000
0000
0020
0030
0000
0000
2000
3000
0000
0000
0200
0300
0000
0000
2000
3000
0000
0000
0020
0030
0000
0000
,
0200
0300
0000
0000
0020
0030
0000
0000
0002
0003
0000
0000
0020
0030
0000
0000
0200
0300
0000
0000
2000
3000
0000
0000
0020
0030
0000
0000
0200
0300
0000
0000
2000
3000
0000
0000
0200
0300
0000
0000
2000
3000
0000
0000
0020
0030
0000
0000
2000
3000
0000
0000
0200
0300
0000
0000
2000
3000
0000
0000
0020
0030
0000
0000
,
2000
3000
0000
0000
0020
0030
0000
0000
0002
0003
0000
0000
0020
0030
0000
0000
0200
0300
0000
0000
2000
3000
0000
0000
0020
0030
0000
0000
0200
0300
0000
0000
2000
3000
0000
0000
0200
0300
0000
0000
2000
3000
0000
0000
0020
0030
0000
0000
2000
3000
0000
0000
0200
0300
0000
0000
2000
3000
0000
0000
0020
0030
0000
0000
,
0200
0300
0000
0000
0020
0030
0000
0000
0002
0003
0000
0000
0020
0030
0000
0000
0200
0300
0000
0000
2000
3000
0000
0000
0002
0003
0000
0000
0020
0030
0000
0000
2000
3000
0000
0000
0200
0300
0000
0000
2000
3000
0000
0000
0020
0030
0000
0000
2000
3000
0000
0000
0200
0300
0000
0000
2000
3000
0000
0000
0020
0030
0000
0000
,
0200
0300
0000
0000
0020
0030
0000
0000
0002
0003
0000
0000
0020
0030
0000
0000
0200
0300
0000
0000
2000
3000
0000
0000
0002
0003
0000
0000
0020
0030
0000
0000
0200
0300
0000
0000
0020
0030
0000
0000
2000
3000
0000
0000
0200
0300
0000
0000
2000
3000
0000
0000
0020
0030
0000
0000
2000
3000
0000
0000
0020
0030
0000
0000
,
0200
0300
0000
0000
0020
0030
0000
0000
0002
0003
0000
0000
0020
0030
0000
0000
0200
0300
0000
0000
2000
3000
0000
0000
0020
0030
0000
0000
0200
0300
0000
0000
2000
3000
0000
0000
0200
0300
0000
0000
2000
3000
0000
0000
0020
0030
0000
0000
0200
0300
0000
0000
2000
3000
0000
0000
0200
0300
0000
0000
0020
0030
0000
0000
,
0200
0000
0000
0300
0000
0000
0000
0000
0000
0000
0000
0000
2000
0000
0000
3000
0000
0000
0000
0000
0000
0000
0000
0000
0001
0000
0000
0000
0000
0000
0000
0000
0000
0000
0000
0000
1000
0000
0000
0000
0000
0000
0000
0000
0000
0000
0000
0000
0001
0000
0000
0000
0000
0000
0000
0000
0000
0000
0000
0000
1000
0000
0000
0000
0000
0000
0000
0000
0000
0000
0000
0000
0010
0000
0000
0000
0000
0000
0000
0000
0001
0000
0000
0000
0000
0000
0000
0000
0010
0000
0000
0000
0000
0000
0000
0000
0001
0000
0000
0000
0000
0000
0000
0000
0010
0000
0000
0000
0000
0000
0000
0000
0001
0000
0000
0000
0000
0000
0000
0000
0010
0000
0000
0000
0000
0000
0000
0000
0001
0000
0000
0000
0000
0000
0000
0000
0010
0000
0000
0000
0000
0000
0000
0000
0001
0000
0000
0000
0000
0000
0000
0000
0010
0000
0000
0000
0000
0000
0000
0000
0001
0000
0000
0000
0000
0000
0000
0000
0010
0000
0000
0000
0000
0000
0000
0000
0001
0000
0000
0000
0000
0000
0000
0000
0010
0000
0000
0000
0000
0000
0000
0000
,
0001
0010
0001
0010
0001
0010
0100
0010
0100
0010
0100
0010
0100
0010
0100
0010
0100
0010
0100
0010
0100
0010
0100
0010
,
0100
0010
0100
0010
0100
0010
0100
1000
0001
1000
0001
1000
0001
1000
0001
1000
0001
1000
0001
1000
0001
1000
0001
1000
,
0001
1000
0001
1000
0001
1000
0010
0100
0010
0100
0010
0100
1000
0100
1000
0100
1000
0100
0001
0100
0001
0100
0001
0100
,
0001
0000
1000
0000
0001
0000
1000
0000
0001
0000
1000
0000
0001
0000
0010
0000
1000
0000
0100
0000
0000
0010
0000
0000
0100
0000
0000
1000
0000
0000
0100
0000
0000
0010
0000
0000
1000
0000
0000
0100
0000
0000
1000
0000
0000
0010
0000
0000
,
0100
1000
0001
0010
0100
1000
0010
0100
0010
0100
1000
0010
0100
1000
0100
0010
,
1000
0100
0020
0000
0000
0000
0032
0000
0000
0000
0000
0000
0000
0000
0000
0000
,
0000
2003
3200
0000
0000
0000
0000
0000
,
0000
0000
0000
2300
0000
0000
0000
3020
,
0000
0000
0000
0000
0000
0000
0000
0000
0000
0000
0000
0000
0000
0000
0000
0230
0000
0000
0000
0000
0000
0000
0000
0000
0000
0000
0000
0000
0000
0000
0000
0000
0000
0000
0000
0000
0000
0000
0000
0000
0000
0000
0000
0000
0000
0000
0000
0000
0000
0000
0000
0000
0000
0000
0000
0000
0000
0000
0302
0000
0000
0000
0000
0000
,
0000
0023
0000
0000
,
0230
0000
0000
0000
0000
0000
0000
0000
2300
0000
0000
0000
0000
0000
0000
0000
3200
0000
0000
0000
0000
0000
0000
0000
0000
0000
0000
0000
0000
0000
0000
0000
0000
0000
0000
0000
0000
0000
0000
0000
0000
0302
0000
0000
0000
0000
0000
0000
0203
0000
0000
0000
0000
0000
0000
0000
0000
0000
0000
0000
0300
0000
0000
0000
,
0020
0000
0000
0000
0000
0000
0000
0000
0000
0000
0000
0000
0000
0000
0000
0000
0000
0000
0000
0000
0000
0000
0000
0000
0030
0000
2000
0000
0000
0000
0000
0000
0000
0000
0000
0000
0000
0000
0000
0000
0000
0000
0000
0000
0000
0000
0000
0000
0000
0000
0000
0000
0000
3000
0000
0000
0020
0000
0000
0000
0000
0000
0000
0000
,
0000
0000
0000
0000
0000
0000
0000
0000
0000
0000
0000
0000
0000
0000
0000
0000
0000
0230
0000
0000
0000
0000
0000
0000
0000
0000
0000
0000
0000
0000
0000
0000
0000
0000
0000
0000
0000
0000
0000
0000
0000
0000
0000
0000
0000
0000
0000
0000
0000
0000
0000
0300
0000
0000
0000
0000
0000
0000
0000
0020
0032
0000
0000
0000
,
0000
0000
0000
0000
0000
0000
0000
0003
0020
0000
0000
0000
0000
0000
0000
0000
0000
0000
0000
0000
0000
0000
0000
0000
0000
0000
0000
0000
0000
0000
0000
0000
,
0000
2030
3200
0000
0000
0000
0000
0000
,
0000
0000
0300
0011
1100
0011
1100
1000
,
1000
1100
1000
1000
1000
1010
0101
0001
,
0001
0101
0001
1001
0110
1001
0110
0010
,
0010
1010
0010
0010
0010
1010
0110
0100
,
0100
0000
0101
0000
0101
1000
0011
0000
0011
0000
0011
0000
1010
0000
1000
0000
,
1000
1010
1000
1000
1000
1100
1000
1010
,
0011
0000
0001
0000
1001
0000
1001
0010
0100
0000
1000
0100
0010
0000
1100
0000
,
0110
0101
0110
0002
2003
3002
2003
0000
,
0000
0010
0000
3011
1100
0011
1100
1000
,
1000
1100
1000
1000
1000
1010
0101
0001
,
0001
0101
0001
1001
0110
1001
0110
0010
,
0010
1010
0010
0010
0010
1010
0110
0100
,
0100
0000
0101
0000
0101
1000
0011
0000
0011
0000
0011
0000
1010
0000
1000
0000
,
1000
1010
1000
1000
1000
1100
1010
0011
,
0001
0000
0001
0000
1001
0000
1001
0010
0100
0000
1000
0100
0010
0000
1100
0000
,
0110
0101
0011
0020
0230
0320
0230
0000
,
0310
0000
0000
0000
0001
0000
0000
0000
0010
0000
0000
0000
1000
0000
0000
0000
0001
0000
0000
0000
0010
0000
0000
0000
0100
0000
0000
0000
1000
0000
0000
0000
0001
0000
0000
0000
0010
0000
0000
0000
0100
0000
0000
0000
1000
0000
0000
0000
0001
0000
0000
0000
0010
0000
0000
0000
0200
0300
0000
0000
0020
0030
0000
0000
,
0002
0003
0000
0000
2000
3000
0000
0000
0200
0300
0000
0000
0020
0030
0000
0000
0002
0000
0000
0000
0000
0000
0000
0000
0000
0000
0000
0000
0000
0000
0000
0000
0000
0000
0000
0000
0000
0000
0000
0000
0000
0000
0003
0002
0000
0000
0000
0000
0000
0000
0000
0000
0000
0000
0000
0000
0000
0000
0000
0000
0000
0000
0000
0000
,
0000
0203
0000
0000
0000
2300
0000
0000
0000
3020
0000
0000
0000
0000
0000
0000
0000
0000
0000
0000
2030
0000
3000
0000
2000
0000
0000
0000
0000
0000
0000
0000
,
0000
0000
0000
0000
0000
0000
0000
0000
0000
0000
0000
0000
0000
0000
0000
0000
3000
0000
0000
0000
0000
0000
0000
0000
0002
0000
0000
0000
0000
0000
0000
0000
0000
0000
0000
0000
0000
0000
0000
0000
0000
0000
0000
0000
0000
0000
0000
0000
0000
0000
0000
0000
0000
0000
0000
0003
0002
0000
0000
0000
0000
0000
0000
0000
,
0023
0000
0000
0000
0230
0000
0000
0000
0302
0000
0000
0000
0000
0000
0000
0000
0000
0023
0000
0000
0000
0000
0000
0000
0030
2000
0000
0000
0000
0000
0000
0000
,
0000
3200
0000
0000
0000
0320
0000
0000
0000
0032
0000
0000
0000
0000
0000
0000
0000
0000
0000
0000
0003
0000
0000
0000
0000
0000
0020
0000
0000
0000
0000
0000
,
0000
0000
0000
0000
0000
0000
0230
0000
0000
0300
0200
0000
0000
0000
0000
0000
0301
0000
0000
0000
0010
0000
0100
0000
1000
0000
0000
0000
0100
0000
1000
0000
,
0100
0010
1000
0000
0100
0000
1000
0000
1000
0100
0010
0001
0100
0010
0001
1000
,
0100
0010
0100
0010
0001
1000
0100
0010
0001
0100
0010
0001
1000
0100
0010
0100
,
0001
0100
0010
0001
0010
0100
0010
0001
1000
0100
0010
0100
0020
0000
0000
0000
,
0000
0000
0000
0230
0000
0000
2301
0000
0000
0000
0010
0000
0100
0000
0010
0000
0000
0000
0100
0000
0001
0000
0100
0000
,
0010
0100
3001
0100
1000
0100
0010
0001
0000
0010
0100
1000
,
0000
0100
0010
0001
0000
0000
0000
0000
0000
1000
0100
0010
,
0001
0000
0010
0100
1000
0000
0100
0001
0100
0010
0100
0001
,
0100
1000
0100
0010
0001
0000
0010
0100
1000
0000
0100
0010
,
0002
0000
0000
0000
0000
2000
0000
3003
,
2000
3000
0000
0000
0001
0000
0000
0000
0010
0000
0000
0000
0100
0000
0000
0000
1000
0000
0000
0000
0010
0000
0000
0000
2000
3000
0000
0000
0010
0000
0000
0000
0001
0000
0000
0000
1000
0000
0000
0000
0001
0000
0000
0000
0010
0000
0000
0000
2000
3000
0000
0000
0100
0000
0000
0000
0001
0000
0000
0000
0010
0000
0000
0000
,
0001
0000
0000
0000
0100
0000
0000
0000
2000
3000
0000
0000
0010
0000
0000
0000
0100
0000
0000
0000
0010
0000
0000
0000
0100
0000
0000
0000
0001
0000
0000
0000
2000
3000
0000
0000
0001
0000
0000
0000
0100
0000
0000
0000
0010
0000
0000
0000
2000
3000
0000
0000
0010
0000
0000
0000
0200
0300
0000
0000
0010
0000
0000
0000
,
0002
0003
0000
0000
1000
0000
0000
0000
0100
0000
0000
0000
1000
0000
0000
0000
0100
0000
0000
0000
1000
0000
0000
0000
0002
0003
0000
0000
0100
0000
0000
0000
0010
0000
0000
0000
0100
0000
0000
0000
1000
0000
0000
0000
0100
0000
0000
0000
0002
0003
0000
0000
0010
0000
0000
0000
1000
0000
0000
0000
0100
0000
0000
0000
,
0010
0000
0000
0000
1000
0000
0000
0000
0200
0300
0000
0000
0001
0000
0000
0000
0010
0000
0000
0000
0100
0000
0000
0000
1000
0000
0000
0000
0010
0000
0000
0000
0200
0300
0000
0000
1000
0000
0000
0000
0010
0000
0000
0000
0100
0000
0000
0000
0020
0030
0000
0000
0001
0000
0000
0000
0200
0300
0000
0000
0010
0000
0000
0000
,
2000
3000
0000
0000
0001
0000
0000
0000
0010
0000
0000
0000
0001
0000
0000
0000
0010
0000
0000
0000
0100
0000
0000
0000
2000
3000
0000
0000
0100
0000
0000
0000
0010
0000
0000
0000
0001
0000
0000
0000
0010
0000
0000
0000
0100
0000
0000
0000
2000
3000
0000
0000
0100
0000
0000
0000
0010
0000
0000
0000
0001
0000
0000
0000
,
1000
0000
0000
0000
0010
0000
0000
0000
0200
0300
0000
0000
0001
0000
0000
0000
0010
0000
0000
0000
0001
0000
0000
0000
1000
0000
0000
0000
0010
0000
0000
0000
0200
0300
0000
0000
0001
0000
0000
0000
1000
0000
0000
0000
0010
0000
0000
0000
0200
0300
0000
0000
0001
0000
0000
0000
0020
0030
0000
0000
1000
0000
0000
0000
,
0002
0003
0000
0000
0010
0000
0000
0000
0100
0000
0000
0000
1000
0000
0000
0000
0100
0000
0000
0000
0010
0000
0000
0000
0002
0003
0000
0000
1000
0000
0000
0000
0001
0000
0000
0000
1000
0000
0000
0000
0010
0000
0000
0000
0100
0000
0000
0000
2000
0000
0000
3000
0010
0000
0000
0000
0001
0000
0000
0000
0010
0000
0000
0000
,
1000
0000
0100
0000
0010
0000
0100
0000
0010
0000
0100
0000
1000
0000
0010
0000
0100
0000
0000
0000
0000
0000
0000
0000
0100
0010
0000
0000
1000
0000
0100
0000
,
0002
0003
0000
0000
0020
0030
0000
0000
0200
0300
0000
0000
2000
3000
0000
0000
0020
0030
0000
0000
0200
0300
0000
0000
2000
3000
0000
0000
0200
0300
0000
0000
2000
3000
0000
0000
0020
0030
0000
0000
0200
0300
0000
0000
0020
0030
0000
0000
0002
0003
0000
0000
0020
0030
0000
0000
0200
0300
0000
0000
2000
3000
0000
0000
,
0002
0003
0000
0000
0020
0030
0000
0000
0200
0300
0000
0000
2000
3000
0000
0000
0200
0300
0000
0000
2000
3000
0000
0000
0020
0030
0000
0000
2000
3000
0000
0000
0200
0300
0000
0000
2000
3000
0000
0000
0200
0300
0000
0000
0020
0030
0000
0000
0002
0003
0000
0000
0020
0030
0000
0000
0200
0300
0000
0000
2000
3000
0000
0000
,
0002
0003
0000
0000
0020
0030
0000
0000
0200
0300
0000
0000
0020
0030
0000
0000
0200
0300
0000
0000
0020
0030
0000
0000
2000
3000
0000
0000
0200
0300
0000
0000
2000
3000
0000
0000
0020
0030
0000
0000
0200
0300
0000
0000
0020
0030
0000
0000
0002
0003
0000
0000
0020
0030
0000
0000
0200
0300
0000
0000
2000
3000
0000
0000
,
0020
0030
0000
0000
0200
0300
0000
0000
2000
3000
0000
0000
0200
0300
0000
0000
2000
3000
0000
0000
0020
0030
0000
0000
2000
3000
0000
0000
0200
0300
0000
0000
2000
3000
0000
0000
0020
0030
0000
0000
2000
3000
0000
0000
0020
0030
0000
0000
0002
0003
0000
0000
0020
0030
0000
0000
0200
0300
0000
0000
2000
3000
0000
0000
,
0020
0030
0000
0000
0200
0300
0000
0000
2000
3000
0000
0000
0200
0300
0000
0000
2000
3000
0000
0000
0020
0030
0000
0000
2000
3000
0000
0000
0200
0300
0000
0000
2000
3000
0000
0000
0020
0030
0000
0000
0200
0300
0000
0000
0020
0030
0000
0000
0002
0003
0000
0000
0020
0030
0000
0000
0200
0300
0000
0000
2000
3000
0000
0000
,
0002
0003
0000
0000
0020
0030
0000
0000
2000
3000
0000
0000
0200
0300
0000
0000
2000
3000
0000
0000
0020
0030
0000
0000
2000
3000
0000
0000
0200
0300
0000
0000
2000
3000
0000
0000
0020
0030
0000
0000
0200
0300
0000
0000
0020
0030
0000
0000
0002
0003
0000
0000
0020
0030
0000
0000
0200
0300
0000
0000
2000
3000
0000
0000
,
0002
0003
0000
0000
0020
0030
0000
0000
0200
0300
0000
0000
0020
0030
0000
0000
2000
3000
0000
0000
0200
0300
0000
0000
2000
3000
0000
0000
0020
0030
0000
0000
2000
3000
0000
0000
0020
0030
0000
0000
0200
0300
0000
0000
0020
0030
0000
0000
0002
0003
0000
0000
0020
0030
0000
0000
0200
0300
0000
0000
2000
3000
0000
0000
,
0020
0030
0000
0000
0200
0300
0000
0000
2000
3000
0000
0000
0200
0300
0000
0000
0010
0000
0000
0000
0100
0000
0000
0000
0010
0000
0000
0000
0100
0000
0000
0000
0010
0000
0000
0000
1000
0000
0000
0000
0010
0000
0000
0000
0100
0000
0000
0000
0010
0000
0000
0000
0001
0000
0000
0000
1000
0000
0000
0000
0100
0000
0000
0000
,
0002
0003
0000
0000
0020
0030
0000
0000
0200
0300
0000
0000
2000
3000
0000
0000
0020
0030
0000
0000
0200
0300
0000
0000
2000
3000
0000
0000
0200
0300
0000
0000
2000
3000
0000
0000
0020
0030
0000
0000
0200
0300
0000
0000
0020
0030
0000
0000
0002
0003
0000
0000
0020
0030
0000
0000
0200
0300
0000
0000
2000
3000
0000
0000
,
0002
0003
0000
0000
0020
0030
0000
0000
0200
0300
0000
0000
2000
3000
0000
0000
0200
0300
0000
0000
2000
3000
0000
0000
0020
0030
0000
0000
2000
3000
0000
0000
0200
0300
0000
0000
2000
3000
0000
0000
0200
0300
0000
0000
0020
0030
0000
0000
0002
0003
0000
0000
0020
0030
0000
0000
0200
0300
0000
0000
2000
3000
0000
0000
,
0002
0003
0000
0000
0020
0030
0000
0000
0200
0300
0000
0000
0020
0030
0000
0000
0200
0300
0000
0000
0020
0030
0000
0000
2000
3000
0000
0000
0200
0300
0000
0000
2000
3000
0000
0000
0020
0030
0000
0000
0200
0300
0000
0000
0020
0030
0000
0000
0002
0003
0000
0000
0020
0030
0000
0000
0200
0300
0000
0000
2000
3000
0000
0000
,
0020
0030
0000
0000
0200
0300
0000
0000
2000
3000
0000
0000
0200
0300
0000
0000
2000
3000
0000
0000
0020
0030
0000
0000
2000
3000
0000
0000
0200
0300
0000
0000
2000
3000
0000
0000
0020
0030
0000
0000
2000
3000
0000
0000
0020
0030
0000
0000
0002
0003
0000
0000
0020
0030
0000
0000
0200
0300
0000
0000
2000
3000
0000
0000
,
0020
0030
0000
0000
0200
0300
0000
0000
2000
3000
0000
0000
0200
0300
0000
0000
2000
3000
0000
0000
0020
0030
0000
0000
2000
3000
0000
0000
0200
0300
0000
0000
2000
3000
0000
0000
0020
0030
0000
0000
0200
0300
0000
0000
0020
0030
0000
0000
0002
0003
0000
0000
0020
0030
0000
0000
0200
0300
0000
0000
2000
3000
0000
0000
,
0002
0003
0000
0000
0020
0030
0000
0000
2000
3000
0000
0000
0200
0300
0000
0000
2000
3000
0000
0000
0020
0030
0000
0000
2000
3000
0000
0000
0200
0300
0000
0000
2000
3000
0000
0000
0020
0030
0000
0000
0200
0300
0000
0000
0020
0030
0000
0000
0002
0003
0000
0000
0020
0030
0000
0000
0200
0300
0000
0000
2000
3000
0000
0000
,
0002
0003
0000
0000
0020
0030
0000
0000
0200
0300
0000
0000
0020
0030
0000
0000
2000
3000
0000
0000
0200
0300
0000
0000
2000
3000
0000
0000
0020
0030
0000
0000
2000
3000
0000
0000
0020
0030
0000
0000
0200
0300
0000
0000
0020
0030
0000
0000
0002
0003
0000
0000
0020
0030
0000
0000
0200
0300
0000
0000
2000
3000
0000
0000
,
0020
0030
0000
0000
0200
0300
0000
0000
2000
3000
0000
0000
0200
0300
0000
0000
2000
3000
0000
0000
0020
0030
0000
0000
0200
0300
0000
0000
2000
3000
0000
0000
0200
0300
0000
0000
0020
0030
0000
0000
2000
3000
0000
0000
0020
0030
0000
0000
0200
0300
0000
0000
2000
3000
0000
0000
0200
0300
0000
0000
0000
0000
0000
0000
,
2010
0000
0000
0000
,
0000
0000
0000
3200
0320
0032
0023
0230
2300
3200
2300
3020
,
1230
0000
0000
0000
0000
0000
0000
0000
0000
0000
0000
0000
0000
0000
0000
0000
0000
0000
0000
0000
0000
0000
0000
0000
0000
0000
0000
0000
0000
0000
0000
0000
0000
0000
0000
0300
0002
0000
0000
0000
0000
0000
0000
0000
0000
0000
0000
0000
,
2003
0000
3200
0320
,
1230
0000
0000
0000
,
0320
0000
0000
0000
0000
0000
0000
0000
0000
0000
0000
0000
0000
0000
0000
0000
0000
0000
0000
0000
0000
0000
0000
0000
0000
0000
0000
0000
0000
0000
0000
0000
2000
0030
0000
0000
0000
0000
0000
0000
0000
0000
0000
0000
0000
0000
0000
0000
0000
0000
0000
0000
0000
0000
0000
0000
0000
0000
0000
0000
0000
0000
0000
3000
0200
0000
0000
0000
0000
0000
0000
0000
0000
0000
0000
0000
0000
0000
0000
0000
0000
0000
0000
0000
0000
0000
0000
0000
0000
0000
0000
0000
0000
0300
0000
0000
0020
0000
0000
0000
0000
0000
0000
0000
0000
0000
0000
0000
0000
0000
0000
0000
0000
0000
0000
0000
0000
0000
0000
0000
0000
0000
0000
0000
0000
0000
0030
0000
0002
0000
0000
0000
0000
0000
0000
0000
0000
0000
0000
0000
0000
0000
0000
0000
0000
0000
0000
0000
0000
0000
0000
0000
0000
0000
0000
0000
0000
0000
0000
0003
0020
0000
0000
0000
0000
0000
0000
0000
0000
0000
0000
0000
0000
0000
0000
0000
0000
0000
0000
0000
0000
0000
0000
0000
0000
0000
0000
0000
0000
0030
0000
0000
,
0020
0000
0000
0000
0000
0000
0000
0000
0000
0000
0000
0000
0000
0000
0000
0000
0000
0000
0000
0000
0000
0000
0000
0000
0000
0000
0000
0000
0000
0000
0000
0030
0002
0000
0000
0000
0000
0000
0000
0000
0000
0000
0000
0000
0000
0000
0000
0000
0203
0000
0000
0000
0000
0000
0000
0000
0000
0000
0000
0000
0000
0000
0000
0000
,
0000
0000
0000
0000
0000
0000
0000
0300
,
0002
0000
0000
0000
0000
0000
0000
0000
0013
0000
0000
0000
0100
0000
0000
0000
1000
0000
0000
0100
0000
0000
0000
0000
0002
0000
0000
0000
0000
0000
0000
0000
0013
0000
0000
0000
0100
0000
0000
0000
1000
0000
0000
0100
0000
0000
0000
0000
0002
0000
0000
0000
0000
0000
0000
0000
0013
0000
0000
0000
0100
0000
0000
0000
,
1000
0000
0000
0100
0000
0000
0000
0000
0002
0000
0000
0000
0000
0000
0000
0000
0013
0000
0000
0000
0100
0000
0000
0000
1000
0000
0000
0100
0000
0000
0000
0000
0002
0000
0000
0000
0000
0000
0000
0000
0013
0000
0000
0000
0100
0000
0000
0000
1000
0000
0000
0100
0000
0000
0000
0000
0002
0000
0000
0000
0000
0000
0000
0000
,
1120
0000
0000
0000
0000
0000
0000
0000
0000
0000
0000
0000
0000
0000
0000
0000
0000
0000
0000
0000
0000
0000
0000
0000
0233
0000
0000
0000
0000
0000
0000
0300
0200
0000
0000
0000
0000
0000
0000
0000
0000
0000
0000
0000
0000
0000
0000
0000
0000
2300
0000
0000
0000
0000
0000
0000
0000
0000
3200
0000
0000
0000
0000
0000
,
0000
0000
0000
0000
0000
0000
0000
0000
0000
0000
0000
2300
0000
0000
0000
0000
0000
0000
0000
0000
0000
0000
0000
0000
0000
3000
2000
0000
0000
0000
0000
0000
0000
0000
0000
0000
0000
0000
0000
0000
0000
0000
0000
0000
0000
0000
0000
0000
0000
0000
3020
0000
0000
0000
0000
0000
0000
0000
0000
0000
0000
0000
2030
0000
,
0000
0000
0000
0000
,
0000
0000
3200
0000
0000
0000
0000
0000
0000
0000
0000
0000
0000
0000
0300
0020
0000
0000
0000
0000
0000
0000
0032
0000
0000
0000
0000
0000
0000
0000
0000
0003
0200
0000
0000
0000
0000
0000
0000
0000
0320
0000
0000
0000
0000
0032
0000
0000
0000
2003
0000
0000
0000
0000
0000
0000
0000
0000
0000
0000
0000
0000
0000
0000
,
3012
0000
0000
0000
0000
0000
0000
0000
0000
0000
0000
0000
0000
0000
0000
0000
0003
0020
0000
0000
0000
0000
0000
0000
0230
0000
0000
0000
0000
0000
0000
2300
0000
0000
0000
0000
0000
0000
0000
3200
0000
0000
0000
0000
0000
0000
0000
0000
2300
0000
0000
0000
0000
0000
0000
0000
3020
0000
0000
0000
0000
0000
0000
0000
,
0032
0000
0000
0000
0000
0000
0000
0023
0000
0000
0000
0000
0230
0000
0000
0000
0000
2300
0000
0000
0000
0000
0000
0000
3200
0000
0000
0000
0000
0000
0000
0000
2300
0000
0000
0000
0000
0000
0000
3200
0000
0000
0000
0000
0000
0320
0000
0000
0000
0000
0000
0000
0000
0032
0000
0000
0000
0000
0000
0000
0000
0000
0000
0000
,
2103
0000
0000
0000
0000
0000
0000
0000
0000
0000
0000
0000
0000
0000
0000
0000
0000
0000
0000
0000
0000
0000
0000
0000
0000
0000
0000
0000
0000
0000
0000
0000
0000
0000
0000
0000
0000
0000
0000
0000
3000
0000
0000
0000
0000
0000
0000
0000
1000
0000
0000
0000
0000
0000
0010
0000
0000
0000
0000
0000
0000
0100
0000
0000
,
0000
0000
0000
0000
0000
0000
0000
0000
0100
0000
0000
0000
0000
0000
0001
0000
0000
0000
0000
0000
0000
0010
0000
0000
0000
0000
0000
0000
0100
0000
0000
0000
0000
0010
0000
0000
0000
0000
0000
0001
0000
0000
0000
0000
0000
0000
1000
0000
0000
0100
0000
0000
0000
0000
0000
0000
0010
0000
0000
0000
0000
0000
0000
0000
,
2000
0000
3000
0000
0200
0000
0000
0300
0020
0000
0000
0030
0002
0000
0000
0003
0002
0000
0000
0000
0000
0000
0000
0000
0000
0000
0000
0000
0000
0000
0000
0000
0000
0000
0000
0000
0003
0000
0000
0000
0000
0000
0000
0000
0000
0000
0000
0000
0000
0000
0000
0000
0000
0000
0000
0000
0000
0000
0000
0000
0000
0000
0000
0000
;
