#TITLE:Leucos;
#SUBTITLE:;
#ARTIST:Treow;
#TITLETRANSLIT:;
#SUBTITLETRANSLIT:;
#ARTISTTRANSLIT:;
#CREDIT:M.L-INS;
#BANNER:../Tachyon DIVA.png;
#BACKGROUND:../Tachyon DIVA-bg.png;
#LYRICSPATH:;
#CDTITLE:;
#MUSIC:Leucos.ogg;
#OFFSET:0.000;
#SAMPLESTART:100.000;
#SAMPLELENGTH:12.000;
#SELECTABLE:YES;
#BPMS:0.000=180.002;
#STOPS:91.875=1.340
;
#BGCHANGES:;
// cache tags:
#FIRSTBEAT:16.000;
#LASTBEAT:383.000;
#SONGFILENAME:Songs/Tachyon DIVA/Leucos[M.L-INS]/Leucos.sm;
#HASMUSIC:1;
#HASBANNER:1;
#MUSICLENGTH:128.952;
// end cache tags

//---------------dance-single - ----------------
#NOTES:
     dance-single:
     :
     Challenge:
     14:
     0.980,1.000,0.140,0.318,1.000,826.000,18.000,41.000,49.000,0.000:
0000
0000
0000
0000
,
0000
0000
0000
0000
,
0000
0000
0000
0000
,
0000
0000
0000
0000
,
1000
0000
0000
0001
0000
0000
0100
0000
,
0000
0010
0000
0010
1000
0000
0000
0000
,
0001
0000
0000
0100
0000
0000
0010
0000
,
1000
0100
1000
0100
1000
0000
0001
0000
0010
0000
0100
0000
1000
0000
0000
0000
,
0001
0001
0100
0010
0100
0000
0001
0100
,
0000
1000
0100
0000
0001
0100
0010
1000
,
0100
0100
0010
0000
0001
0001
1000
1000
,
0100
0010
0100
0000
1000
0010
1000
0000
0001
0010
0001
0010
0100
0010
0001
0000
,
1000
1000
0100
1000
0010
0010
0100
0001
,
0000
0001
0100
0000
0010
0000
1000
0000
,
0200
0000
0320
0000
0031
0100
0010
0000
,
1000
0010
1000
0010
0200
0000
0000
0000
0301
0010
0100
0010
0001
0100
0010
0100
,
0002
0000
0003
M0MM
0200
0000
0320
0000
,
0030
0MMM
2000
0000
3200
0000
0300
MMM0
,
0000
0000
0M00
0000
0000
0000
00M0
0000
0001
0000
0001
0000
0100
0000
1000
0100
,
1000
0000
0010
1000
0010
0000
0100
0001
0100
0001
0010
0001
0010
0001
1000
0000
,
0010
0010
0100
0001
0002
0000
0003
0100
,
0010
0200
0000
0300
MMM0
0000
0000
0000
,
0001
0001
0100
0000
0000
0010
1000
1000
,
1000
0000
0001
0100
0001
0000
0010
0100
0010
0000
0001
0000
0100
0000
0010
0000
,
1000
0000
0000
0000
0000
0000
0100
0000
0000
0000
0000
0000
0010
0000
0000
0000
0000
0000
0001
0000
0000
0000
0000
0000
1000
0000
0000
0100
0000
0000
1000
0000
0000
0100
0000
0000
0010
0000
0001
0000
0010
0000
0001
0000
0010
0000
0001
0000
,
0010
0000
0001
0100
0001
0000
0010
0000
0001
0000
0100
0000
0010
0000
0100
0000
,
0001
0000
0000
0010
0000
0000
0100
0000
0000
0000
0000
0000
1000
0000
0000
0100
0000
0000
0010
0000
0000
0000
0000
0000
0001
0000
0000
0100
0000
0000
0001
0000
0000
0100
0000
0000
0010
0000
1000
0000
0010
0000
1000
0000
0010
0000
1000
0000
,
0010
0000
1000
0100
0010
0000
0001
0000
0010
0100
1000
0000
0001
0100
0010
0000
,
1000
0000
0000
0000
0000
0000
0010
0000
0000
0100
0000
0000
0010
0000
0000
0000
0000
0000
1000
0000
0000
0100
0000
0000
1000
0000
0000
0100
0000
0000
0010
0000
0000
0100
0000
0000
1000
0000
0001
0000
1000
0000
0001
0000
1000
0000
0001
0000
,
1000
0000
0001
0010
0100
0000
1000
0000
0100
1000
0010
0000
0100
0001
0010
0000
,
0100
0000
0000
0000
0000
0000
1000
0000
0000
0000
0000
0000
0010
0000
0000
0000
0000
0000
1000
0000
0000
0000
0000
0000
0200
0000
0000
0000
0000
0000
0000
0000
0000
0300
0000
0000
0010
0000
0100
0000
0010
0000
0100
0000
0010
0000
0100
0000
,
0010
0000
0001
0100
0001
0000
1000
0010
1000
0000
0001
0000
0010
0000
0100
0000
,
0010
0000
0000
0000
0000
0000
0001
0000
0000
0000
0000
0000
1000
0000
0000
0000
0000
0000
0100
0000
0000
0000
0000
0000
0010
0000
0000
0001
0000
0000
0010
0000
0000
0001
0000
0000
1000
0000
0010
0000
1000
0000
0010
0000
1000
0000
0010
0000
,
1000
0000
0001
0010
0100
0000
1000
0000
0010
1000
0100
0000
0010
0001
0100
0000
,
0010
0000
0000
1000
0000
0000
0010
0000
0000
0000
0000
0000
0100
0000
0000
0000
0000
0000
0100
0000
0000
0000
0000
0000
0001
0000
0000
0100
0000
0000
0001
0000
0000
0100
0000
0000
0001
0000
1000
0000
0001
0000
1000
0000
0001
0000
1000
0000
,
0001
0000
1000
0100
1000
0000
0100
0000
0010
0001
0100
0000
0010
0000
0010
0000
,
0100
0000
0000
0001
0000
0000
1000
0000
0000
0000
0000
0000
0010
0000
0000
1000
0000
0000
0001
0000
0000
0000
0000
0000
0100
0000
0000
0001
0000
0000
0100
0000
0000
0001
0000
0000
1000
0000
0010
0000
1000
0000
0010
0000
1000
0000
0010
0000
,
2000
3100
0200
0301
2000
3010
0020
0031
,
1000
0000
0000
0010
0000
0000
0100
0000
0000
0001
0000
0000
0010
0000
0000
0100
0000
0000
0010
0000
0000
0001
0000
0000
1000
0000
0000
0010
0000
0000
1000
0000
0000
0100
0000
0000
0010
0000
0001
0000
0010
0000
0001
0000
0010
0000
0001
0000
,
0100
0000
0000
0001
1000
0000
0000
0010
0100
0010
0000
0000
1000
0000
0100
0010
,
0001
0000
0100
0000
0001
1000
0100
0000
1000
0000
0000
0001
0100
0000
0000
0000
,
0010
0000
0000
1000
0100
0000
0000
0010
0100
0010
0000
0000
0001
0000
1000
0100
,
0010
0000
0001
0000
0100
0010
1000
0000
0100
1000
0010
0000
0100
0001
0100
0001
,
0010
0000
0000
0100
0010
0000
0000
0001
1000
0001
0000
0000
0100
0000
0010
1000
,
0001
0000
0100
0000
0001
1000
0100
0000
0010
0000
0000
0001
0100
0000
0000
0000
,
0001
0000
0000
1000
0100
0000
0000
0100
0010
0100
0000
0000
0010
0000
0001
0100
,
0010
0000
1000
0000
0001
1000
0100
0000
0010
0000
0001
0000
1000
0001
1000
0001
,
0100
0000
0000
0001
1000
0000
0000
0010
0100
0010
0000
0000
1000
0000
0100
0010
,
0001
0000
0100
0000
0001
1000
0100
0000
1000
0000
0000
0001
0100
0000
0000
0000
,
0010
0000
0000
1000
0100
0000
0000
0010
0100
0010
0000
0000
0001
0000
1000
0100
,
0010
0000
0001
0000
0100
0010
1000
0000
0100
1000
0010
0000
1000
0100
1000
0100
,
0010
0000
0000
0100
0010
0000
0000
0001
1000
0001
0000
0000
0100
0000
0010
1000
,
0001
0000
0100
0000
0001
1000
0100
0000
0010
0000
0000
0001
0100
0000
0000
0000
,
0001
0000
0000
1000
0100
0000
0000
0100
0010
0100
0000
0000
0010
0000
0001
0100
,
0010
0000
1000
0000
0001
1000
0100
0000
0010
0000
0001
0000
0100
0010
0100
0010
,
1000
0100
1000
0001
0100
0010
1000
0010
0100
0001
0010
0100
1000
0010
0100
0010
,
1000
0100
1000
0001
0100
0001
0010
0100
0010
0001
0100
0010
0100
0001
0100
0010
,
1000
0100
0010
0001
1000
0010
1000
0001
1000
0010
0100
0001
0100
0010
1000
0100
,
0010
0000
0000
0001
0000
0000
0010
0000
0000
0100
0000
0000
1000
0000
0000
0001
0000
0000
0100
0000
0000
0001
0000
0000
1000
0000
0000
0010
0000
0000
1000
0000
0000
0001
0000
0000
0100
0000
0001
0000
1000
0000
0010
0000
1000
0000
0001
0000
,
0100
0010
1000
0100
0010
0100
1000
0001
1000
0010
0100
0001
1000
0010
0100
0010
,
1000
0100
0010
0001
0100
0010
1000
0001
0010
0001
0100
0010
1000
0001
0100
0010
,
1000
0100
0010
0001
1000
0010
0100
0001
1000
0001
0100
0010
0100
0001
0100
0010
,
1000
0000
0000
0010
0000
0000
0100
0000
0000
0001
0000
0000
0010
0000
0000
0100
0000
0000
1000
0000
0000
0100
0000
0000
0010
0000
0000
0001
0000
0000
1000
0000
0000
0001
0000
0000
1000
0000
0001
0000
0100
0000
0010
0000
0100
0000
0001
0000
,
1000
0100
0010
0100
1000
0001
0100
0001
0010
0100
0010
0001
1000
0010
1000
0001
,
0100
0010
1000
0100
0010
0001
0100
0010
1000
0100
1000
0001
0100
0001
1000
0010
,
0100
0010
1000
0010
0100
0001
1000
0001
0100
0010
0100
0001
0010
0001
1000
0010
,
1000
0000
0000
0100
0000
0000
0010
0000
0000
0100
0000
0000
1000
0000
0000
0001
0000
0000
0010
0000
0000
0100
0000
0000
0010
0000
0000
0001
0000
0000
1000
0000
0000
0001
0000
0000
1000
0000
0010
0000
0100
0000
0001
0000
1000
0000
0100
0000
,
0010
0100
0010
0001
1000
0010
1000
0100
0010
0100
1000
0001
1000
0010
0100
0010
,
1000
0100
0010
0001
1000
0010
0100
0001
0010
0100
1000
0001
1000
0100
0010
0001
,
2000
3100
0020
0130
2000
3100
0002
0103
,
2000
3010
0002
0013
2000
3010
0200
0310
,
1000
1000
0100
0010
0002
0000
0103
0010
,
1000
0200
0000
0310
0110
0000
1100
0000
,
0011
0001
0100
0000
0010
1000
0100
0010
,
0001
0100
0020
0000
0130
0000
0101
0000
,
0011
0010
0100
1000
0001
0100
0010
0200
,
0000
0301
0010
0000
0110
0000
0011
0000
,
1200
0000
0300
0M01
0001
1000
0010
0100
,
0001
0000
2000
0000
0000
0000
3000
0000
0001
0100
0010
0000
1000
0100
0010
0000
,
1020
0000
0000
0000
0130
0000
0102
1000
,
M000
1000
0103
0000
1010
0000
1001
0000
,
1000
0100
0020
0000
0031
0100
0010
1000
,
0100
0000
0010
0000
0001
0000
0100
0000
0010
1000
0010
0000
0100
0001
0100
0000
,
0001
0001
0010
0100
2000
0000
3000
0010
,
0001
0000
0020
0000
0000
0000
0000
0000
1030
0001
0100
0000
0010
1000
0001
0000
,
0100
0100
0020
0M00
0030
1100
0110
0011
,
000M
0000
0101
0000
0011
0000
1010
0000
0010
1000
0010
1000
0100
0010
0001
0100
,
0020
0000
0030
2000
0000
3000
0200
0000
,
0300
0M00
0000
0000
0M00
0000
0000
0000
,
000M
0000
0000
00M0
0000
0000
0M00
0000
,
0000
M000
0000
0000
00M0
0000
00M0
0000
,
0002
0000
0003
0200
0000
0300
0020
0000
,
0030
M000
0000
0000
M000
0000
0000
0000
,
000M
000M
000M
000M
000M
000M
000M
000M
M00M
0000
0000
0000
0000
0000
0000
0000
0M00
0000
0000
0000
00M0
0000
0000
0000
000M
0000
0000
0000
0000
0000
0000
0000
,
M000
0000
000M
M000
00M0
0000
0M00
0000
,
M000
0000
0000
000M
0000
0000
0M00
0000
;
