#TITLE:Cyber Inductance;
#SUBTITLE:;
#ARTIST:DJ Sharpnel;
#TITLETRANSLIT:;
#SUBTITLETRANSLIT:;
#ARTISTTRANSLIT:;
#CREDIT:;
#BANNER:cyber inductance bn.png;
#BACKGROUND:cyber inductance bg.png;
#LYRICSPATH:;
#CDTITLE:;
#MUSIC:Cyber Inductance.ogg;
#OFFSET:-0.461;
#SAMPLESTART:153.768;
#SAMPLELENGTH:20.104;
#SELECTABLE:YES;
#BPMS:0.000=191.000;
#STOPS:;
#BGCHANGES:;
// cache tags:
#FIRSTBEAT:4.000;
#LASTBEAT:932.083;
#SONGFILENAME:Songs/SHARPNELSTREAMZ v2/Cyber Inductance/Cyber Inductance.sm;
#HASMUSIC:1;
#HASBANNER:1;
#MUSICLENGTH:294.974;
// end cache tags

//---------------dance-single - 16 (Zaia)----------------
#NOTES:
     dance-single:
     16 (Zaia):
     Challenge:
     16:
     1.000,1.000,0.102,0.244,1.000,2854.000,30.000,72.000,35.000,1.000:
0000
0000
0000
0000
,
0011
0000
0000
0001
0100
0000
0010
0000
1000
0000
0001
0000
0010
0000
0100
0000
,
1000
0000
0000
0001
0100
0000
0010
0000
1000
0000
0001
0000
0010
0000
0100
0000
,
1000
0000
0000
0001
0100
0000
0010
0000
1000
0000
0001
0000
0010
0000
0100
0000
,
1000
0000
0000
0001
0100
0000
0010
0000
1000
0001
0010
0000
1001
0000
1000
0000
,
0001
0000
0000
0010
0100
0000
1000
0000
0010
0000
0100
0000
0001
0000
1000
0000
,
0100
0000
0000
0010
0100
0000
1000
0000
0010
0000
0100
0000
0001
0000
1000
0000
,
0100
0000
0000
0010
0100
0000
1000
0000
0010
0000
0100
0000
0001
0000
1000
0000
,
0001
0000
0000
0010
0100
0000
1000
0000
0010
0100
0001
0000
0110
0000
0000
0000
,
1010
0000
0000
0010
1000
0000
0001
0100
0010
0100
0001
1000
0001
0000
1000
0000
,
0001
0000
0000
0010
0001
0000
1000
0100
0010
0100
1000
0001
1000
0000
0001
0000
,
0100
0000
0000
0010
1000
0000
0001
0100
0010
0100
0001
1000
0001
0000
1000
0000
,
0001
0000
0000
0010
0001
0000
1000
0100
0010
0100
1000
0000
1001
0000
0001
0000
,
1000
0000
0000
0100
1000
0000
0001
0010
0100
0010
0001
1000
0001
0000
1000
0000
,
0001
0000
0000
0100
0001
0000
1000
0010
0100
0010
1000
0001
1000
0000
0001
0000
,
0010
0100
0010
0001
1000
0010
0100
0010
1000
0001
1000
0001
0010
0100
0010
0001
,
4000
0000
0000
0000
0000
0000
0000
0000
3001
0100
0001
0000
2001
0000
3001
0000
,
1000
0000
0100
1000
0000
0001
1000
0000
0010
0100
0001
0000
1000
0000
0100
0000
,
0010
0000
0100
1000
0000
0001
0100
0000
0010
1000
0010
0000
1000
0000
0001
0000
,
0010
0000
0100
0010
0000
0001
0010
0000
0100
1000
0001
0000
0100
0000
0010
0000
,
1000
0000
0010
0100
0000
0001
0100
0000
0001
1000
0001
0000
1001
0000
1000
0000
,
0001
0000
0100
0001
0000
1000
0001
0000
0010
0100
1000
0000
0001
0000
0100
0000
,
0010
0000
0100
0001
0000
1000
0100
0000
0010
0001
0010
0000
0001
0000
1000
0000
,
0010
0000
0100
0010
0000
1000
0010
0000
0100
0001
1000
0000
0100
0000
0010
0000
,
0001
0000
0010
0100
0000
1000
0100
0000
0010
0001
0010
0000
1002
0000
0000
0000
,
1003
0000
0001
0010
0000
0001
1000
0000
0001
0100
0001
0000
1000
0100
1000
0000
,
0010
0000
1000
0001
0000
1000
0100
0000
1000
0010
1000
0000
0001
0100
0001
0000
,
0010
0000
0100
1000
0000
0100
0010
0000
0001
0010
0001
0000
0100
0001
0100
0000
,
0010
0000
1000
0010
0000
0100
0001
0000
1000
0001
1000
0000
0012
0000
0000
0000
,
0013
0000
0100
1000
0000
0100
0010
0000
0001
0010
0001
0000
1000
0010
1000
0000
,
0001
0000
1000
0001
0000
1000
0100
0000
0010
0100
0010
0000
0100
1000
0100
0000
,
1000
0100
0010
0001
0010
0100
0010
0001
1000
0100
1000
0001
1000
0100
0010
0100
,
4000
0000
0000
0000
0000
0000
0000
0000
3001
0010
0001
0000
2001
0000
0000
0000
,
3001
0100
0010
1000
0001
0100
0010
1000
0001
1000
0100
1000
0001
1000
0010
0100
,
0001
1000
0100
0010
0001
1000
0001
0100
0001
1000
0001
0100
0010
1000
0001
0100
,
0001
1000
0100
0010
0001
1000
0100
0010
0001
1000
0001
0100
0001
1000
0010
0100
,
0001
0010
0100
1000
0001
0010
0100
1000
0001
0100
0001
0000
1002
0000
0000
0000
,
1003
0100
0010
0001
1000
0100
0010
0001
1000
0001
0100
0001
1000
0001
0010
0100
,
1000
0001
0100
0010
1000
0001
1000
0100
1000
0001
1000
0100
0010
0001
1000
0100
,
1000
0001
0100
0010
1000
0001
0100
0010
1000
0001
1000
0100
1000
0001
0010
0100
,
1000
0010
0100
0001
1000
0010
0100
0001
1000
0001
1000
0000
2100
0000
0000
0000
,
3001
0010
0100
1000
0001
0010
0100
1000
0001
1000
0010
1000
0001
1000
0100
0010
,
0001
1000
0010
0100
0001
1000
0001
0010
0001
1000
0001
0010
0100
1000
0001
0010
,
0001
1000
0010
0100
0001
1000
0010
0100
0001
1000
0001
0010
0001
1000
0100
0010
,
0001
0100
0010
1000
0001
0100
0010
1000
0001
0010
0001
0000
1002
0000
0000
0000
,
1003
0010
0100
0001
1000
0010
0100
0001
1000
0001
0010
0001
1000
0001
0100
0010
,
1000
0001
0010
0100
1000
0001
1000
0010
1000
0001
1000
0010
0100
0001
1000
0010
,
1000
0001
0010
0100
1000
0001
0010
0100
1000
0001
1000
0010
1000
0001
0100
0010
,
4000
0000
0000
0000
0000
0000
0000
0000
3010
0100
0010
0000
2001
0000
0000
0000
,
3001
0010
0000
0010
0000
0M1M
1000
0001
,
0010
0100
0000
0100
0000
M10M
0001
1000
,
0001
0010
0000
0010
0000
M01M
1000
0001
,
1000
0000
0100
0000
1000
0000
0001
0000
0100
0010
0100
0000
0102
0000
0000
0000
,
1003
0010
0000
0010
0000
M01M
0001
1000
,
0010
0100
0000
0100
0000
M10M
1000
0010
,
0100
0010
0000
0010
0000
M01M
0001
1000
,
0100
0000
0010
0000
0100
0000
1000
0000
0100
0010
0100
0000
0120
0000
0031
0000
,
1000
0010
0000
0010
0000
M01M
0001
1000
,
0001
0100
0000
0100
0000
M10M
1000
0001
,
1000
0010
0000
0010
0000
M01M
0001
1000
,
0001
0000
0010
0000
0001
0000
0100
0000
0010
1000
0010
0000
2001
0000
0000
0000
,
3001
0010
0000
0010
0000
M01M
1000
0001
,
1000
0100
0000
0100
0000
M10M
0001
1000
,
0100
0010
0000
0010
0000
M01M
1000
0001
,
1000
0100
0010
0100
1000
0001
0010
0100
4000
0000
0000
0000
0000
0000
0000
0000
,
3001
0100
0010
1000
0001
1000
0100
0010
0100
1000
0001
0100
0001
1000
0010
1000
,
0001
0010
0100
1000
0001
0010
0001
1000
0010
0100
0010
1000
0001
1000
0100
0010
,
0001
0100
0010
1000
0001
0100
0010
0100
0001
1000
0010
0100
0001
0010
0001
1000
,
0001
0010
0100
1000
0001
0100
0010
0100
0001
1000
0100
1000
0001
0010
0001
1000
,
0001
0100
0010
1000
0001
1000
0100
0010
0100
1000
0001
0100
0001
1000
0010
1000
,
0001
0010
0100
1000
0001
0010
0001
1000
0010
0100
0010
1000
0001
1000
0100
0010
,
0001
0100
0010
1000
0001
0100
0010
0100
0001
1000
0010
0100
0001
0010
0001
1000
,
0001
0010
0100
1000
0001
0100
0010
0100
0001
1000
0100
1000
0001
0010
0001
1000
,
0001
0010
0100
1000
0001
1000
0010
0100
0010
1000
0001
0010
0001
1000
0100
1000
,
0001
0100
0010
1000
0001
0100
0001
1000
0100
0010
0100
1000
0001
1000
0010
0100
,
0001
0010
0100
1000
0001
0010
0100
0010
0001
1000
0100
0010
0001
0100
0001
1000
,
0001
0100
0010
1000
0001
0010
0100
0010
0001
1000
0010
1000
0001
0100
0001
1000
,
0001
0010
0100
1000
0001
1000
0010
0100
0010
1000
0001
0010
0001
1000
0100
1000
,
0001
0100
0010
1000
0001
0100
0001
1000
0100
0010
0100
1000
0001
1000
0010
0100
,
0001
0010
0100
1000
0001
0010
0100
0010
0001
1000
0100
0010
0001
0100
0001
1000
,
0001
0100
0010
1000
0001
0010
0100
0010
0001
1000
0010
1000
0001
0100
0001
1000
,
0002
0000
0000
0003
,
0000
0000
0000
0000
,
1000
1000
0010
0100
0100
0001
1000
0100
,
0010
0010
0100
1000
1000
0001
0100
0010
,
0100
0100
0001
0010
0010
0100
1000
0010
,
0100
0100
0001
1000
1000
0001
0010
0100
,
1000
1000
0001
0010
0010
0001
0100
0010
,
0100
0100
0001
0010
0010
0100
1000
0001
,
1MM0
1000
0100
0010
0100
1000
0100
0010
,
0001
0001
1000
0010
1000
0001
1000
0010
,
1000
1000
0001
0100
0010
0100
0001
0100
,
0010
0010
1000
0100
0010
0100
1000
0100
,
0010
0010
0100
1000
0001
1000
0100
1000
,
0001
0001
0100
0010
1000
0010
0100
0001
,
0010
0010
0001
1000
0010
0100
0010
1000
,
0100
0100
1000
0001
0100
0010
0100
0001
,
1MM0
1000
0001
0010
0100
1000
0100
0010
,
0001
0001
1000
0010
0100
0001
0100
0010
,
1000
1000
0001
0010
0100
1000
0100
0010
,
0001
0001
1000
0010
0100
0001
0100
0020
,
0000
0000
0000
0000
,
0000
0000
0000
0000
,
M030
M000
000M
000M
,
00M0
0000
0000
0000
00M0
0000
0000
0000
0M00
0000
0000
0000
1000
0100
0010
0001
,
1000
0001
1000
0020
1030
0002
1003
0200
,
0310
0100
1000
0002
0103
0020
0130
0002
,
1003
0100
0010
0002
1003
0020
0130
0002
,
1003
0100
1000
0002
0103
0020
1030
0200
,
1300
0100
0010
0002
1003
0020
1030
0002
,
0103
0010
1000
0200
1300
0020
1030
0002
,
0013
0100
1000
0020
0130
0020
1030
0020
,
0130
0000
0000
0000
0000
0000
0000
0000
0001
0000
0000
0000
0000
0000
0000
0000
0100
0000
0000
0000
0000
0000
0000
0000
0020
0000
0000
0000
0000
0000
0000
0000
1030
0000
0000
0000
0000
0000
0000
0000
0200
0000
0000
0000
0000
0000
0000
0000
0310
0000
0000
0000
0000
0000
0000
0000
0002
0000
0000
0000
0000
0000
0000
0003
,
1001
1000
0001
0200
0310
2000
3001
0200
,
0301
0010
0100
2000
3001
0200
0301
0020
,
0031
0100
0010
2000
3001
0200
0310
2000
,
3001
0010
0100
2000
3001
0200
0301
0020
,
0031
0100
0010
2000
3001
0200
0310
2000
,
3001
0010
0100
2000
3001
0200
0301
0020
,
0031
0100
0010
2000
3001
2000
3010
2000
,
3001
0010
0100
2000
3001
0200
0301
0020
,
1130
0000
0000
0000
,
2000
3020
0230
0302
,
1003
0100
0010
0001
1000
0001
0010
0001
0100
0010
1000
0001
0100
0010
0100
0001
,
1000
0100
0010
0100
1000
0001
0010
0001
0100
0010
1000
0001
1000
0100
1000
0001
,
0100
0001
1000
0100
1000
0001
0010
0001
0100
0010
1000
0010
0100
0001
1000
0100
,
0010
0100
1000
0001
0010
0001
1000
0001
1000
0010
0100
0001
0100
0010
1000
0100
,
0010
0001
0010
0100
1000
0001
0010
0001
0100
0010
1000
0010
0100
0001
1000
0100
,
0010
0001
1000
0100
1000
0001
0010
0001
0100
0010
0100
0001
1000
0100
0010
0100
,
1000
0001
0100
0010
1000
0001
0010
0001
0100
0001
1000
0010
0100
0001
1000
0100
,
0010
0001
1000
0001
0010
0100
1000
0001
1000
0010
0100
0001
0100
0010
1000
0001
,
1000
0100
0010
0001
1000
0001
0010
0001
0100
0010
1000
0001
0100
0010
0100
0001
,
1000
0100
0010
0100
1000
0001
0010
0001
0100
0010
1000
0001
1000
0100
1000
0001
,
0100
0001
1000
0100
1000
0001
0010
0001
0100
0010
1000
0010
0100
0001
1000
0100
,
0010
0100
1000
0001
0010
0001
1000
0001
1000
0010
0100
0001
0100
0010
1000
0100
,
0010
0001
0010
0100
1000
0001
0010
0001
0100
0010
1000
0010
0100
0001
1000
0100
,
0010
0001
1000
0100
1000
0001
0010
0001
0100
0010
0100
0001
1000
0100
0010
0100
,
1000
0001
0100
0010
1000
0001
0010
0001
0100
0001
1000
0010
0100
0001
1000
0100
,
0010
0001
0100
0010
1000
0100
0010
0001
0100
0010
1000
0100
0010
0001
0100
0010
,
1000
0010
0100
0001
1000
0001
0100
0001
0010
0100
1000
0001
0010
0100
0010
0001
,
1000
0010
0100
0010
1000
0001
0100
0001
0010
0100
1000
0001
1000
0010
1000
0001
,
0010
0001
1000
0010
1000
0001
0100
0001
0010
0100
1000
0100
0010
0001
1000
0010
,
0100
0010
1000
0001
0100
0001
1000
0001
1000
0100
0010
0001
0010
0100
1000
0010
,
0100
0001
0100
0010
1000
0001
0100
0001
0010
0100
1000
0100
0010
0001
1000
0010
,
0100
0001
1000
0010
1000
0001
0100
0001
0010
0100
0010
0001
1000
0010
0100
0010
,
1000
0001
0010
0100
1000
0001
0100
0001
0010
0001
1000
0100
0010
0001
1000
0010
,
0100
0001
1000
0001
0100
0010
1000
0001
1000
0100
0010
0001
0010
0100
1000
0001
,
1000
0010
0100
0001
1000
0001
0100
0001
0010
0100
1000
0001
0010
0100
0010
0001
,
1000
0010
0100
0010
1000
0001
0100
0001
0010
0100
1000
0001
1000
0010
1000
0001
,
0010
0001
1000
0010
1000
0001
0100
0001
0010
0100
1000
0100
0010
0001
1000
0010
,
0100
0010
1000
0001
0100
0001
1000
0001
1000
0100
0010
0001
0010
0100
1000
0010
,
0100
0001
0100
0010
1000
0001
0100
0001
0010
0100
1000
0100
0010
0001
1000
0010
,
0100
0001
1000
0010
1000
0001
0100
0001
0010
0100
0010
0001
1000
0010
0100
0010
,
1000
0001
0010
0100
1000
0001
0100
0001
0010
0001
1000
0100
0010
0001
1000
0010
,
0100
0001
1000
0001
0100
0010
1000
0001
1000
0100
0010
0001
0010
0100
1000
0001
,
1000
0010
0100
0001
1000
0010
0100
0001
1000
0001
0100
0001
1000
0100
0010
0001
,
1000
0100
0010
0001
1000
0010
1000
0001
1000
0010
0100
0001
1000
0100
0010
0100
,
1000
0001
0010
0100
0010
0001
1000
0010
0100
0010
1000
0001
0100
0001
1000
0100
,
0010
0001
0010
0100
1000
0010
1000
0001
1000
0010
0100
0001
0100
0010
0100
0001
,
1000
0100
0010
0001
0010
0100
1000
0001
1000
0100
0010
0001
1000
0001
0010
0100
,
0010
0001
1000
0100
1000
0001
1000
0100
0010
0100
1000
0001
1000
0001
0100
0010
,
1000
0001
0100
0010
1000
0010
0100
0001
1000
0010
0100
0001
0100
0010
0100
0001
,
1000
0000
0100
0000
1000
0000
0100
0000
1000
0001
1000
0100
4000
0000
0000
0000
,
3001
0100
0010
1000
0001
1000
0010
1000
0100
0010
0001
1000
0001
0010
0001
1000
,
0001
0100
0010
1000
0001
1000
0010
1000
0100
0010
0001
1000
0001
0010
0001
1000
,
0001
0100
0010
1000
0001
1000
0010
1000
0100
0010
0001
1000
0001
0010
0001
1000
,
0001
0100
0010
1000
0001
1000
0010
1000
0100
0010
0001
1000
0001
0010
0100
1000
,
0001
0100
0010
1000
0001
1000
0010
1000
0100
0010
0001
1000
0001
0010
0001
1000
,
0001
0100
0010
1000
0001
1000
0010
1000
0100
0010
0001
1000
0001
0010
0001
1000
,
0001
0100
0010
1000
0001
1000
0010
1000
0100
0010
0001
1000
0001
0010
0001
1000
,
0001
0100
0010
0100
0001
1000
0100
0010
0001
1000
0001
0000
0102
0000
0000
0000
,
1003
0100
0010
0001
1000
0001
0010
0001
0100
0010
1000
0001
1000
0010
1000
0001
,
1000
0100
0010
0001
1000
0001
0010
0001
0100
0010
1000
0001
1000
0010
1000
0001
,
1000
0100
0010
0001
1000
0001
0010
0001
0100
0010
1000
0001
1000
0010
1000
0001
,
1000
0100
0010
0001
1000
0001
0010
0001
0100
0010
1000
0001
1000
0010
0100
0001
,
1000
0100
0010
0001
1000
0001
0010
0001
0100
0010
1000
0001
1000
0010
1000
0001
,
1000
0100
0010
0001
1000
0001
0010
0001
0100
0010
1000
0001
1000
0010
1000
0001
,
1000
0100
0010
0001
1000
0001
0010
0001
0100
0010
1000
0001
1000
0001
0100
0010
,
4000
0000
0000
0000
0000
0000
0000
0000
3001
0010
0001
0000
1002
0000
0000
0000
,
1003
0010
0100
0010
1000
0001
1000
0100
0010
0100
1000
0001
0010
0001
1000
0001
,
0100
0010
1000
0010
0100
0001
0010
0001
1000
0001
0010
0100
1000
0100
0010
0001
,
1000
0010
0100
0010
1000
0001
1000
0100
0010
0100
1000
0001
0010
0001
1000
0001
,
0100
0010
1000
0010
0100
0001
0010
0001
1000
0001
0010
0100
1000
0100
0010
0001
,
1000
0010
0100
0010
1000
0001
1000
0100
0010
0100
1000
0001
0010
0001
1000
0001
,
0100
0010
1000
0010
0100
0001
0010
0001
1000
0001
0010
0100
1000
0100
0010
0001
,
1000
0010
0100
0010
1000
0001
1000
0100
0010
0100
1000
0001
0010
0001
1000
0001
,
0100
0010
1000
0010
0100
0001
0010
0001
1000
0010
1000
0000
1002
0000
0000
0000
,
1003
0100
0010
0100
1000
0001
1000
0010
0100
0010
1000
0001
0100
0001
1000
0001
,
0010
0100
1000
0100
0010
0001
0100
0001
1000
0001
0100
0010
1000
0010
0100
0001
,
1000
0100
0010
0100
1000
0001
1000
0010
0100
0010
1000
0001
0100
0001
1000
0001
,
0010
0100
1000
0100
0010
0001
0100
0001
1000
0001
0100
0010
1000
0010
0100
0001
,
1000
0100
0010
0100
1000
0001
1000
0010
0100
0010
1000
0001
0100
0001
1000
0001
,
0010
0100
1000
0100
0010
0001
0100
0001
1000
0001
0100
0010
1000
0010
0100
0001
,
1000
0100
0010
0100
1000
0001
1000
0010
0100
0010
1000
0001
0100
0001
1000
0001
,
2000
3200
0320
0032
,
1003
0100
0010
0001
1000
0001
0010
0001
0100
0010
1000
0001
0100
0010
0100
0001
,
1000
0100
0010
0100
1000
0001
0010
0001
0100
0010
1000
0001
1000
0100
1000
0001
,
0100
0001
1000
0100
1000
0001
0010
0001
0100
0010
1000
0010
0100
0001
1000
0100
,
0010
0100
1000
0001
0010
0001
1000
0001
1000
0010
0100
0001
0100
0010
1000
0100
,
0010
0001
0010
0100
1000
0001
0010
0001
0100
0010
1000
0010
0100
0001
1000
0100
,
0010
0001
1000
0100
1000
0001
0010
0001
0100
0010
0100
0001
1000
0100
0010
0100
,
1000
0001
0100
0010
1000
0001
0010
0001
0100
0001
1000
0010
0100
0001
1000
0100
,
0010
0001
1000
0001
0010
0100
1000
0001
1000
0010
0100
0001
0100
0010
1000
0001
,
1000
0100
0010
0001
1000
0001
0010
0001
0100
0010
1000
0001
0100
0010
0100
0001
,
1000
0100
0010
0100
1000
0001
0010
0001
0100
0010
1000
0001
1000
0100
1000
0001
,
0100
0001
1000
0100
1000
0001
0010
0001
0100
0010
1000
0010
0100
0001
1000
0100
,
0010
0100
1000
0001
0010
0001
1000
0001
1000
0010
0100
0001
0100
0010
1000
0100
,
0010
0001
0010
0100
1000
0001
0010
0001
0100
0010
1000
0010
0100
0001
1000
0100
,
0010
0001
1000
0100
1000
0001
0010
0001
0100
0010
0100
0001
1000
0100
0010
0100
,
1000
0001
0100
0010
1000
0001
0010
0001
0100
0001
1000
0010
0100
0001
1000
0100
,
0010
0001
0100
0010
1000
0100
0010
0001
0100
0010
1000
0100
0010
0001
0100
0010
,
1000
0010
0100
0001
1000
0001
0100
0001
0010
0100
1000
0001
0010
0100
0010
0001
,
1000
0010
0100
0010
1000
0001
0100
0001
0010
0100
1000
0001
1000
0010
1000
0001
,
0010
0001
1000
0010
1000
0001
0100
0001
0010
0100
1000
0100
0010
0001
1000
0010
,
0100
0010
1000
0001
0100
0001
1000
0001
1000
0100
0010
0001
0010
0100
1000
0010
,
0100
0001
0100
0010
1000
0001
0100
0001
0010
0100
1000
0100
0010
0001
1000
0010
,
0100
0001
1000
0010
1000
0001
0100
0001
0010
0100
0010
0001
1000
0010
0100
0010
,
1000
0001
0010
0100
1000
0001
0100
0001
0010
0001
1000
0100
0010
0001
1000
0010
,
0100
0001
1000
0001
0100
0010
1000
0001
1000
0100
0010
0001
0010
0100
1000
0001
,
1000
0010
0100
0001
1000
0001
0100
0001
0010
0100
1000
0001
0010
0100
0010
0001
,
1000
0010
0100
0010
1000
0001
0100
0001
0010
0100
1000
0001
1000
0010
1000
0001
,
0010
0001
1000
0010
1000
0001
0100
0001
0010
0100
1000
0100
0010
0001
1000
0010
,
0100
0010
1000
0001
0100
0001
1000
0001
1000
0100
0010
0001
0010
0100
1000
0010
,
0100
0001
0100
0010
1000
0001
0100
0001
0010
0100
1000
0100
0010
0001
1000
0010
,
0100
0001
1000
0010
1000
0001
0100
0001
0010
0100
0010
0001
1000
0010
0100
0010
,
1000
0001
0010
0100
1000
0001
0100
0001
0010
0001
1000
0100
0010
0001
1000
0010
,
0100
0001
1000
0001
0100
0010
1000
0001
1000
0100
0010
0001
0010
0100
1000
0001
,
0100
0010
1000
0001
0010
0100
1000
0010
,
0100
0001
0100
0010
1000
0100
0010
0001
,
1000
0010
1000
0001
1000
0010
0100
0001
0100
0010
1000
0001
0010
0100
1000
0001
,
1000
0000
0000
0100
0000
0000
0010
0000
0000
0001
0000
0000
1000
0000
0000
0001
0000
0000
0010
0000
0000
0001
0000
0000
0400
0000
0040
0000
0000
0000
0000
0000
0000
0000
0000
0000
0000
0000
0000
0000
0000
0000
0000
0000
0000
0000
0000
0000
,
0330
0000
0000
0000
,
0000
0000
0000
0000
,
1001
0000
0000
0000
;

//---------------dance-single - 15 (TYLR)----------------
#NOTES:
     dance-single:
     15 (TYLR):
     Hard:
     15:
     1.000,1.000,0.112,0.993,1.000,2298.000,33.000,293.000,24.000,0.000:
0000
0000
0000
0000
,
1001
0000
0000
0001
0000
0000
0100
0000
0000
0000
0100
0000
0000
0000
0100
0000
,
0100
0000
0000
0010
0000
0000
1000
0000
0000
0000
1000
0000
0000
0000
1000
0000
,
1000
0000
0000
0001
0000
0000
0010
0000
0000
0000
0010
0000
0000
0000
0010
0000
,
0010
0000
0000
0100
0000
0000
1000
0000
1000
0100
0010
0000
0022
0000
0033
0000
,
0001
0000
0000
1000
0000
0000
0010
0000
0000
0000
0010
0000
0000
0000
0010
0000
,
0010
0000
0000
0100
0000
0000
0001
0000
0000
0000
0001
0000
0000
0000
0001
0000
,
0001
0000
0000
1000
0000
0000
0100
0000
0000
0000
0100
0000
0000
0000
0100
0000
,
0100
0000
0000
0010
0000
0000
0001
0000
0001
0010
0001
0000
2002
0000
3003
0000
,
1000
0000
0000
0010
0000
0000
0100
0000
0000
0000
0100
0000
0000
0000
0100
0000
,
0100
0000
0000
0001
0000
0000
0010
0000
0000
0000
0010
0000
0000
0000
0010
0000
,
0010
0000
0000
0100
0000
0000
1000
0000
0000
0000
1000
0000
0000
0000
1000
0000
,
1000
0000
0000
0001
0000
0000
0100
0000
0100
0010
1000
0000
0202
0000
0303
0000
,
0010
0000
0000
1000
0000
0000
0001
0000
0000
0000
0001
0000
0000
0000
0001
0000
,
0001
0000
0000
0010
0000
0000
0100
0000
0000
0000
0100
0000
0000
0000
0100
0000
,
0100
1000
0100
0010
0001
1000
0001
1000
0010
0100
0001
1000
0100
0010
0100
0010
,
0004
0000
4000
0000
0000
0000
0000
0000
0000
0000
0000
0000
0000
0000
0000
0000
0000
0000
0000
0000
0000
0000
0000
0000
3013
0000
0000
0100
0000
0000
0010
0000
0000
0000
0000
0000
2002
0000
0000
0000
0000
0000
3003
0000
0000
0000
0000
0000
,
1000
0000
0100
0010
0000
0100
0010
0000
0001
0000
1000
0000
1000
0000
0010
0000
,
0100
0000
0001
1000
0000
0001
1000
0000
0100
0000
0010
0000
0002
0000
0000
0000
,
1003
0000
0001
0010
0000
0001
0010
0000
0100
0000
1000
0000
1000
0000
0001
0000
,
0100
0000
0010
1000
0000
0010
1000
0000
0001
1000
0001
0000
0022
0000
0033
0000
,
0001
0000
0010
0100
0000
0010
0100
0000
1000
0000
0001
0000
0001
0000
0100
0000
,
0010
0000
1000
0001
0000
1000
0001
0000
0010
0000
0100
0000
2000
0000
0000
0000
,
3001
0000
1000
0100
0000
1000
0100
0000
0010
0000
0002
0000
0000
0000
1003
0000
,
0010
0000
0100
0001
0000
0100
0010
0000
1000
0001
1000
0000
2200
0000
3300
0000
,
0001
0000
0010
0100
0000
1000
0100
0000
0010
0000
0001
0000
0001
0000
1000
0000
,
0010
0000
0100
0001
0000
1000
0001
0000
0100
0000
0010
0000
2000
0000
0000
0000
,
3001
0000
1000
0010
0000
0100
0010
0000
1000
0000
0001
0000
0001
0000
0010
0000
,
0100
0000
1000
0001
0000
0100
0001
0000
1000
0001
1000
0000
2200
0000
3300
0000
,
0010
0000
0100
1000
0000
0001
1000
0000
0100
0000
0010
0000
0010
0000
0001
0000
,
1000
0000
0010
0100
0000
0001
0100
0000
0010
0000
1000
0000
0200
0000
0000
0000
,
0310
0100
1000
0100
0010
0001
0010
0001
1000
0010
0100
0001
1000
0001
0100
0010
,
4000
0000
0004
0000
0000
0000
0000
0000
0000
0000
0000
0000
0000
0000
0000
0000
0000
0000
0000
0000
0000
0000
3000
0000
0013
0000
0000
0100
0000
0000
0010
0000
0000
0000
0000
0000
0022
0000
0000
0000
0000
0000
0033
0000
0000
0000
0000
0000
,
2000
3000
0010
0000
0200
0300
0010
0000
1000
0000
0001
0000
0100
0000
0001
0000
,
2000
3000
0010
0000
0200
0300
0002
0003
1000
0000
0001
0000
0010
0000
0100
0000
,
2000
3000
0001
0000
0200
0300
0001
0000
1000
0000
0010
0000
0100
0000
0010
0000
,
2000
3000
0001
0000
0200
0300
0020
0030
1000
0001
1000
0000
0220
0000
0330
0000
,
2000
3000
0100
0000
0020
0030
0100
0000
1000
0000
0001
0000
0100
0000
0001
0000
,
2000
3000
0100
0000
0020
0030
0002
0003
1000
0000
0001
0000
0100
0000
0001
0000
,
2000
3000
0100
0000
0020
0030
0100
0000
1000
0000
0001
0000
0100
0000
0001
0000
,
2000
3000
0100
0000
0020
0030
0002
0003
0100
0010
0100
0000
2002
0000
3003
0000
,
0002
0003
0100
0000
0020
0030
0100
0000
0001
0000
1000
0000
0100
0000
1000
0000
,
0002
0003
0100
0000
0020
0030
2000
3000
0001
0000
0010
0000
0100
0000
1000
0000
,
0002
0003
0100
0000
0020
0030
0100
0000
0001
0000
1000
0000
0100
0000
1000
0000
,
0002
0003
0100
0000
0020
0030
2000
3000
0001
0010
0001
0000
2200
0000
3300
0000
,
0002
0003
0010
0000
0200
0300
0010
0000
0001
0000
1000
0000
0010
0000
1000
0000
,
0002
0003
0010
0000
0200
0300
2000
3000
0001
0000
0100
0000
0010
0000
1000
0000
,
0001
0010
0001
0010
0100
1000
0100
1000
0001
0100
0010
1000
0100
0010
0001
0100
,
0040
0000
4000
0000
0000
0000
0000
0000
0000
0000
0000
0000
0000
0000
0000
0000
0000
0000
0000
0000
0000
0030
0000
0000
3001
0000
0000
0100
0000
0000
0001
0000
0000
0000
0000
0000
2002
0000
0000
0000
0000
0000
3003
0000
0000
0000
0000
0000
,
10M0
0100
1000
0100
0000
0100
0010
0100
,
1000
0001
1000
0001
0000
0001
0100
0001
,
1000
0100
1000
0100
0000
0100
0010
0100
,
1000
0000
0001
0000
0000
0000
0001
0000
0100
0001
0100
0000
2020
0000
3030
0000
,
0001
0010
0001
0010
0000
0010
0100
0010
,
0001
1000
0001
1000
0000
1000
0010
1000
,
0100
0010
0100
0010
0000
0010
0001
0010
,
0100
0000
1000
0000
0000
0000
1000
0000
0100
1000
0100
0000
0022
0000
0033
0000
,
1000
0010
1000
0010
0000
0010
0100
0010
,
1000
0001
1000
0001
0000
0001
0010
0001
,
1000
0010
1000
0010
0000
0010
0100
0010
,
1000
0000
0100
0000
0000
0000
0100
0000
0010
0001
0010
0000
2200
0000
3300
0000
,
0001
1000
0001
1000
0000
1000
0100
1000
,
0010
0100
0010
0100
0000
0100
0001
0100
,
0010
0000
1000
0000
0010
0000
1000
0000
0001
1000
0010
0100
0001
0100
0010
1000
,
0001
0000
0000
1000
0000
0000
0100
0000
0000
0010
0000
0000
0001
0000
0000
0010
0000
0000
0100
0000
0000
1000
0000
0000
0004
0000
4000
0000
0000
0000
0000
0000
0000
0000
0000
0000
0000
0000
0000
0000
0000
0000
0000
0000
0003
0000
0000
0000
,
3010
2000
3200
1300
0020
0230
0310
2000
,
3001
0020
0230
0310
0002
0203
0310
2000
,
3010
0200
0302
0013
0200
2300
3001
0200
,
0301
0000
2000
0000
3200
0000
0310
0000
0001
0010
0001
0000
0202
0000
0303
0000
,
1000
0200
0320
0031
0200
0320
1030
0002
,
1003
0020
0230
0301
0020
0230
1300
0002
,
0103
0002
0023
0130
2000
3020
0130
0002
,
0103
0000
0020
0000
2030
0000
3100
0000
0010
0001
0010
0000
2200
0000
3300
0000
,
0001
0200
0320
1030
0200
0320
0031
0200
,
0301
0020
0230
1300
0020
0230
0301
0020
,
0031
0200
0320
1030
0200
0320
0130
2000
,
3010
0000
0200
0000
0302
0000
1003
0000
0100
0010
0100
0000
2002
0000
3003
0000
,
1000
0020
0230
0301
0020
0230
1300
0002
,
1003
0200
0320
0031
0200
0320
1030
0002
,
1003
0010
1000
0010
0100
0001
0100
0001
1000
0001
0010
0100
1000
0001
0100
0010
,
4000
0004
0000
0000
0000
0000
0000
0000
0000
0000
0000
0000
0000
0000
0000
0000
0000
0000
0000
0000
0000
0000
0000
0003
,
30M0
0000
0000
0M00
,
0000
00M0
000M
M000
,
0000
0M00
00M0
0M00
,
0000
0M00
00M0
0M00
,
M000
0000
M000
000M
,
0000
00M0
0000
0M00
,
0000
0000
0000
0000
,
2000
0000
3200
0000
0320
0000
0032
0003
,
1MM2
0000
0203
0320
,
0000
0230
0302
2003
,
0000
3200
0320
0032
,
0003
0002
0023
0032
,
2003
0000
0000
3000
2000
0000
3020
0000
,
0000
0000
0000
0000
0230
0000
0000
0000
0000
0000
0000
0300
0200
0000
0000
0000
,
0000
0302
0003
0002
,
0000
0023
0000
0230
,
13MM
0100
0010
0100
1000
0010
0100
0001
,
1000
0001
0010
0100
1000
0010
0100
0001
,
1000
0001
0010
0100
1000
0010
1000
0100
,
0010
0001
0100
0010
1000
0100
0010
0002
,
0000
0000
0000
0000
,
0000
0000
0000
0000
,
1003
1000
0010
0010
,
0100
0000
0000
0000
0100
0000
0000
0000
0001
0000
0000
0000
0001
0010
0100
1000
,
0002
1003
0100
0020
0130
2000
3001
0200
,
0320
1030
0001
0020
0031
0200
0310
2000
,
3020
0130
0001
0020
0130
2000
3100
0020
,
0032
0103
0010
2000
3100
0020
0031
2000
,
3002
0103
0001
0020
0130
2000
3001
0200
,
0320
1030
0001
0020
0031
0200
0310
2000
,
3002
1003
0001
0020
0130
0020
0031
2000
,
3020
0130
0001
2000
3100
0020
0031
0200
,
M3M2
1003
0100
0020
0130
2000
3001
0200
,
0320
1030
0001
0020
0031
0200
0310
2000
,
3020
0130
0001
0020
0130
2000
3100
0020
,
0032
0103
0010
2000
3100
0020
0031
2000
,
3002
0103
0001
0020
0130
2000
3001
0200
,
0320
1030
0001
0020
0031
0200
0310
2000
,
3001
0100
0001
0020
0130
0020
0031
2000
,
3010
0100
0010
1000
0001
0100
0001
1000
0100
0010
0001
0010
0100
1000
0001
0100
,
0010
0010
0010
0010
,
2000
0000
0000
0000
0000
0000
0000
3000
2000
0000
0000
0000
0000
0000
0000
0000
3020
0000
0000
0000
0000
0000
0000
0030
0020
0000
0000
0000
0000
0000
0000
0000
0230
0000
0000
0000
0000
0000
0000
0300
0200
0000
0000
0000
0000
0000
0000
0000
0302
0000
0000
0000
0000
0000
0000
0003
0002
0000
0000
0000
0000
0000
0000
0000
,
1003
0100
0010
0001
1000
0100
0010
0001
1000
0010
0100
0001
0010
0001
0010
0001
,
0010
0001
0010
0001
1000
0010
0100
0001
1000
0001
0100
0010
1000
0001
1000
0001
,
1000
0001
1000
0001
1000
0100
0010
0001
1000
0001
0010
0100
1000
0001
1000
0001
,
1000
0010
0100
0001
1000
0001
1000
0001
0010
0001
0010
0001
1000
0001
1000
0001
,
0010
0100
1000
0001
0010
0100
1000
0001
1000
0010
0100
0001
0010
0001
0010
0001
,
0010
0001
0010
0001
1000
0010
1000
0010
1000
0010
1000
0010
0100
0001
0100
0001
,
0100
0001
1000
0001
0010
0100
1000
0001
0100
0010
1000
0010
0100
0001
1000
0001
,
1000
0100
1000
0100
0010
0100
0010
0100
0010
0001
0010
0001
1000
0001
1000
0001
,
1000
0010
0100
0001
1000
0010
0100
0001
1000
0100
0010
0001
0100
0001
0100
0001
,
0100
0001
0100
0001
1000
0100
0010
0001
1000
0001
0010
0100
1000
0001
1000
0001
,
1000
0001
1000
0001
1000
0010
0100
0001
1000
0001
0100
0010
1000
0001
1000
0001
,
1000
0100
0010
0001
1000
0001
1000
0001
0100
0001
0100
0001
1000
0001
1000
0001
,
0100
0010
1000
0001
0100
0010
1000
0001
1000
0100
0010
0001
0100
0001
0100
0001
,
0100
0001
0100
0001
1000
0010
1000
0010
1000
0010
1000
0010
0100
0001
1000
0010
,
1000
0010
1000
0010
0100
0001
1000
0001
0100
0010
1000
0001
0010
0100
1000
0001
,
1000
0010
1000
0010
0100
0010
0100
0010
0100
0001
0100
0001
1000
0001
1000
0001
,
1000
0100
0010
0001
1000
0100
0010
0001
1000
0010
0100
0001
0010
0100
0010
0100
,
0010
0100
0010
0100
1000
0100
0010
0001
1000
0001
0010
0100
1000
0001
1000
0001
,
1000
0001
1000
0001
1000
0010
0100
0001
1000
0001
0100
0010
1000
0001
1000
0010
,
0100
0001
1000
0001
0100
0010
0100
0010
1000
0010
1000
0010
0100
0010
0100
0010
,
1000
0001
0100
0010
1000
0001
0100
0010
1000
0010
0100
0001
0010
0001
0010
0001
,
0010
0001
0010
0001
1000
0001
1000
0001
1000
0001
1000
0001
0100
0001
0100
0001
,
0100
0010
1000
0001
0010
0100
1000
0001
0100
0010
1000
0001
0010
0100
1000
0100
,
0010
0001
0010
0001
0010
0100
0010
0100
1000
0100
1000
0100
1000
0001
1000
0001
,
1000
0010
0100
0001
1000
0010
0100
0001
1000
0100
0010
0001
0100
0010
0100
0010
,
0100
0010
0100
0010
1000
0010
0100
0001
1000
0001
0100
0010
1000
0001
1000
0001
,
1000
0001
1000
0001
1000
0100
0010
0001
1000
0001
0010
0100
1000
0001
0100
0001
,
1000
0100
0010
0001
1000
0100
1000
0100
0010
0001
0010
0001
1000
0100
1000
0100
,
0010
0001
1000
0001
0010
0100
1000
0100
0010
0001
1000
0001
0100
0010
0100
0010
,
0100
0010
0100
0010
1000
0010
1000
0010
1000
0010
1000
0010
0100
0001
1000
0010
,
1000
0010
1000
0010
0100
0001
1000
0001
0100
0010
1000
0001
1000
0100
1000
0100
,
1000
0100
1000
0100
0010
0001
0010
0001
0010
0001
0010
0001
0100
0001
0100
0001
,
1000
0100
0010
0001
0100
0001
0010
0100
1000
0001
0100
0010
1000
0010
1000
0010
,
0100
0001
1000
0100
0010
0001
0010
0001
1000
0100
0010
0001
0100
0001
0100
0001
,
1000
0100
0010
0100
1000
0001
0010
0001
1000
0001
0100
0001
1000
0010
0100
0001
,
1000
0100
0010
0001
1000
0001
0010
0100
1000
0010
0100
0001
1000
0001
0100
0010
,
1000
0010
0100
0001
0010
0001
1000
0010
0100
0001
0010
0001
1000
0010
0100
0001
,
1000
0100
0010
0001
0100
0001
1000
0100
0010
0001
0100
0001
1000
0100
0010
0100
,
1000
0010
0100
0001
0010
0100
1000
0010
0100
0001
0010
0100
1000
0010
0100
0001
,
1000
0000
0000
0000
0000
0000
0100
0000
0000
0000
0000
0000
0010
0000
0000
0000
0000
0000
0001
0000
0000
0000
0000
0000
1000
0000
0000
0010
0000
0000
0100
0000
0000
0001
0000
0000
4000
0000
0004
0000
0000
0000
0000
0000
0000
0000
3003
0000
,
0100
0000
0010
1000
0000
0010
1000
0000
0001
0000
0010
0000
0010
0000
0100
0000
,
1000
0000
0001
0100
0000
0001
0100
0000
0010
0000
1000
0000
0200
0000
0000
0000
,
0310
0000
0001
1000
0000
0001
1000
0000
0010
0000
0100
0000
0100
0000
0001
0000
,
1000
0000
0001
0010
0000
0001
0010
0000
0100
1000
0100
0000
2002
0000
3003
0000
,
0001
0000
1000
0010
0000
1000
0010
0000
0100
0000
0001
0000
0001
0000
1000
0000
,
0100
0000
0010
0001
0000
0010
0001
0000
0100
0000
0010
0000
2000
0000
0000
0000
,
3001
0000
0010
0100
0000
0010
0100
0000
1000
0000
0002
0000
0000
0000
0103
0000
,
0010
0000
1000
0001
0000
1000
0010
0000
0100
0001
0100
0000
2020
0000
3030
0000
,
1000
0000
0001
0010
0000
0100
0010
0000
0001
0000
1000
0000
1000
0000
0010
0000
,
0100
0000
0001
1000
0000
0010
1000
0000
0001
0000
0010
0000
0200
0000
0000
0000
,
1300
0000
0100
0010
0000
0001
0010
0000
0100
0000
1000
0000
1000
0000
0001
0000
,
0100
0000
0001
1000
0000
0100
1000
0000
0001
1000
0001
0000
0202
0000
0303
0000
,
0001
0000
0010
0100
0000
1000
0100
0000
0010
0000
0001
0000
0001
0000
1000
0000
,
0001
0000
0100
0010
0000
1000
0010
0000
0100
0000
0001
0000
2000
0000
0000
0000
,
3001
0010
0100
1000
0001
1000
0100
0010
0001
1000
0001
0100
0010
1000
0010
0100
,
0004
0000
0400
0000
0000
0000
0000
0000
0000
0000
0000
0000
0000
0000
0000
0000
0000
0000
0000
0000
0000
0000
0003
0000
0310
0000
0000
1000
0000
0000
0010
0000
0000
0000
0000
0000
2002
0000
0000
0000
0000
0000
3003
0000
0000
0000
0000
0000
,
2000
3000
0001
0000
0020
0030
0001
0000
1000
0000
0010
0000
0100
0000
0010
0000
,
2000
3000
0001
0000
0020
0030
0200
0300
1000
0000
0001
0000
0100
0000
0001
0000
,
2000
3000
0100
0000
0020
0030
0100
0000
1000
0000
0001
0000
0010
0000
0001
0000
,
2000
3000
0100
0000
0020
0030
0002
0003
1000
0001
1000
0000
0220
0000
0330
0000
,
2000
3000
0010
0000
0200
0300
0010
0000
1000
0000
0001
0000
0010
0000
0001
0000
,
2000
3000
0010
0000
0200
0300
0002
0003
1000
0000
0001
0000
0010
0000
0001
0000
,
2000
3000
0010
0000
0200
0300
0010
0000
1000
0000
0001
0000
0010
0000
0001
0000
,
2000
3000
0010
0000
0200
0300
0002
0003
0010
0100
0010
0000
2002
0000
3003
0000
,
0002
0003
0010
0000
0200
0300
0010
0000
0001
0000
1000
0000
0010
0000
1000
0000
,
0002
0003
0010
0000
0200
0300
2000
3000
0001
0000
0100
0000
0010
0000
1000
0000
,
0002
0003
0010
0000
0200
0300
0010
0000
0001
0000
1000
0000
0010
0000
1000
0000
,
0002
0003
0010
0000
0200
0300
2000
3000
0001
0100
0001
0000
2020
0000
3030
0000
,
0002
0003
0100
0000
0020
0030
0100
0000
0001
0000
1000
0000
0100
0000
1000
0000
,
0002
0003
0100
0000
0020
0030
2000
3000
0001
0000
0010
0000
0100
0000
1000
0000
,
0001
0100
0001
0100
0010
1000
0010
1000
0001
0010
0100
1000
0001
1000
0010
0100
,
0002
0000
0000
0000
0000
0000
0000
0003
0002
0000
0000
0000
0000
0000
0000
0000
0023
0000
0000
0000
0000
0000
0000
0030
0020
0000
0000
0000
0000
0000
0000
0000
0230
0000
0000
0000
0000
0000
0000
0300
0200
0000
0000
0000
0000
0000
0000
0000
2300
0000
0000
0000
0000
0000
0000
3000
2000
0000
0000
0000
0000
0000
0000
0000
,
3001
0100
0010
1000
0001
0100
0010
1000
0001
0010
0100
1000
0010
1000
0010
1000
,
0010
1000
0010
1000
0001
0010
0100
1000
0001
1000
0100
0010
0001
1000
0001
1000
,
0001
1000
0001
1000
0001
0100
0010
1000
0001
1000
0010
0100
0001
1000
0001
1000
,
0001
0010
0100
1000
0001
1000
0001
1000
0010
1000
0010
1000
0001
1000
0001
1000
,
0010
0100
0001
1000
0010
0100
0001
1000
0001
0010
0100
1000
0010
1000
0010
1000
,
0010
1000
0010
1000
0001
0010
0001
0010
0001
0010
0001
0010
0100
1000
0100
1000
,
0100
1000
0001
1000
0010
0100
0001
1000
0100
0010
0001
0010
0100
1000
0001
1000
,
0001
0100
0001
0100
0010
0100
0010
0100
0010
1000
0010
1000
0001
1000
0001
1000
,
0001
0010
0100
1000
0001
0010
0100
1000
0001
0100
0010
1000
0100
1000
0100
1000
,
0100
1000
0100
1000
0001
0100
0010
1000
0001
1000
0010
0100
0001
1000
0001
1000
,
0001
1000
0001
1000
0001
0010
0100
1000
0001
1000
0100
0010
0001
1000
0001
1000
,
0001
0100
0010
1000
0001
1000
0001
1000
0100
1000
0100
1000
0001
1000
0001
1000
,
0100
0010
0001
1000
0100
0010
0001
1000
0001
0100
0010
1000
0100
1000
0100
1000
,
0100
1000
0100
1000
0001
0010
0001
0010
0001
0010
0001
0010
0100
1000
0001
0010
,
0001
0010
0001
0010
0100
1000
0001
1000
0100
0010
0001
1000
0010
0100
0001
1000
,
0001
0010
0001
0010
0100
0010
0100
0010
0100
1000
0100
1000
0001
1000
0001
1000
,
0001
0100
0010
1000
0001
0100
0010
1000
0001
0010
0100
1000
0010
0100
0010
0100
,
0010
0100
0010
0100
0001
0100
0010
1000
0001
1000
0010
0100
0001
1000
0001
1000
,
0001
1000
0001
1000
0001
0010
0100
1000
0001
1000
0100
0010
0001
1000
0001
0010
,
0100
1000
0001
1000
0100
0010
0100
0010
0001
0010
0001
0010
0100
0010
0100
0010
,
0001
1000
0100
0010
0001
1000
0100
0010
0001
0010
0100
1000
0010
1000
0010
1000
,
0010
1000
0010
1000
0001
1000
0001
1000
0001
1000
0001
1000
0100
1000
0100
1000
,
0100
0010
0001
1000
0010
0100
0001
1000
0100
0010
0001
1000
0010
0100
0001
0100
,
0010
1000
0010
1000
0010
0100
0010
0100
0001
0100
0001
0100
0001
1000
0001
1000
,
0001
0010
0100
1000
0001
0010
0100
1000
0001
0100
0010
1000
0100
0010
0100
0010
,
0100
0010
0100
0010
0001
0010
0100
1000
0001
1000
0100
0010
0001
1000
0001
1000
,
0001
1000
0001
1000
0001
0100
0010
1000
0001
1000
0010
0100
0001
1000
0100
1000
,
0001
0100
0010
1000
0001
0100
0001
0100
0010
1000
0010
1000
0001
0100
0001
0100
,
0010
1000
0001
1000
0010
0100
0001
0100
0010
1000
0001
1000
0100
0010
0100
0010
,
0100
0010
0100
0010
0001
0010
0001
0010
0001
0010
0001
0010
0100
1000
0001
0010
,
0001
0010
0001
0010
0100
1000
0001
1000
0100
0010
0001
1000
0001
0100
0001
0100
,
0001
0100
0001
0100
0010
1000
0010
1000
0001
0010
0100
1000
0010
0100
0001
0010
,
0100
0100
1000
1000
0001
0001
0100
0100
,
0010
0010
1000
1000
0100
0100
0010
0010
,
0001
0010
0001
0010
0100
1000
0100
1000
0001
0100
0001
0100
0010
1000
0001
1000
,
0100
0000
0000
0010
0000
0000
0001
0000
0000
0100
0000
0000
0010
0000
0000
1000
0000
0000
0100
0000
0000
1000
0000
0000
0001
0000
1000
0000
0001
0000
1000
0000
0000
0000
0000
0000
0010
0000
0000
0000
0000
0000
0200
0000
0000
0000
0000
0000
,
0000
0000
0000
0000
,
0000
0000
0000
0000
,
0300
M000
0000
0000
0000
0000
0000
0000
0000
0000
0000
0000
0000
0000
0000
0000
0000
0000
0000
0000
0000
0000
0000
0000
0000
0000
0000
0000
0000
0000
0000
0000
0000
0000
0000
0000
0000
0000
0000
0000
0000
0000
0000
0000
0000
0000
0000
0000
;

//---------------dance-single - 11 (TYLR)----------------
#NOTES:
     dance-single:
     11 (TYLR):
     Medium:
     11:
     1.000,1.000,0.102,0.987,0.388,1764.000,30.000,291.000,30.000,0.000:
0000
0000
0000
0000
,
1001
0000
0000
1000
0000
0000
0010
0000
0000
0000
0010
0000
0000
0000
0010
0000
,
0010
0000
0000
0100
0000
0000
0001
0000
0000
0000
0001
0000
0000
0000
0001
0000
,
0001
0000
0000
1000
0000
0000
0100
0000
0000
0000
0100
0000
0000
0000
0100
0000
,
0100
0000
0000
0010
0000
0000
0001
0000
0001
0010
0100
0000
2200
0000
3300
0000
,
1000
0000
0000
0001
0000
0000
0100
0000
0000
0000
0100
0000
0000
0000
0100
0000
,
0100
0000
0000
0010
0000
0000
1000
0000
0000
0000
1000
0000
0000
0000
1000
0000
,
1000
0000
0000
0001
0000
0000
0010
0000
0000
0000
0010
0000
0000
0000
0010
0000
,
0010
0000
0000
0100
0000
0000
1000
0000
1000
0100
1000
0000
2002
0000
3003
0000
,
0001
0000
0000
0100
0000
0000
0010
0000
0000
0000
0010
0000
0000
0000
0010
0000
,
0010
0000
0000
1000
0000
0000
0100
0000
0000
0000
0100
0000
0000
0000
0100
0000
,
0100
0000
0000
0010
0000
0000
0001
0000
0000
0000
0001
0000
0000
0000
0001
0000
,
0001
0000
0000
1000
0000
0000
0010
0000
0010
0100
0001
0000
2020
0000
3030
0000
,
0100
0000
0000
0001
0000
0000
1000
0000
0000
0000
1000
0000
0000
0000
1000
0000
,
1000
0000
0000
0100
0000
0000
0010
0000
0000
0000
0010
0000
0000
0000
0010
0000
,
0001
0010
0100
1000
0001
1000
0001
1000
0001
0100
0010
1000
0001
1000
0001
1000
,
0100
0000
0010
0000
0001
0000
1000
0000
0010
1000
0010
0000
0120
0000
0130
0000
,
0001
0000
1000
0100
0000
1000
0100
0000
0010
0000
0001
0000
0001
0000
0100
0000
,
0010
0000
1000
0001
0000
1000
0001
0000
0010
0000
0100
0000
2000
0000
0000
0000
,
3001
0000
1000
0100
0000
1000
0100
0000
0010
0000
0001
0000
0001
0000
1000
0000
,
0010
0000
0100
0001
0000
0100
0001
0000
1000
0001
1000
0000
2200
0000
3300
0000
,
1000
0000
0100
0010
0000
0100
0010
0000
0001
0000
1000
0000
1000
0000
0010
0000
,
0100
0000
0001
1000
0000
0001
1000
0000
0100
0000
0010
0000
0002
0000
0000
0000
,
1003
0000
0001
0010
0000
0001
0010
0000
0100
0000
2000
0000
0000
0000
3001
0000
,
0100
0000
0010
1000
0000
0010
0100
0000
0001
1000
0001
0000
0022
0000
0033
0000
,
1000
0000
0100
0010
0000
0001
0010
0000
0100
0000
1000
0000
1000
0000
0001
0000
,
0100
0000
0010
1000
0000
0001
1000
0000
0010
0000
0100
0000
0002
0000
0000
0000
,
1003
0000
0001
0100
0000
0010
0100
0000
0001
0000
1000
0000
1000
0000
0100
0000
,
0010
0000
0001
1000
0000
0010
1000
0000
0001
1000
0001
0000
0022
0000
0033
0000
,
0100
0000
0010
0001
0000
1000
0001
0000
0010
0000
0100
0000
0100
0000
1000
0000
,
0001
0000
0100
0010
0000
1000
0010
0000
0100
0000
0001
0000
0020
0000
0000
0000
,
0130
0010
0001
0010
0100
1000
0100
1000
0001
0100
0010
1000
0001
1000
0010
0100
,
0001
0000
1000
0100
0000
1000
0001
0000
0100
0010
0100
0000
0202
0000
0303
0000
,
0002
0003
1000
0000
0020
0030
1000
0000
0001
0000
0010
0000
0100
0000
1000
0000
,
0002
0003
0100
0000
0020
0030
2000
3000
0001
0000
1000
0000
0100
0000
0010
0000
,
0002
0003
1000
0000
0020
0030
1000
0000
0001
0000
0100
0000
0010
0000
0100
0000
,
0002
0003
1000
0000
0020
0030
0200
0300
0001
1000
0001
0000
0220
0000
0330
0000
,
0002
0003
0010
0000
0200
0300
0010
0000
0001
0000
1000
0000
0010
0000
1000
0000
,
0002
0003
0010
0000
0200
0300
2000
3000
0001
0000
1000
0000
0010
0000
1000
0000
,
0002
0003
0010
0000
0200
0300
0010
0000
0001
0000
1000
0000
0010
0000
1000
0000
,
0002
0003
0010
0000
0200
0300
2000
3000
0010
0100
0010
0000
2002
0000
3003
0000
,
2000
3000
0010
0000
0200
0300
0010
0000
1000
0000
0001
0000
0010
0000
0001
0000
,
2000
3000
0010
0000
0200
0300
0002
0003
1000
0000
0100
0000
0010
0000
0001
0000
,
2000
3000
0010
0000
0200
0300
0010
0000
1000
0000
0001
0000
0010
0000
0001
0000
,
2000
3000
0010
0000
0200
0300
0002
0003
1000
0100
1000
0000
0022
0000
0033
0000
,
2000
3000
0100
0000
0020
0030
0100
0000
1000
0000
0001
0000
0100
0000
0001
0000
,
2000
3000
0100
0000
0020
0030
0002
0003
1000
0000
0010
0000
0100
0000
0001
0000
,
1000
0100
1000
0100
0010
0001
0010
0001
1000
0010
0100
0001
0010
0100
1000
0010
,
0100
0000
0001
0000
0010
0000
0001
0000
1000
0010
1000
0000
2002
0000
3003
0000
,
0M01
0010
0001
0010
0000
0010
0100
0010
,
0001
1000
0001
1000
0000
1000
0010
1000
,
0001
0010
0001
0010
0000
0010
0100
0010
,
0001
0000
1000
0000
0000
0000
1000
0000
0010
1000
0010
0000
0202
0000
0303
0000
,
1000
0100
1000
0100
0000
0100
0010
0100
,
1000
0001
1000
0001
0000
0001
0100
0001
,
0010
0100
0010
0100
0000
0100
1000
0100
,
0010
0000
0001
0000
0000
0000
0001
0000
0010
0001
0010
0000
2200
0000
3300
0000
,
0001
0100
0001
0100
0000
0100
0010
0100
,
0001
1000
0001
1000
0000
1000
0100
1000
,
0001
0100
0001
0100
0000
0100
0010
0100
,
0001
0000
0010
0000
0000
0000
0010
0000
0100
1000
0100
0000
0022
0000
0033
0000
,
1000
0001
1000
0001
0000
0001
0010
0001
,
0100
0010
0100
0010
0000
0010
1000
0010
,
0100
0000
0001
0000
0100
0000
0001
0000
1000
0001
0100
0010
1000
0010
0100
0001
,
1000
0001
0010
0100
1000
0100
0010
0001
1000
0001
1000
0000
0400
0000
0000
0000
,
1300
0002
0023
0031
0200
0320
0130
0002
,
1003
0200
0320
0130
2000
3020
0130
0002
,
0103
0020
2030
3100
0020
0032
1003
0020
,
1030
0000
0002
0000
0023
0000
0130
0000
1000
0100
1000
0000
2020
0000
3030
0000
,
0001
0020
0230
1300
0020
0230
0301
2000
,
3001
0200
0320
1030
0200
0320
0031
2000
,
3010
2000
3200
0310
0002
0203
0310
2000
,
3010
0000
0200
0000
0302
0000
0013
0000
0100
1000
0100
0000
0022
0000
0033
0000
,
1000
0020
0230
0301
0020
0230
1300
0020
,
1030
0200
0320
0031
0200
0320
1030
0200
,
1300
0020
0230
0301
0020
0230
0310
0002
,
0103
0000
0020
0000
2030
0000
3001
0000
0010
0100
0010
0000
2002
0000
3003
0000
,
0001
0200
0320
1030
0200
0320
0031
2000
,
3001
0020
0230
1300
0020
0230
0301
2000
,
3001
0100
0001
0100
0010
1000
0010
1000
0001
1000
0100
0010
0001
1000
0010
0100
,
0001
0010
0100
1000
0001
1000
0100
0010
0001
0100
0010
1000
0001
0010
0100
1000
,
0001
0000
0000
00M0
,
0000
0M00
M000
000M
,
0000
00M0
0M00
00M0
,
0000
00M0
0M00
00M0
,
000M
0000
000M
M000
,
0000
0M00
0000
00M0
,
0000
0000
0000
0000
,
0002
0000
0023
0000
0230
0000
2300
3000
,
2MM1
0000
3020
0230
,
0000
0320
2030
3002
,
0000
0023
0230
2300
,
3000
2000
3200
2300
,
3002
0000
0000
0003
0002
0000
0203
0000
,
0000
0000
0000
0000
0320
0000
0000
0000
0000
0000
0000
0030
0020
0000
0000
0000
,
0000
2030
3000
2000
,
0000
3200
0000
0320
,
MM01
0030
0000
0002
,
0000
0203
0000
0320
,
0000
0030
0000
0020
,
0230
0302
2003
3200
,
0000
0000
0000
0000
,
0000
0000
0000
0000
,
M300
M000
0M00
0M00
,
00M0
0000
0000
0000
00M0
0000
0000
0000
000M
0000
0000
0000
1000
0100
0010
0001
,
2000
3001
0010
0200
0310
0002
1003
0020
,
0230
0301
1000
0200
1300
0020
0130
0002
,
0203
0310
1000
0200
0310
0002
0013
0200
,
2300
3010
0100
0002
0013
0200
1300
0002
,
2003
3010
1000
0200
0310
0002
1003
0020
,
0230
0301
1000
0200
1300
0020
0130
0002
,
2003
3001
1000
0200
0310
0200
1300
0002
,
0203
0310
1000
0002
0013
0200
1300
0020
,
2M3M
3001
0010
0200
0310
0002
1003
0020
,
0230
0301
1000
0200
1300
0020
0130
0002
,
0203
0310
1000
0200
0310
0002
0013
0200
,
2300
3010
0100
0002
0013
0200
1300
0002
,
2003
3010
1000
0200
0310
0002
1003
0020
,
0230
0301
1000
0200
1300
0020
0130
0002
,
1003
0010
1000
0200
0310
0200
1300
0002
,
0103
0010
0100
0001
1000
0010
1000
0001
0010
0100
1000
0100
0010
0001
1000
0010
,
0100
0100
0100
0100
,
0002
0203
0320
2030
,
3001
1000
0010
0100
0001
0010
1000
0010
,
1000
0010
0100
1000
0001
0100
0010
1000
,
0010
0100
0001
1000
0100
1000
0001
0010
,
0100
0000
0010
0000
0001
0000
0001
0000
1000
0010
1000
0000
0001
0000
1000
0000
,
0010
0100
0010
1000
0001
0100
1000
0100
,
1000
0100
0010
1000
0010
0100
0001
1000
,
0001
0010
0001
1000
0010
1000
0001
1000
,
0100
0000
0010
0000
0001
0000
0001
0000
0100
0001
0100
0000
0010
0000
1000
0000
,
0001
1000
0100
0010
0001
0100
1000
0100
,
1000
0100
0010
1000
0001
0010
0100
1000
,
0100
0010
0001
1000
0010
1000
0001
0100
,
0010
0000
0100
0000
0001
0000
0001
0000
1000
0100
1000
0000
0001
0000
1000
0000
,
0100
0010
0100
1000
0001
0010
1000
0010
,
0100
1000
0010
0100
0010
1000
0010
0100
,
0001
1000
0100
0010
0100
1000
0001
1000
,
0010
1000
0010
0100
0001
1000
0001
1000
0100
0010
0100
1000
0001
0100
0010
1000
,
0001
1000
0010
0100
0001
0010
1000
0010
,
1000
0010
0100
1000
0001
0100
0010
1000
,
0010
0100
0001
1000
0100
1000
0001
0010
,
0100
0000
0010
0000
0001
0000
0001
0000
1000
0010
1000
0000
0001
0000
1000
0000
,
0010
0100
0010
1000
0001
0100
1000
0100
,
1000
0100
0010
1000
0010
0100
0001
1000
,
0001
0010
0001
1000
0010
1000
0001
1000
,
0100
0000
0010
0000
0001
0000
0001
0000
0100
0001
0100
0000
0010
0000
1000
0000
,
0001
1000
0100
0010
0001
0100
1000
0100
,
1000
0100
0010
1000
0001
0010
0100
1000
,
0100
0010
0001
1000
0010
1000
0001
0100
,
0010
0000
0100
0000
0001
0000
0001
0000
1000
0100
1000
0000
0001
0000
1000
0000
,
0100
0010
0100
1000
0001
0010
1000
0010
,
0100
1000
0010
0100
0010
1000
0010
0100
,
0001
1000
0100
0010
0100
1000
0001
1000
,
0010
0000
0100
0000
0001
0000
0001
0000
1000
0100
1000
0000
0001
0000
0010
0000
,
0001
0100
0010
0100
0001
1000
0100
1000
,
0010
0100
1000
0100
0010
1000
0100
0010
,
0001
1000
0010
1000
0001
0010
0001
1000
,
0010
0000
0100
0000
0001
0000
0001
0000
1000
0100
1000
0000
0001
0000
0010
0000
,
0100
1000
0010
0100
0001
0010
0001
0100
,
0010
1000
0100
1000
0010
0100
0001
1000
,
0001
0010
0001
1000
0001
0100
0010
1000
0001
1000
0010
0100
0001
0010
0100
1000
,
0001
0000
1000
0000
0100
0000
0010
0000
0001
0100
0010
1000
0004
4000
0000
0003
,
3010
0000
0100
0001
0000
0100
0001
0000
1000
0000
0100
0000
0100
0000
0010
0000
,
0001
0000
1000
0010
0000
1000
0010
0000
0100
0000
0001
0000
0020
0000
0000
0000
,
0130
0000
1000
0001
0000
1000
0001
0000
0100
0000
0010
0000
0010
0000
1000
0000
,
0001
0000
1000
0100
0000
1000
0100
0000
0010
0001
0010
0000
2002
0000
3003
0000
,
1000
0000
0001
0100
0000
0001
0100
0000
0010
0000
1000
0000
1000
0000
0001
0000
,
0010
0000
0100
1000
0000
0100
1000
0000
0010
0000
0100
0000
0002
0000
0000
0000
,
1003
0000
0100
0010
0000
0100
0010
0000
0001
0000
2000
0000
0000
0000
3010
0000
,
0100
0000
0001
1000
0000
0001
0100
0000
0010
1000
0010
0000
0202
0000
0303
0000
,
0001
0000
1000
0100
0000
0010
0100
0000
1000
0000
0001
0000
0001
0000
0100
0000
,
0010
0000
1000
0001
0000
0100
0001
0000
1000
0000
0100
0000
0020
0000
0000
0000
,
0031
0000
0010
0100
0000
1000
0100
0000
0010
0000
0001
0000
0001
0000
1000
0000
,
0010
0000
1000
0001
0000
0010
0001
0000
1000
0001
1000
0000
2020
0000
3030
0000
,
1000
0000
0100
0010
0000
0001
0010
0000
0100
0000
1000
0000
1000
0000
0001
0000
,
1000
0000
0010
0100
0000
0001
0100
0000
0010
0000
1000
0000
0002
0000
0000
0000
,
1003
0100
0010
0001
1000
0001
0010
0100
1000
0001
1000
0010
0100
0001
0100
0010
,
4000
0040
0000
0000
0000
0000
0000
3000
0130
0001
0100
0000
2002
0000
3003
0000
,
0002
0003
1000
0000
0200
0300
1000
0000
0001
0000
0100
0000
0010
0000
0100
0000
,
0002
0003
1000
0000
0200
0300
0020
0030
0001
0000
1000
0000
0010
0000
1000
0000
,
0002
0003
0010
0000
0200
0300
0010
0000
0001
0000
1000
0000
0100
0000
1000
0000
,
0002
0003
0010
0000
0200
0300
2000
3000
0001
1000
0001
0000
0220
0000
0330
0000
,
0002
0003
0100
0000
0020
0030
0100
0000
0001
0000
1000
0000
0100
0000
1000
0000
,
0002
0003
0100
0000
0020
0030
2000
3000
0001
0000
1000
0000
0100
0000
1000
0000
,
0002
0003
0100
0000
0020
0030
0100
0000
0001
0000
1000
0000
0100
0000
1000
0000
,
0002
0003
0100
0000
0020
0030
2000
3000
0100
0010
0100
0000
2002
0000
3003
0000
,
2000
3000
0100
0000
0020
0030
0100
0000
1000
0000
0001
0000
0100
0000
0001
0000
,
2000
3000
0100
0000
0020
0030
0002
0003
1000
0000
0010
0000
0100
0000
0001
0000
,
2000
3000
0100
0000
0020
0030
0100
0000
1000
0000
0001
0000
0100
0000
0001
0000
,
2000
3000
0100
0000
0020
0030
0002
0003
1000
0010
1000
0000
0202
0000
0303
0000
,
2000
3000
0010
0000
0200
0300
0010
0000
1000
0000
0001
0000
0010
0000
0001
0000
,
2000
3000
0010
0000
0200
0300
0002
0003
1000
0000
0100
0000
0010
0000
0001
0000
,
1000
0010
1000
0010
0100
0001
0100
0001
1000
0100
0010
0001
1000
0001
0100
0010
,
2000
3200
0320
0032
,
1003
0001
0100
0010
1000
0100
0001
0100
,
0001
0100
0010
0001
1000
0010
0100
0001
,
0100
0010
1000
0001
0010
0001
1000
0100
,
0010
0000
0100
0000
1000
0000
1000
0000
0001
0100
0001
0000
1000
0000
0001
0000
,
0100
0010
0100
0001
1000
0010
0001
0010
,
0001
0010
0100
0001
0100
0010
1000
0001
,
1000
0100
1000
0001
0100
0001
1000
0001
,
0010
0000
0100
0000
1000
0000
1000
0000
0010
1000
0010
0000
0100
0000
0001
0000
,
1000
0001
0010
0100
1000
0010
0001
0010
,
0001
0010
0100
0001
1000
0100
0010
0001
,
0010
0100
1000
0001
0100
0001
1000
0010
,
0100
0000
0010
0000
1000
0000
1000
0000
0001
0010
0001
0000
1000
0000
0001
0000
,
0010
0100
0010
0001
1000
0100
0001
0100
,
0010
0001
0100
0010
0100
0001
0100
0010
,
1000
0001
0010
0100
0010
0001
1000
0001
,
0100
0001
0100
0010
1000
0001
1000
0001
0010
0100
0010
0001
1000
0010
0100
0001
,
1000
0001
0100
0010
1000
0100
0001
0100
,
0001
0100
0010
0001
1000
0010
0100
0001
,
0100
0010
1000
0001
0010
0001
1000
0100
,
0010
0000
0100
0000
1000
0000
1000
0000
0001
0100
0001
0000
1000
0000
0001
0000
,
0100
0010
0100
0001
1000
0010
0001
0010
,
0001
0010
0100
0001
0100
0010
1000
0001
,
1000
0100
1000
0001
0100
0001
1000
0001
,
0010
0000
0100
0000
1000
0000
1000
0000
0010
1000
0010
0000
0100
0000
0001
0000
,
1000
0001
0010
0100
1000
0010
0001
0010
,
0001
0010
0100
0001
1000
0100
0010
0001
,
0010
0100
1000
0001
0100
0001
1000
0010
,
0100
0000
0010
0000
1000
0000
1000
0000
0001
0010
0001
0000
1000
0000
0001
0000
,
0010
0100
0010
0001
1000
0100
0001
0100
,
0010
0001
0100
0010
0100
0001
0100
0010
,
1000
0001
0010
0100
0010
0001
1000
0001
,
0100
0000
0010
0000
1000
0000
1000
0000
0001
0010
0001
0000
1000
0000
0100
0000
,
1000
0010
0100
0010
1000
0001
0010
0001
,
0100
0010
0001
0010
0100
0001
0010
0100
,
1000
0001
0100
0001
1000
0010
0100
0001
1000
0001
1000
0100
0010
0100
1000
0001
,
0010
0001
1000
0001
0100
0010
1000
0001
0010
0100
1000
0000
0001
0000
0200
0000
,
0000
0000
0000
0000
,
0000
0000
0000
0000
,
0300
M000
0000
0000
0000
0000
0000
0000
0000
0000
0000
0000
0000
0000
0000
0000
0000
0000
0000
0000
0000
0000
0000
0000
0000
0000
0000
0000
0000
0000
0000
0000
0000
0000
0000
0000
0000
0000
0000
0000
0000
0000
0000
0000
0000
0000
0000
0000
;
