#TITLE:The Scales of Struggle;
#SUBTITLE:;
#ARTIST:Mr Pokeahole;
#TITLETRANSLIT:;
#SUBTITLETRANSLIT:;
#ARTISTTRANSLIT:;
#CREDIT:Mad Matt;
#BANNER:../Tachyon Spectrum-bn.png;
#BACKGROUND:../Tachyon Spectrum-bg.png;
#LYRICSPATH:;
#CDTITLE:;
#MUSIC:The Scales of Struggle.ogg;
#OFFSET:0.036;
#SAMPLESTART:66.600;
#SAMPLELENGTH:22.340;
#SELECTABLE:YES;
#BPMS:0.000=172.000;
#STOPS:;
#BGCHANGES:;
// cache tags:
#FIRSTBEAT:24.000;
#LASTBEAT:523.000;
#SONGFILENAME:Songs/Tachyon Spectrum/The Scales of Struggle - [Mad Matt]/The Scales of Struggle.sm;
#HASMUSIC:1;
#HASBANNER:1;
#MUSICLENGTH:185.560;
// end cache tags

//---------------dance-single - Mad Matt----------------
#NOTES:
     dance-single:
     Mad Matt:
     Medium:
     19:
     1.000,1.000,0.086,0.474,1.000,1971.000,16.000,88.000,0.000,0.000:

0000
0000
0000
0000
,
0000
0000
0000
0000
,
0000
0000
0000
0000
,
0000
0000
0000
0000
,
0000
0000
0000
0000
,
0000
0000
0000
0000
,
1000
0000
0001
0010
0100
0000
1000
0000
0001
0010
0100
0000
1000
0000
0010
0100
,
0001
0000
0100
0010
1000
0000
0001
0000
0100
0010
1000
0000
0001
0000
0010
0100
,
1000
0000
0100
0010
0001
0000
1000
0000
0100
0010
0001
0000
1000
0000
0010
0100
,
0001
0000
0100
0010
1000
0000
0001
0000
0100
0010
1000
0000
0001
0000
0010
0100
,
1000
0000
0100
0010
0001
0000
1000
0000
0100
0010
0001
0000
1000
0000
0010
0100
,
0001
0000
0100
0010
1000
0000
0001
0000
0100
0010
1000
0000
0001
0000
0010
0100
,
1000
0000
0100
0010
0001
0000
1000
0000
0100
0010
0001
0000
1000
0000
0010
0100
,
0001
0000
0100
0010
1000
0000
0001
0000
0100
0010
1000
0000
0001
0000
0010
0100
,
1000
0000
0100
0010
0001
0000
1000
0000
0100
0010
0001
0000
1000
0000
0100
0010
,
0004
0000
0000
0000
0000
0000
0000
0003
,
1000
0002
0000
0000
0000
0000
0000
0003
1000
0002
0000
0000
0000
0000
0000
0003
1000
0002
0000
0000
0000
0000
0000
0003
1000
0002
0000
0000
0000
0000
0000
0003
,
1000
0001
0100
0001
1000
0100
1000
0001
0010
0100
1000
0001
0100
0010
1000
0001
0100
0001
1000
0100
1000
0001
0100
0010
,
1000
0001
0100
0001
1000
0001
0200
0000
0320
0000
2030
0000
3001
0010
0200
0000
,
1300
0000
0000
0100
0000
0000
1000
0000
0000
0010
0000
0000
0100
0000
0000
0010
0000
0000
1000
0000
0001
0000
0010
0000
0100
0000
0000
1000
0000
0000
0001
0000
0000
0100
0000
0000
0002
0000
0000
0000
0000
0000
0000
0000
0000
0000
0000
0000
,
1003
0100
1000
0001
0100
0001
1000
0001
0100
0010
1000
0001
1000
0100
1000
0001
0100
0001
1000
0010
0100
0001
1000
0100
,
0010
0001
1000
0100
1000
0001
0010
0001
1000
0010
0100
0010
2000
0000
0000
0000
0000
0000
0000
0000
0000
0000
0000
0000
,
3001
0100
0001
1000
0001
0010
0200
0000
0000
2300
0000
0000
3020
0000
0000
2030
0000
0000
3020
0000
0000
0230
0000
0000
,
0302
0203
0302
2003
3200
0320
0032
0000
,
1003
0001
0010
0001
1000
0010
0100
0001
1000
0100
0010
0100
1000
0010
0100
0001
,
1000
0100
1000
0010
0100
0001
1000
0010
0100
0001
1000
0100
1000
0001
1000
0010
,
1000
0001
0010
0001
1000
0010
0100
0001
1000
0100
0010
0100
1000
0010
0100
0001
,
1000
0100
1000
0010
0100
0001
1000
0010
0100
0001
1000
0100
1000
0001
1000
0010
,
0100
0001
1000
0100
1000
0001
0100
0010
1000
0001
0100
0001
1000
0010
0100
0001
1000
0100
1000
0010
1000
0001
0100
0001
,
1000
0010
1000
0100
1000
0001
0100
0010
1000
0001
1000
0100
1000
0001
0100
0010
1000
0001
1000
0100
1000
0001
0010
0100
,
1000
0001
0010
0001
1000
0010
0100
0001
1000
0100
0010
0100
1000
0010
0100
0001
,
1000
0100
1000
0010
0100
0001
1000
0010
0100
0001
1000
0100
1000
0001
1000
0010
,
2000
3020
0230
0000
0302
0000
2003
3200
,
1300
0001
0100
0001
1000
0100
1000
0010
1000
0001
0100
0010
1000
0001
1000
0100
1000
0001
0100
0010
1000
0001
0010
0100
,
1000
0001
1000
0100
1000
0010
1000
0001
0100
0001
1000
0020
0000
0000
0000
0000
,
2030
0000
0000
0000
0000
0000
0000
0000
0000
0000
0000
0000
0000
0000
0000
0000
0000
0000
0000
0000
0000
0000
0000
0000
0000
0000
0000
0000
0000
0000
0000
0000
0000
0000
0000
0000
0000
0000
0000
0000
0000
0000
0000
0000
0000
0000
0000
0000
0000
0000
0000
0000
0000
0000
0000
0000
0000
0000
0000
0000
0000
0000
0000
0000
0000
0000
0000
0000
0000
0000
0000
0000
0000
0000
0000
0000
0000
0000
0000
0000
0000
0000
0000
0000
0000
0000
0000
0000
0000
0000
0000
0000
0000
0000
0000
0000
3002
0000
0000
0000
0003
0000
0000
0000
0000
0000
0000
0000
0200
0000
0000
0000
0000
0000
0300
0000
0000
0000
0000
0000
0020
0000
0000
0000
0000
0000
0030
0000
0000
0000
0000
0000
2000
0000
0000
0000
0000
0000
3000
0000
0000
0000
0000
0000
0002
0000
0000
0000
0000
0000
0003
0000
0000
0000
0000
0000
0020
0000
0000
0000
0000
0000
0030
0000
0000
0000
0000
0000
0200
0000
0000
0000
0000
0000
0300
0000
0000
0000
0000
0000
2000
0000
0000
0000
0000
0000
3000
0000
0000
0000
0000
0000
,
0020
0000
0230
0000
,
0301
1000
0010
0100
0001
1000
0100
1000
0001
0100
0010
1000
0001
0010
0100
1000
0000
0000
1100
0000
0000
1001
0000
0000
,
0002
0000
0000
0000
0003
0000
0000
0000
0000
0000
0000
0000
0200
0000
0000
0000
0300
0000
0000
0000
0000
0000
0000
0000
0020
0000
0000
0000
0030
0000
0000
0000
0000
0000
0000
0000
0200
0000
0000
0000
0000
0000
0300
0000
0000
0000
0000
0000
0002
0000
0000
0000
0003
0000
0000
0000
0000
0000
0000
0000
2000
0000
0000
0000
0000
0000
3000
0000
0000
0000
0000
0000
0020
0000
0000
0000
0030
0000
0000
0000
0000
0000
0000
0000
2000
0000
0000
0000
3000
0000
0000
0000
0000
0000
0000
0000
0002
0000
0000
0000
0003
0000
0000
0000
0000
0000
0000
0000
0020
0000
0000
0000
0030
0000
0000
0000
0000
0000
0000
0000
0002
0000
0000
0000
0000
0000
0003
0000
0000
0000
0000
0000
0200
0000
0000
0000
0000
0000
0300
0000
0000
0000
0000
0000
0020
0000
0000
0000
0000
0000
0030
0000
0000
0000
0000
0000
2000
0000
0000
0000
0000
0000
3000
0000
0000
0000
0000
0000
0200
0000
0000
0000
0000
0000
0300
0000
0000
0000
0000
0000
0020
0000
0000
0000
0030
0000
0000
0000
0000
0000
0000
0000
,
0002
0000
0000
0000
,
1003
0100
1000
0001
0100
0001
1000
0010
0100
0001
1000
0001
0010
0001
1000
0100
1000
0001
1000
0010
0100
0001
1000
0010
,
0100
0010
1000
0001
0010
0001
1000
0100
0010
0001
1000
0001
0100
0001
1000
0010
0100
0001
1000
0100
1000
0001
0100
0010
,
1000
0001
0100
0001
2000
0000
3002
0000
0203
0000
0302
0000
0023
0000
0230
0000
,
2300
3020
0230
0320
2030
3200
0320
0000
,
0032
0000
0000
0000
,
0403
0000
0000
0000
,
0301
1000
0010
0100
0010
1000
0100
1000
0010
0100
0010
1000
0100
0010
0001
0100
,
0002
0000
0000
0000
,
1003
0001
0010
0001
1000
0010
0100
0001
1000
0100
0010
0100
1000
0010
0100
0001
,
1000
0100
1000
0010
0100
0001
1000
0010
0100
0001
1000
0100
1000
0001
1000
0010
,
1000
0001
0010
0001
1000
0010
0100
0001
1000
0100
0010
0100
1000
0010
0100
0001
,
1000
0100
1000
0010
0100
0001
1000
0010
0100
0001
1000
0100
1000
0001
1000
0010
,
0100
0001
1000
0100
1000
0001
0100
0010
1000
0001
0100
0001
1000
0010
0100
0001
1000
0100
1000
0010
1000
0001
0100
0001
,
1000
0010
1000
0100
1000
0001
0100
0010
1000
0001
1000
0100
1000
0001
0100
0010
1000
0001
1000
0100
1000
0001
0010
0100
,
1000
0001
0010
0001
1000
0010
0100
0001
1000
0100
0010
0100
1000
0010
0100
0001
,
1000
0100
1000
0010
0100
0001
1000
0010
0100
0001
1000
0100
1000
0001
1000
0010
,
1000
0001
0100
0001
1000
0100
0010
0001
1000
0010
0100
0010
1000
0100
0010
0001
,
1000
0010
1000
0100
0010
0001
1000
0100
0010
0001
1000
0010
1000
0001
1000
0100
,
1000
0001
0100
0001
1000
0100
0010
0001
1000
0010
0100
0010
1000
0100
0010
0001
,
1000
0010
1000
0100
0010
0001
1000
0100
0010
0001
1000
0010
1000
0001
1000
0100
,
1000
0001
0010
0001
1000
0010
0100
0001
1000
0010
1000
0001
0100
0010
1000
0001
0010
0001
0100
0001
1000
0010
1000
0001
,
0100
0001
0010
0001
1000
0010
0100
0001
1000
0001
0010
0001
1000
0010
0100
0001
1000
0001
0010
0001
1000
0100
0010
0001
,
1000
0001
0100
0001
1000
0100
0010
0001
1000
0010
0100
0010
1000
0100
0010
0001
,
1000
0010
1000
0100
0010
0001
1000
0100
0010
0001
1000
0010
1000
0001
1000
0100
,
1000
0010
0100
0001
1000
0001
0010
0100
0010
0001
1000
0010
0400
0000
0000
0000
0000
0000
0000
0000
0000
0000
0000
0000
,
0301
1000
0010
0100
0010
1000
0100
1000
0010
0100
0001
0010
0001
0100
0010
1000
,
0001
0000
0000
0010
0000
0000
0001
0000
0000
1000
0000
0000
0010
0000
0000
0100
0000
0000
0001
0000
0000
0010
0000
0000
0001
0000
0000
0100
0000
0000
0001
0000
1000
0000
0010
0000
0100
0000
0001
0000
1000
0000
0100
0000
1000
0000
0001
0000
,
0100
0001
1000
0001
0010
0100
1000
0001
1000
0100
1000
0001
0100
0001
1000
0010
0100
0001
1000
0010
0100
0010
1000
0001
,
0010
0001
1000
0001
0100
0001
1000
0100
0010
0001
1000
0001
0100
0001
1000
0010
0100
0001
1000
0100
1000
0001
1000
0010
,
0200
0000
0000
0000
0000
0000
0004
0000
0000
0000
0000
0000
0000
0000
0000
0000
0000
0000
0300
0000
0000
0000
0000
0003
,
1000
0001
0100
0001
1000
0100
0010
0100
1000
0001
0100
0001
0010
0100
0010
0001
,
1000
0100
0010
0001
1000
0001
0100
0001
1000
0010
0100
0001
1000
0001
0100
0001
1000
0100
0010
0001
1000
0001
0100
0001
,
1000
0001
0010
0100
1000
0001
1000
0010
1000
0001
0100
0001
1000
0001
0100
0010
1000
0001
1000
0100
1000
0001
0100
0010
,
2000
3002
0023
0230
0320
0032
0203
0320
,
1030
0000
0000
0100
0000
0000
1000
0000
0000
0001
0000
0000
0100
0000
0000
0010
0000
0000
1000
0000
0000
0100
0000
0000
0010
0000
0001
0000
1000
0000
0010
0000
1000
0000
0100
0000
1000
0000
0001
0000
0010
0000
0001
0000
0100
0000
0001
0000
,
2000
0000
0000
0000
3001
0010
0100
0010
0001
0100
0010
1000
0001
1000
0100
1000
,
0001
0100
0010
1000
0100
1000
0001
0100
0001
1000
0100
0010
0002
0000
0000
0000
0000
0000
0000
0000
0000
0000
0000
0000
,
4000
0000
0000
0003
,
3001
0010
0100
0010
0001
0100
0010
0100
0001
1000
0100
1000
0001
0100
0001
1000
,
0100
1000
0001
0100
0010
1000
0001
0100
0001
1000
0100
0010
0100
1000
0010
0100
,
0001
0010
0001
0100
0010
1000
0100
1000
0010
0100
0001
0010
0100
1000
0010
1000
,
0001
0100
0001
1000
0100
1000
0001
0010
0100
1000
0001
0010
0100
1000
0001
0100
0001
1000
0001
0100
0010
1000
0001
1000
,
0100
0010
0001
2000
0000
0000
0000
0000
,
3001
0100
0010
1000
0100
1000
0001
0100
0001
0100
0010
1000
0001
0100
0010
1000
,
0100
1000
0001
0010
0001
1000
0100
0010
0001
1000
0010
0200
0000
0000
0000
0000
,
0301
1000
0001
0100
0001
1000
0100
0010
0001
1000
0001
0100
0001
1000
0010
0100
0001
1000
0010
1000
0001
1000
0100
0010
,
0001
0000
0000
1000
0000
0000
0100
0000
0000
1000
0000
0000
0010
0000
0000
1000
0000
0000
0001
0000
0000
0010
0000
0000
0100
0000
1000
0000
0001
0000
0100
0000
0001
0000
1000
0000
0010
0000
0100
0000
0001
0000
1000
0000
0100
0000
1000
0000
,
0002
0000
0000
0000
1003
0100
0010
0001
1000
0010
0100
0010
1000
0001
0010
0001
,
1000
0010
0100
0001
1000
0100
1000
0001
0100
0010
1000
0001
2000
0000
0000
0000
0000
0000
0000
0000
0000
0000
0000
0000
,
3001
1000
0100
1000
0001
0100
0010
1000
0001
0010
0100
0010
0001
0100
0010
1000
,
0001
0010
0001
0100
0010
1000
0001
0100
0010
1000
0001
0010
0001
1000
0001
0100
,
0001
1000
0100
1000
0001
0100
0010
1000
0001
0010
0100
0010
0001
0100
0010
1000
,
0001
0010
0001
0100
0010
1000
0001
0100
0010
1000
0001
0010
0001
1000
0001
0100
,
0010
1000
0001
1000
0100
1000
0001
0100
0010
1000
0001
1000
0100
1000
0001
0100
0010
1000
0001
0100
0001
1000
0010
1000
,
0001
0010
0001
1000
0010
1000
0001
0100
0010
1000
0001
1000
0100
0010
0001
1000
0001
0100
0001
1000
0001
0010
0100
1000
,
0001
1000
0100
1000
0001
0100
0010
1000
0001
0010
0100
0010
0001
0100
0010
1000
,
0001
0010
0001
0100
0010
1000
0001
0100
0010
1000
0001
0010
0001
1000
0001
0100
,
0001
1000
0010
1000
0001
0010
0100
1000
0001
0100
0010
0100
0001
0010
0100
1000
,
0001
0100
0001
0010
0100
1000
0001
0010
0100
1000
0001
0100
0001
1000
0001
0010
,
0001
1000
0010
1000
0001
0010
0100
1000
0001
0100
0010
0100
0001
0010
0100
1000
,
0001
0100
0001
0010
0100
1000
0001
0010
0100
1000
0001
0100
0001
1000
0001
0010
,
0001
1000
0100
1000
0001
0100
0010
1000
0001
0100
0001
1000
0010
0100
0001
1000
0100
1000
0010
1000
0001
0100
0001
1000
,
0010
1000
0100
1000
0001
0100
0010
1000
0001
1000
0100
1000
0001
0100
0010
1000
0001
1000
0100
1000
0001
0010
0100
1000
,
0001
1000
0010
1000
0001
0010
0100
1000
0001
0100
0010
0100
0001
0010
0100
1000
,
0001
0100
0001
0010
0100
1000
0001
0010
0100
1000
0001
0100
0001
1000
0001
0000
,
1001
0000
1000
0001
1000
0010
0100
0001
1000
0100
0010
0100
1000
0010
0100
0001
,
1000
0100
1000
0010
0100
0001
1000
0010
0100
0001
1000
0100
1000
0001
1000
0000
,
1001
0000
0001
1000
0001
0100
0010
1000
0001
0010
0100
0010
0001
0100
0010
1000
,
0001
0010
0001
0100
0010
1000
0001
0100
0010
1000
0001
0010
0001
1000
0001
0000
,
1001
0000
0000
1000
0100
1000
0001
0100
0010
1000
0001
1000
0100
1000
0001
0100
0010
1000
0001
0100
0001
1000
0010
1000
,
0001
0010
0001
1000
0010
1000
0001
0100
0010
1000
0001
1000
0100
0010
0001
1000
0001
0100
0001
1000
0001
0010
0100
1000
,
0001
1000
0100
1000
0001
0100
0010
1000
0001
0010
0100
0010
0001
0100
0010
1000
,
0001
0010
0001
0100
0010
1000
0001
0100
0010
1000
0001
0010
0001
1000
0001
0100
,
0010
1000
0001
0100
0001
1000
0100
1000
0001
0100
0010
1000
0001
0100
0001
1000
0100
1000
0001
0100
0001
1000
0001
0010
,
0100
1000
0001
1000
0100
1000
0001
0100
0001
1000
0010
1000
0001
0100
0010
1000
0001
1000
0100
1000
0001
0010
0100
1000
,
0001
0100
0001
1000
0010
1000
0001
1000
0100
1000
0001
0100
0001
1000
0001
0100
0010
1000
0001
1000
0010
0100
0001
1000
,
0001
0010
0001
1000
0100
0010
0001
1000
0001
0100
0010
1000
0001
0100
0001
1000
0100
1000
0001
0100
0010
1000
0001
0010
,
0001
1000
0100
0010
0001
1000
0001
0100
0001
1000
0100
1000
0001
0010
0100
1000
0001
0100
0001
1000
0010
0100
0001
1000
,
0100
1000
0001
0010
0100
1000
0001
0100
0010
0100
0001
1000
0010
1000
0001
0100
0010
1000
0001
1000
0100
1000
0001
0010
,
0100
0010
0001
1000
0100
0010
0001
1000
0001
0100
0001
1000
0010
1000
0001
0100
0010
1000
0001
0100
0001
1000
0100
1000
,
0001
0100
0010
1000
0001
0100
0001
1000
0001
0010
0100
1000
0100
0010
0001
1000
0001
0100
0001
1000
0100
1000
0000
0000
,
1001
0000
0001
1000
0001
0100
0010
1000
0001
0010
0100
0010
0001
0100
0010
1000
,
0001
0010
0001
0100
0010
1000
0001
0100
0010
1000
0001
0010
0001
1000
0001
0000
,
1001
0000
1000
0001
1000
0010
0100
0001
1000
0100
0010
0100
1000
0010
0100
0001
,
1000
0100
1000
0010
0100
0001
1000
0010
0100
0001
1000
0100
1000
0001
1000
0000
,
1001
0000
0000
0001
0100
0001
1000
0100
1000
0001
1000
0010
0100
0001
1000
0100
1000
0001
0100
0010
1000
0001
1000
0010
,
1000
0001
0100
0001
1000
0100
1000
0001
0100
0010
0100
0001
1000
0010
0100
0001
1000
0100
1000
0001
0100
0001
1000
0001
,
0100
0001
0010
0001
1000
0010
0100
0001
1000
0100
0010
0100
1000
0010
0100
0001
,
1000
0100
1000
0010
0100
0001
1000
0010
0100
0001
1000
0100
1000
0001
1000
0100
,
0010
0010
0100
1000
1000
0001
0100
0000
,
1001
1001
0100
1001
1001
0100
1001
0000
;

//---------------dance-single - Tachyon Delta----------------
#NOTES:
     dance-single:
     Tachyon Delta:
     Easy:
     19:
     1.000,1.000,0.092,0.474,1.000,1971.000,17.000,88.000,0.000,0.000:

0000
0000
0000
0000
,
0000
0000
0000
0000
,
0000
0000
0000
0000
,
0000
0000
0000
0000
,
0000
0000
0000
0000
,
0000
0000
0000
0000
,
1000
0000
0001
0100
0001
0000
1000
0000
0001
0100
0001
0000
1000
0000
0100
1000
,
0100
0000
1000
0100
1000
0000
0001
0000
1000
0100
1000
0000
0001
0000
1000
0100
,
1000
0000
0001
0100
0001
0000
1000
0000
0010
0100
0010
0000
1000
0000
0001
0100
,
0001
0000
1000
0100
1000
0000
0001
0000
0010
0100
0010
0000
0001
0000
1000
0100
,
1000
0000
0001
0100
0001
0000
1000
0000
0010
0100
0010
0000
1000
0000
0001
0100
,
0001
0000
1000
0100
1000
0000
0001
0000
0010
0100
0010
0000
0001
0000
1000
0010
,
1000
0000
0001
0010
0001
0000
1000
0000
0010
0100
0010
0000
1000
0000
0001
0010
,
0001
0000
1000
0010
1000
0000
0001
0000
0010
0100
0010
0000
0001
0000
1000
0010
,
1000
0000
0001
0010
0001
0000
1000
0000
0010
0100
0010
0000
1000
0000
0001
1000
,
0400
0000
0000
0000
,
1300
0002
0000
0000
0000
0000
0000
0000
1003
0002
0000
0000
0000
0000
0000
0000
1003
0002
0000
0000
0000
0000
0000
0000
1003
0002
0000
0000
0000
0000
0000
0003
,
1000
0001
0010
0001
1000
0100
1000
0001
0010
0100
1000
0100
0010
0001
1000
0100
0010
0001
1000
0100
1000
0001
0010
0001
,
1000
0010
1000
0001
1000
0010
0200
0000
0320
0000
2030
0000
3100
0010
0002
0000
,
1003
0000
0000
0010
0000
0000
1000
0000
0000
0001
0000
0000
0010
0000
0000
0001
0000
0000
1000
0000
0100
0000
0010
0000
0100
0000
0000
1000
0000
0000
0001
0000
0000
0100
0000
0000
0002
0000
0000
0000
0000
0000
0000
0000
0000
0000
0000
0000
,
1003
0100
1000
0001
0010
0100
1000
0001
0010
0100
1000
0100
0010
0001
1000
0100
1000
0100
0010
0001
0010
0001
1000
0100
,
1000
0001
0100
0010
1000
0010
0100
0001
1000
0010
0100
0010
2000
0000
0000
0000
0000
0000
0000
0000
0000
0000
0000
0000
,
3010
1000
0001
1000
0001
0010
0200
0000
0000
0320
0000
0000
0230
0000
0000
0320
0000
0000
0230
0000
0000
2300
0000
0000
,
3002
0203
0302
2003
3002
0023
0230
0000
,
1300
0100
1000
0010
1000
0001
0010
0100
1000
0001
0100
0001
0010
0100
1000
0001
,
0100
0010
0100
0001
0010
0100
1000
0001
1000
0100
0010
0001
0100
0010
1000
0100
,
1000
0001
0010
0001
0100
0010
1000
0001
0100
0001
0010
0100
1000
0001
0010
0100
,
1000
0001
0100
0010
1000
0100
1000
0010
0100
0001
0010
0100
1000
0001
0100
0010
,
0100
0001
0100
0010
1000
0010
0100
0001
1000
0100
0010
0001
0010
0100
1000
0001
0010
0001
0010
0100
1000
0100
1000
0001
,
0010
0001
1000
0100
1000
0001
0100
0010
1000
0001
0100
0001
1000
0010
0100
0001
0100
0010
1000
0010
0100
0001
0100
0010
,
1000
0001
1000
0100
0010
0001
1000
0010
0100
0010
1000
0100
0010
0001
0100
0001
,
1000
0100
1000
0001
0100
0010
1000
0001
0010
0100
1000
0001
0010
0001
1000
0100
,
2000
3020
0230
0000
0302
0000
2003
3200
,
1300
0100
1000
0001
0010
0100
1000
0001
0010
0001
1000
0100
0010
0001
1000
0001
0100
0001
1000
0010
1000
0001
0100
0010
,
1000
0001
1000
0010
1000
0100
1000
0010
1000
0001
0100
0020
0000
0000
0000
0000
,
2030
0000
0000
0000
0000
0000
0000
0000
0000
0000
0000
0000
0000
0000
0000
0000
0000
0000
0000
0000
0000
0000
0000
0000
0000
0000
0000
0000
0000
0000
0000
0000
0000
0000
0000
0000
0000
0000
0000
0000
0000
0000
0000
0000
0000
0000
0000
0000
0000
0000
0000
0000
0000
0000
0000
0000
0000
0000
0000
0000
0000
0000
0000
0000
0000
0000
0000
0000
0000
0000
0000
0000
0000
0000
0000
0000
0000
0000
0000
0000
0000
0000
0000
0000
0000
0000
0000
0000
0000
0000
0000
0000
0000
0000
0000
0000
3002
0000
0000
0000
0003
0000
0000
0000
0000
0000
0000
0000
2000
0000
0000
0000
3000
0000
0000
0000
0000
0000
0000
0000
0200
0000
0000
0000
0300
0000
0000
0000
0000
0000
0000
0000
0020
0000
0000
0000
0030
0000
0000
0000
0000
0000
0000
0000
0002
0000
0000
0000
0003
0000
0000
0000
0000
0000
0000
0000
2000
0000
0000
0000
3000
0000
0000
0000
0000
0000
0000
0000
0200
0000
0000
0000
0300
0000
0000
0000
0000
0000
0000
0000
0020
0000
0000
0000
0000
0000
0030
0000
0000
0000
0000
0000
,
0002
0000
0203
0000
,
0301
1000
0010
0100
0001
1000
0010
1000
0001
1000
0010
1000
0001
0100
0010
1000
0000
0000
1010
0000
0000
0101
0000
0000
,
0002
0003
0000
0200
0300
0000
0020
0030
0000
2000
3000
0000
0002
0003
0000
0200
0300
0000
0020
0030
0000
2000
3000
0000
0002
0003
0000
0020
0030
0000
0200
0300
0000
2000
3000
0000
0002
0003
0000
2000
3000
0000
0200
0300
0000
0020
0030
0000
,
0002
0000
0000
0000
,
1003
0100
0010
0100
1000
0001
0010
0100
1000
0001
0010
0100
1000
0001
0010
0001
1000
0100
1000
0001
0010
0001
0010
0100
,
1000
0001
1000
0001
0100
0010
0100
0001
1000
0010
0100
0001
0100
0010
1000
0001
0100
0001
1000
0010
1000
0001
1000
0010
,
0100
0001
1000
0001
0020
0000
0032
0000
0203
0000
0302
0000
2003
0000
3200
0000
,
2300
3020
0230
0302
0023
0230
2300
0000
,
3020
0000
0000
0000
,
0400
0000
0000
0030
,
0301
1000
0001
0010
0001
0100
0010
0100
0001
0010
0001
0100
0010
0100
0001
1000
,
0002
0000
0000
0000
,
1003
0100
1000
0010
1000
0001
0010
0100
1000
0001
0100
0001
0010
0100
1000
0001
,
0100
0010
0100
0001
0010
0100
1000
0001
1000
0100
0010
0001
0100
0010
1000
0100
,
1000
0001
0010
0001
0100
0010
1000
0001
0100
0001
0010
0100
1000
0001
0010
0100
,
1000
0001
0100
0010
1000
0100
1000
0010
0100
0001
0010
0100
1000
0001
0100
0010
,
0100
0001
0100
0010
1000
0010
0100
0001
1000
0100
0010
0001
0010
0100
1000
0001
0010
0001
0010
0100
1000
0100
1000
0001
,
0010
0001
1000
0100
1000
0001
0100
0010
1000
0001
0100
0001
1000
0010
0100
0001
0100
0010
1000
0010
0100
0001
0100
0010
,
1000
0001
1000
0100
0010
0001
1000
0010
0100
0010
1000
0100
0010
0001
0100
0001
,
1000
0100
1000
0001
0100
0010
1000
0001
0010
0100
1000
0001
0010
0001
1000
0100
,
0010
0001
0100
0010
1000
0001
0010
0001
0100
0010
0100
0001
1000
0100
0010
0100
,
1000
0001
0100
0010
0100
0001
1000
0010
0100
0001
0100
0010
1000
0100
1000
0010
,
0100
0001
0100
0010
1000
0100
1000
0010
0100
0001
0010
0100
1000
0001
1000
0100
,
0010
0100
1000
0001
0010
0100
1000
0010
1000
0100
0010
0001
0100
0001
1000
0001
,
0100
0001
1000
0100
1000
0001
0010
0100
1000
0100
0010
0001
1000
0100
1000
0100
0010
0001
0010
0001
1000
0100
0010
0001
,
1000
0100
1000
0001
0010
0001
1000
0100
0010
0001
0010
0100
1000
0001
0010
0001
1000
0100
1000
0001
0100
0001
1000
0010
,
0100
0001
0100
0010
1000
0001
0010
0100
1000
0100
0010
0100
1000
0010
0100
0010
,
1000
0001
0010
0001
1000
0010
1000
0100
1000
0001
0100
0010
1000
0100
0010
0001
,
1000
0010
0100
0001
1000
0001
0100
0010
1000
0001
0100
0001
4000
0000
0000
0000
0000
0000
0000
0000
0000
0000
0000
0000
,
3001
0100
0010
0100
0010
1000
0100
0010
0001
0100
0001
0010
0001
1000
0100
1000
,
0001
0000
0000
0100
0000
0000
0010
0000
0000
1000
0000
0000
0001
0000
0000
0010
0000
0000
0100
0000
0000
0010
0000
0000
0001
0000
0000
0100
0000
0000
0001
0000
1000
0000
0010
0000
0100
0000
0001
0000
1000
0000
0001
0000
0100
0000
0010
0000
,
1000
0001
0010
0001
1000
0100
0010
0001
1000
0001
0010
0100
1000
0001
0010
0001
1000
0100
1000
0001
0010
0001
1000
0010
,
0100
0001
1000
0010
1000
0001
0100
0001
0100
0010
1000
0001
0100
0001
1000
0010
1000
0010
0100
0001
0100
0010
1000
0001
,
0200
0000
0000
0000
0000
0000
0004
0000
0000
0000
0000
0000
0000
0000
0000
0000
0000
0000
0300
0000
0000
0000
0000
0003
,
1000
0001
1000
0001
1000
0010
1000
0010
1000
0001
1000
0001
0010
0100
0010
0100
,
1000
0100
0010
0001
1000
0001
0010
0100
1000
0001
1000
0100
0010
0001
1000
0001
0010
0001
1000
0010
1000
0001
0100
0001
,
1000
0100
0010
0001
1000
0010
1000
0001
0100
0001
1000
0100
1000
0001
0100
0010
1000
0001
1000
0010
0100
0001
0100
0010
,
2000
3020
0230
0302
0023
0032
0203
0302
,
1003
0000
0000
0010
0000
0000
1000
0000
0000
0001
0000
0000
0100
0000
0000
0010
0000
0000
1000
0000
0000
0100
0000
0000
1000
0000
0001
0000
0010
0000
0001
0000
1000
0000
0100
0000
1000
0000
0001
0000
0100
0000
0001
0000
1000
0000
0100
0000
,
2000
0000
0000
0000
3100
0010
0001
1000
0100
0010
0001
0010
0001
1000
0010
1000
,
0001
0100
0010
1000
0001
0100
0010
1000
0001
0010
0100
1000
0002
0000
0000
0000
0000
0000
0000
0000
0000
0000
0000
0000
,
4000
0000
0000
0003
,
3001
0010
0100
0010
0001
1000
0100
0010
0001
0100
0010
1000
0001
0100
0010
1000
,
0010
0100
0001
1000
0100
1000
0001
0010
0001
1000
0100
0010
0100
1000
0010
0100
,
0001
0010
0001
0100
0010
1000
0100
1000
0010
0100
0001
0010
0100
1000
0010
1000
,
0100
0010
0001
1000
0100
1000
0100
0010
0001
1000
0001
0010
0100
1000
0001
0100
0001
0100
0010
1000
0001
1000
0010
0100
,
0001
0100
0001
2000
0000
0000
0000
0000
,
3001
0100
0010
1000
0100
0010
0100
0010
0001
0100
0010
1000
0100
0010
0001
0100
,
0010
1000
0010
0100
0001
1000
0010
0100
0001
1000
0100
0020
0000
0000
0000
0000
,
0031
1000
0010
1000
0001
0100
0010
1000
0001
0100
0001
0100
0010
1000
0001
1000
0010
0100
0001
1000
0001
0100
0010
1000
,
0001
0000
0000
0010
0000
0000
0001
0000
0000
1000
0000
0000
0010
0000
0000
1000
0000
0000
0001
0000
0000
0010
0000
0000
0100
0000
1000
0000
0001
0000
0010
0000
0100
0000
0010
0000
0001
0000
1000
0000
0100
0000
0010
0000
0001
0000
1000
0000
,
0002
0000
0000
0000
1003
0100
0010
0001
1000
0010
1000
0010
1000
0001
0010
0001
,
1000
0010
0100
0001
1000
0100
0010
0001
1000
0100
0010
0100
2000
0000
0000
0000
0000
0000
0000
0000
0000
0000
0000
0000
,
3001
0100
0001
0010
0001
1000
0010
0100
0001
1000
0100
1000
0010
0100
0001
1000
,
0100
0010
0100
1000
0010
0100
0001
1000
0001
0100
0010
1000
0100
0010
0001
0100
,
0001
1000
0010
1000
0100
0010
0001
1000
0100
1000
0010
0100
0001
1000
0010
0100
,
0001
1000
0100
0010
0001
0100
0001
0010
0100
1000
0010
0100
0001
1000
0100
0010
,
0001
1000
0100
0010
0001
0010
0100
1000
0001
0100
0010
1000
0010
0100
0001
1000
0010
1000
0010
0100
0001
0100
0001
1000
,
0010
1000
0001
0100
0001
1000
0100
0010
0001
1000
0100
1000
0001
0010
0100
1000
0001
0010
0001
1000
0100
1000
0100
0010
,
0001
1000
0001
0100
0010
1000
0001
0010
0100
0010
0001
0100
0010
1000
0100
1000
,
0001
0100
0001
1000
0100
0010
0001
1000
0010
0100
0001
1000
0010
1000
0001
0100
,
0010
1000
0100
0010
0001
1000
0010
1000
0100
0010
0100
1000
0001
0100
0010
0100
,
0001
1000
0100
0010
0100
1000
0001
0010
0100
1000
0100
0010
0001
0100
0001
0010
,
0100
1000
0100
0010
0001
0100
0001
0010
0100
1000
0010
0100
0001
1000
0001
0100
,
0010
0100
0001
1000
0010
0100
0001
0010
0001
0100
0010
1000
0100
1000
0001
1000
,
0100
1000
0001
0100
0001
1000
0010
0100
0001
0100
0010
1000
0001
0100
0001
0100
0010
1000
0010
1000
0001
0100
0010
1000
,
0001
0100
0001
1000
0010
1000
0001
0100
0010
1000
0010
0100
0001
1000
0010
1000
0001
0100
0001
1000
0100
1000
0001
0010
,
0100
1000
0100
0010
0001
1000
0010
0100
0001
0100
0010
0100
0001
0010
0100
0010
,
0001
1000
0010
1000
0001
0010
0001
0100
0001
1000
0100
0010
0001
0100
0010
0000
,
1010
0000
1000
0010
1000
0100
1000
0001
0100
0010
1000
0001
0010
0001
0100
0010
,
1000
0001
0010
0100
0010
0001
0100
0010
1000
0001
1000
0010
0100
0001
0010
0000
,
0011
0000
0001
1000
0001
1000
0010
1000
0100
0010
0001
1000
0100
1000
0010
0100
,
0001
1000
0010
0100
0001
1000
0100
0010
0001
0100
0001
0010
0100
1000
0010
0000
,
1010
0000
0000
1000
0100
0010
0100
1000
0001
0010
0100
1000
0100
0010
0001
1000
0100
0010
0001
1000
0100
1000
0001
0010
,
0001
1000
0100
1000
0100
0010
0001
0010
0001
1000
0100
0010
0001
0010
0100
1000
0001
0010
0001
1000
0010
1000
0001
0100
,
0010
1000
0010
0100
0001
1000
0100
1000
0010
0100
0010
1000
0001
0010
0100
0010
,
0001
1000
0010
0100
0010
1000
0001
0100
0010
1000
0010
0100
0001
0010
0001
0100
,
0001
1000
0010
0100
0001
1000
0001
0100
0010
1000
0001
0100
0001
1000
0010
0100
0001
0100
0001
1000
0010
1000
0010
0100
,
0001
0100
0010
1000
0001
0100
0001
1000
0010
1000
0001
0100
0010
1000
0001
0100
0001
0100
0010
1000
0010
1000
0001
0100
,
0001
1000
0100
0010
0001
1000
0001
0010
0100
1000
0001
0010
0001
1000
0100
0010
0001
0010
0001
1000
0100
1000
0100
0010
,
0001
0010
0100
1000
0001
0010
0001
1000
0100
1000
0001
0010
0100
1000
0001
0010
0001
0010
0100
1000
0100
1000
0001
0010
,
0001
1000
0010
0100
0001
1000
0001
0100
0010
1000
0001
0100
0001
1000
0010
1000
0010
0100
0001
0100
0001
1000
0010
0100
,
0001
0100
0010
1000
0001
0100
0001
1000
0010
0100
0001
1000
0010
0100
0001
0100
0001
1000
0010
1000
0010
0100
0001
1000
,
0001
1000
0100
0010
0001
1000
0100
1000
0001
0010
0100
1000
0100
0010
0001
0010
0001
1000
0100
1000
0100
0010
0001
1000
,
0100
1000
0001
0010
0100
1000
0001
0010
0001
1000
0100
0010
0001
1000
0100
1000
0100
0010
0001
0010
0001
1000
0000
0000
,
1001
0000
0001
0100
0001
1000
0100
0010
0001
1000
0010
1000
0100
0010
0001
1000
,
0010
0100
0010
1000
0100
0010
0001
1000
0001
0010
0100
1000
0010
0100
0001
0000
,
0101
0000
0100
0001
1000
0010
1000
0001
0100
0001
0010
0100
1000
0001
0010
0100
,
1000
0001
0100
0010
1000
0100
1000
0010
0100
0001
0010
0100
1000
0001
0010
0000
,
0011
0000
0000
0001
0010
0100
1000
0001
1000
0100
0010
0001
0010
0100
1000
0001
0010
0001
0010
0100
1000
0100
1000
0001
,
0010
0001
1000
0100
1000
0001
0100
0010
1000
0001
0100
0001
1000
0010
0100
0001
0100
0010
1000
0010
0100
0001
0100
0010
,
1000
0001
1000
0100
0010
0001
1000
0010
0100
0010
1000
0100
0010
0001
0100
0001
,
1000
0100
1000
0001
0100
0010
1000
0001
0010
0100
1000
0001
0010
0001
1000
0100
,
0010
0010
0100
1000
1000
0001
0100
0000
,
1001
1001
0100
1001
1001
0100
1001
0000
;

//---------------dance-single - Mad Matt----------------
#NOTES:
     dance-single:
     Mad Matt:
     Hard:
     20:
     1.000,1.000,0.086,0.474,1.000,1971.000,16.000,88.000,0.000,0.000:

0000
0000
0000
0000
,
0000
0000
0000
0000
,
0000
0000
0000
0000
,
0000
0000
0000
0000
,
0000
0000
0000
0000
,
0000
0000
0000
0000
,
1000
0000
0001
0010
0100
0000
1000
0000
0001
0010
0100
0000
1000
0000
0010
0100
,
0001
0000
0100
0010
1000
0000
0001
0000
0100
0010
1000
0000
0001
0000
0010
0100
,
1000
0000
0100
0010
0001
0000
1000
0000
0100
0010
0001
0000
1000
0000
0010
0100
,
0001
0000
0100
0010
1000
0000
0001
0000
0100
0010
1000
0000
0001
0000
0010
0100
,
1000
0000
0100
0010
0001
0000
1000
0000
0100
0010
0001
0000
1000
0000
0010
0100
,
0001
0000
0100
0010
1000
0000
0001
0000
0100
0010
1000
0000
0001
0000
0010
0100
,
1000
0000
0100
0010
0001
0000
1000
0000
0100
0010
0001
0000
1000
0000
0010
0100
,
0001
0000
0100
0010
1000
0000
0001
0000
0100
0010
1000
0000
0001
0000
0010
0100
,
1000
0000
0100
0010
0001
0000
1000
0000
0100
0010
0001
0000
1000
0000
0100
0010
,
0004
0000
0000
0000
0000
0000
0000
0003
,
1000
0002
0000
0000
0000
0000
0000
0003
1000
0002
0000
0000
0000
0000
0000
0003
1000
0002
0000
0000
0000
0000
0000
0003
1000
0002
0000
0000
0000
0000
0000
0003
,
1000
0100
1000
0010
0100
0001
1000
0100
1000
0001
0100
0010
1000
0001
0010
0001
0100
0010
0100
0001
1000
0100
0010
0100
,
1000
0001
0100
0001
1000
0001
0200
0000
0320
0000
2030
0000
3001
0010
0200
0000
,
1300
0000
0000
0100
0000
0000
1000
0000
0000
0010
0000
0000
0100
0000
0000
0010
0000
0000
1000
0000
0001
0000
0010
0000
0100
0000
0000
1000
0000
0000
0001
0000
0000
0100
0000
0000
0002
0000
0000
0000
0000
0000
0000
0000
0000
0000
0000
0000
,
1003
0100
1000
0010
0100
0001
1000
0100
1000
0010
0100
0001
1000
0100
0010
0100
1000
0010
0100
0001
1000
0100
0010
0100
,
1000
0010
0100
0001
0010
0100
1000
0010
0100
0001
0010
0100
2000
0000
0000
0000
0000
0000
0000
0000
0000
0000
0000
0000
,
3100
0010
0001
0100
0001
1000
0200
0000
0000
2300
0000
0000
3020
0000
0000
2030
0000
0000
3020
0000
0000
0230
0000
0000
,
0302
0203
0302
2003
3200
0320
0032
0000
,
1003
0001
0010
0001
1000
0010
0100
0001
1000
0100
0010
0100
1000
0010
0100
0001
,
1000
0100
1000
0010
0100
0001
1000
0010
0100
0001
1000
0100
1000
0001
1000
0010
,
1000
0001
0010
0001
1000
0010
0100
0001
1000
0100
0010
0100
1000
0010
0100
0001
,
1000
0100
1000
0010
0100
0001
1000
0010
0100
0001
1000
0100
1000
0001
1000
0010
,
0100
0001
0010
0100
1000
0010
0100
0001
0010
0100
1000
0100
0010
0001
0100
0010
1000
0100
0010
0001
0100
0010
1000
0001
,
1000
0010
0100
0001
0010
0100
1000
0010
0100
0001
0010
0100
1000
0100
0010
0001
0100
0010
1000
0100
0010
0001
0100
0010
,
1000
0001
0010
0001
1000
0010
0100
0001
1000
0100
0010
0100
1000
0010
0100
0001
,
1000
0100
1000
0010
0100
0001
1000
0010
0100
0001
1000
0100
1000
0001
1000
0010
,
2000
3020
0230
0000
0302
0000
2003
3200
,
1300
0010
0100
0001
0010
0001
0100
0010
1000
0001
1000
0100
0010
0100
1000
0010
0100
0001
0010
0100
1000
0010
0100
0001
,
0010
0001
1000
0100
1000
0010
1000
0001
0100
0001
1000
0020
0000
0000
0000
0000
,
2030
0000
0000
0000
0000
0000
0000
0000
0000
0000
0000
0000
0000
0000
0000
0000
0000
0000
0000
0000
0000
0000
0000
0000
0000
0000
0000
0000
0000
0000
0000
0000
0000
0000
0000
0000
0000
0000
0000
0000
0000
0000
0000
0000
0000
0000
0000
0000
0000
0000
0000
0000
0000
0000
0000
0000
0000
0000
0000
0000
0000
0000
0000
0000
0000
0000
0000
0000
0000
0000
0000
0000
0000
0000
0000
0000
0000
0000
0000
0000
0000
0000
0000
0000
0000
0000
0000
0000
0000
0000
0000
0000
0000
0000
0000
0000
3002
0000
0000
0000
0003
0000
0000
0000
0000
0000
0000
0000
0200
0000
0000
0000
0000
0000
0300
0000
0000
0000
0000
0000
0020
0000
0000
0000
0000
0000
0030
0000
0000
0000
0000
0000
2000
0000
0000
0000
0000
0000
3000
0000
0000
0000
0000
0000
0002
0000
0000
0000
0000
0000
0003
0000
0000
0000
0000
0000
0020
0000
0000
0000
0000
0000
0030
0000
0000
0000
0000
0000
0200
0000
0000
0000
0000
0000
0300
0000
0000
0000
0000
0000
2000
0000
0000
0000
0000
0000
3000
0000
0000
0000
0000
0000
,
0020
0000
0230
0000
,
0301
1000
0010
0100
0001
0010
0100
1000
0100
0010
0001
0100
0010
1000
0100
0010
0000
0000
0011
0000
0000
1001
0000
0000
,
0002
0000
0000
0000
0003
0000
0000
0000
0000
0000
0000
0000
0200
0000
0000
0000
0300
0000
0000
0000
0000
0000
0000
0000
0020
0000
0000
0000
0030
0000
0000
0000
0000
0000
0000
0000
0200
0000
0000
0000
0000
0000
0300
0000
0000
0000
0000
0000
0002
0000
0000
0000
0003
0000
0000
0000
0000
0000
0000
0000
2000
0000
0000
0000
0000
0000
3000
0000
0000
0000
0000
0000
0020
0000
0000
0000
0030
0000
0000
0000
0000
0000
0000
0000
2000
0000
0000
0000
3000
0000
0000
0000
0000
0000
0000
0000
0002
0000
0000
0000
0003
0000
0000
0000
0000
0000
0000
0000
0020
0000
0000
0000
0030
0000
0000
0000
0000
0000
0000
0000
0002
0000
0000
0000
0000
0000
0003
0000
0000
0000
0000
0000
0200
0000
0000
0000
0000
0000
0300
0000
0000
0000
0000
0000
0020
0000
0000
0000
0000
0000
0030
0000
0000
0000
0000
0000
2000
0000
0000
0000
0000
0000
3000
0000
0000
0000
0000
0000
0200
0000
0000
0000
0000
0000
0300
0000
0000
0000
0000
0000
0020
0000
0000
0000
0030
0000
0000
0000
0000
0000
0000
0000
,
0002
0000
0000
0000
,
1003
0100
0010
0001
0100
0010
1000
0100
0010
0001
0100
0010
1000
0010
0100
0001
0010
0100
1000
0010
0100
0001
0010
0100
,
1000
0001
0100
0010
0100
0001
0010
0100
1000
0010
1000
0001
0010
0100
1000
0010
0100
0001
1000
0100
0010
0100
1000
0010
,
1000
0001
0100
0001
2000
0000
3002
0000
0203
0000
0302
0000
0023
0000
0230
0000
,
2300
3020
0230
0320
2030
3200
0320
0000
,
0032
0000
0000
0000
,
0403
0000
0000
0000
,
0301
1000
0010
0100
0010
1000
0100
1000
0010
0100
0010
1000
0100
0010
0001
0100
,
0002
0000
0000
0000
,
1003
0001
0010
0001
1000
0010
0100
0001
1000
0100
0010
0100
1000
0010
0100
0001
,
1000
0100
1000
0010
0100
0001
1000
0010
0100
0001
1000
0100
1000
0001
1000
0010
,
1000
0001
0010
0001
1000
0010
0100
0001
1000
0100
0010
0100
1000
0010
0100
0001
,
1000
0100
1000
0010
0100
0001
1000
0010
0100
0001
1000
0100
1000
0001
1000
0010
,
0100
0001
0010
0100
1000
0010
0100
0001
0010
0100
1000
0100
0010
0001
0100
0010
1000
0100
0010
0001
0100
0010
1000
0001
,
1000
0010
0100
0001
0010
0100
1000
0010
0100
0001
0010
0100
1000
0100
0010
0001
0100
0010
1000
0100
0010
0001
0100
0010
,
1000
0001
0010
0001
1000
0010
0100
0001
1000
0100
0010
0100
1000
0010
0100
0001
,
1000
0100
1000
0010
0100
0001
1000
0010
0100
0001
1000
0100
1000
0001
1000
0010
,
1000
0001
0100
0001
1000
0100
0010
0001
1000
0010
0100
0010
1000
0100
0010
0001
,
1000
0010
1000
0100
0010
0001
1000
0100
0010
0001
1000
0010
1000
0001
1000
0100
,
1000
0001
0100
0001
1000
0100
0010
0001
1000
0010
0100
0010
1000
0100
0010
0001
,
1000
0010
1000
0100
0010
0001
1000
0100
0010
0001
1000
0010
1000
0001
1000
0100
,
0010
0001
0100
0010
1000
0100
0010
0001
0100
0010
1000
0010
0100
0001
0010
0100
1000
0010
0100
0001
0010
0100
1000
0001
,
1000
0100
0010
0001
0100
0010
1000
0100
0010
0001
0100
0010
1000
0010
0100
0001
0010
0100
1000
0010
0100
0001
0010
0100
,
1000
0001
0100
0001
1000
0100
0010
0001
1000
0010
0100
0010
1000
0100
0010
0001
,
1000
0010
1000
0100
0010
0001
1000
0100
0010
0001
1000
0010
1000
0001
1000
0100
,
1000
0010
0100
0001
0010
0100
1000
0010
0100
0010
1000
0001
0040
0000
0000
0000
0000
0000
0000
0000
0000
0000
0000
0000
,
0031
1000
0010
0100
0010
1000
0100
1000
0010
0100
0001
0010
0001
0100
0010
1000
,
0001
0000
0000
0010
0000
0000
0001
0000
0000
1000
0000
0000
0010
0000
0000
0100
0000
0000
0001
0000
0000
0010
0000
0000
0001
0000
0000
0100
0000
0000
0001
0000
0100
0000
0010
0000
0100
0000
0001
0000
0010
0000
0100
0000
1000
0000
0010
0000
,
0100
0001
1000
0100
1000
0010
0100
0001
0010
0100
1000
0010
0100
0001
1000
0100
1000
0010
0100
0001
0010
0100
1000
0001
,
0100
0010
1000
0100
0010
0001
0100
0001
1000
0100
0010
0100
1000
0010
1000
0001
0010
0100
1000
0010
0100
0001
1000
0001
,
0020
0000
0000
0000
0000
0000
0004
0000
0000
0000
0000
0000
0000
0000
0000
0000
0000
0000
0030
0000
0000
0000
0000
0003
,
1000
0001
0100
0001
1000
0100
0010
0100
1000
0001
0100
0001
0010
0100
0010
0001
,
1000
0100
0010
0100
1000
0010
0100
0001
1000
0100
0010
0001
0100
0010
1000
0001
0010
0100
1000
0010
0100
0010
1000
0001
,
0010
0100
0010
0001
0100
0010
0100
0001
0010
0100
1000
0010
0100
0010
1000
0001
0010
0100
1000
0010
0100
0001
0010
0001
,
2000
3002
0023
0230
0320
0032
0203
0320
,
1030
0000
0000
0100
0000
0000
1000
0000
0000
0001
0000
0000
0100
0000
0000
0010
0000
0000
1000
0000
0000
0100
0000
0000
0010
0000
0001
0000
0100
0000
0010
0000
1000
0000
0001
0000
0010
0000
0001
0000
1000
0000
0010
0000
1000
0000
0100
0000
,
0020
0000
0000
0000
0031
0010
0100
0010
0001
0100
0010
1000
0001
1000
0100
1000
,
0001
0100
0010
0100
0001
0010
0001
0100
0010
1000
0100
0010
0002
0000
0000
0000
0000
0000
0000
0000
0000
0000
0000
0000
,
4000
0000
0000
0003
,
3001
0010
0100
0010
0001
0100
0010
0100
0001
1000
0100
1000
0001
0100
0001
1000
,
0100
1000
0001
0100
0010
1000
0001
0100
0001
1000
0100
0010
0100
1000
0010
0100
,
0001
0010
0001
0100
0010
1000
0100
1000
0010
0100
0001
0010
0100
1000
0010
1000
,
0001
0100
0010
1000
0100
1000
0001
0100
0010
1000
0100
1000
0001
0100
0010
0100
0001
0010
0100
1000
0010
0100
0001
1000
,
0100
0010
0001
2000
0000
0000
0000
0000
,
3001
0100
0010
1000
0100
1000
0001
0100
0001
0100
0010
1000
0001
0100
0010
1000
,
0100
1000
0001
0010
0001
1000
0100
0010
0001
1000
0010
0200
0000
0000
0000
0000
,
0301
1000
0010
0100
0001
0010
0100
0010
0001
0100
0010
1000
0100
0010
0100
1000
0001
0100
0010
1000
0100
0010
0001
0100
,
0010
0000
0000
1000
0000
0000
0100
0000
0000
1000
0000
0000
0010
0000
0000
1000
0000
0000
0001
0000
0000
0010
0000
0000
0100
0000
1000
0000
0010
0000
0100
0000
0001
0000
1000
0000
0100
0000
0010
0000
0100
0000
1000
0000
0010
0000
0100
0000
,
0002
0000
0000
0000
1003
0100
0010
0001
1000
0010
0100
0010
1000
0001
0010
0001
,
1000
0010
0100
0001
0010
0100
1000
0010
0100
0010
1000
0100
0020
0000
0000
0000
0000
0000
0000
0000
0000
0000
0000
0000
,
0031
1000
0100
1000
0001
0100
0010
1000
0001
0010
0100
0010
0001
0100
0010
1000
,
0001
0010
0001
0100
0010
1000
0001
0100
0010
1000
0001
0010
0001
1000
0001
0100
,
0001
1000
0100
1000
0001
0100
0010
1000
0001
0010
0100
0010
0001
0100
0010
1000
,
0001
0010
0001
0100
0010
1000
0001
0100
0010
1000
0001
0010
0001
1000
0001
0100
,
0010
1000
0100
0010
0001
0100
0010
1000
0100
0010
0001
0010
0100
1000
0010
0100
0001
0010
0100
1000
0010
0100
0001
1000
,
0001
0100
0010
1000
0100
0010
0001
0100
0010
1000
0100
0010
0001
0010
0100
1000
0010
0100
0001
0010
0100
1000
0010
0100
,
0001
1000
0100
1000
0001
0100
0010
1000
0001
0010
0100
0010
0001
0100
0010
1000
,
0001
0010
0001
0100
0010
1000
0001
0100
0010
1000
0001
0010
0001
1000
0001
0100
,
0001
1000
0010
1000
0001
0010
0100
1000
0001
0100
0010
0100
0001
0010
0100
1000
,
0001
0100
0001
0010
0100
1000
0001
0010
0100
1000
0001
0100
0001
1000
0001
0010
,
0001
1000
0010
1000
0001
0010
0100
1000
0001
0100
0010
0100
0001
0010
0100
1000
,
0001
0100
0001
0010
0100
1000
0001
0010
0100
1000
0001
0100
0001
1000
0001
0010
,
0100
1000
0010
0100
0001
0010
0100
1000
0010
0100
0001
0100
0010
1000
0100
0010
0001
0100
0010
1000
0100
0010
0001
1000
,
0001
0010
0100
1000
0010
0100
0001
0010
0100
1000
0010
0100
0001
0100
0010
1000
0100
0010
0001
0100
0010
1000
0100
0010
,
0001
1000
0010
1000
0001
0010
0100
1000
0001
0100
0010
0100
0001
0010
0100
1000
,
0001
0100
0001
0010
0100
1000
0001
0010
0100
1000
0001
0100
0001
1000
0001
0000
,
1001
0000
1000
0001
1000
0010
0100
0001
1000
0100
0010
0100
1000
0010
0100
0001
,
1000
0100
1000
0010
0100
0001
1000
0010
0100
0001
1000
0100
1000
0001
1000
0000
,
1001
0000
0001
1000
0001
0100
0010
1000
0001
0010
0100
0010
0001
0100
0010
1000
,
0001
0010
0001
0100
0010
1000
0001
0100
0010
1000
0001
0010
0001
1000
0001
0000
,
1001
0000
0000
1000
0100
0010
0001
0100
0010
1000
0100
0010
0001
0100
0010
1000
0100
0010
0001
0100
0010
1000
0010
0100
,
0001
0010
0100
1000
0010
0100
0001
0010
0100
1000
0010
0100
0001
0100
0010
1000
0100
0010
0001
0100
0010
1000
0100
0010
,
0001
1000
0100
1000
0001
0100
0010
1000
0001
0010
0100
0010
0001
0100
0010
1000
,
0001
0010
0001
0100
0010
1000
0001
0100
0010
1000
0001
0010
0001
1000
0100
1000
,
0001
0010
0100
0010
0001
1000
0010
1000
0001
0010
0100
0010
0001
1000
0010
0100
0001
0010
0100
1000
0010
0100
0001
0010
,
0100
1000
0010
1000
0001
0010
0100
0010
0001
1000
0010
1000
0100
0010
0001
0100
0010
1000
0100
0010
0001
0100
0010
1000
,
0001
0010
0001
1000
0010
0100
0010
1000
0001
0010
0001
1000
0010
0100
0001
0010
0100
1000
0010
0100
0001
0010
0100
1000
,
0010
0100
0010
1000
0001
0010
0001
1000
0010
0100
0010
1000
0100
0010
0001
0100
0010
1000
0100
0010
0001
0100
0010
1000
,
0100
0010
0100
1000
0001
0100
0001
1000
0100
0010
0100
1000
0001
0100
0010
1000
0100
0010
0001
0100
0010
1000
0100
0010
,
0001
0100
0001
1000
0100
0010
0100
1000
0001
0100
0001
0010
0100
1000
0010
0100
0001
0010
0100
1000
0010
0100
0001
1000
,
0100
1000
0001
0100
0010
0100
0001
1000
0100
1000
0001
0100
0010
1000
0100
0010
0001
0100
0010
1000
0100
0010
0001
0100
,
0010
0100
0001
1000
0100
1000
0001
0100
0010
0100
0001
0010
0100
1000
0010
0100
0001
0010
0100
0010
0001
1000
0000
0000
,
1001
0000
0001
1000
0001
0100
0010
1000
0001
0010
0100
0010
0001
0100
0010
1000
,
0001
0010
0001
0100
0010
1000
0001
0100
0010
1000
0001
0010
0001
1000
0001
0000
,
1001
0000
1000
0001
1000
0010
0100
0001
1000
0100
0010
0100
1000
0010
0100
0001
,
1000
0100
1000
0010
0100
0001
1000
0010
0100
0001
1000
0100
1000
0001
1000
0000
,
1001
0000
0000
0001
0010
0100
1000
0010
0100
0001
0010
0100
1000
0010
0100
0001
0010
0100
1000
0010
0100
0001
0100
0010
,
1000
0100
0010
0001
0100
0010
1000
0100
0010
0001
0100
0010
1000
0010
0100
0001
0010
0100
1000
0010
0100
0001
0010
0100
,
1000
0001
0010
0001
1000
0010
0100
0001
1000
0100
0010
0100
1000
0010
0100
0001
,
1000
0100
1000
0010
0100
0001
1000
0010
0100
0001
1000
0100
1000
0001
1000
0100
,
0010
0010
0100
1000
1000
0001
0100
0000
,
1001
1001
0100
1001
1001
0100
1001
0000
;

//---------------dance-single - Mad Matt----------------
#NOTES:
     dance-single:
     Mad Matt:
     Challenge:
     21:
     1.000,1.000,0.070,0.474,1.000,2027.000,13.000,88.000,0.000,0.000:

0000
0000
0000
0000
,
0000
0000
0000
0000
,
0000
0000
0000
0000
,
0000
0000
0000
0000
,
0000
0000
0000
0000
,
0000
0000
0000
0000
,
1000
0000
0001
0010
0100
0000
1000
0000
0001
0010
0100
0000
1000
0000
0010
0100
,
0001
0000
0100
0010
1000
0000
0001
0000
0100
0010
1000
0000
0001
0000
0010
0100
,
1000
0000
0100
0010
0001
0000
1000
0000
0100
0010
0001
0000
1000
0000
0010
0100
,
0001
0000
0100
0010
1000
0000
0001
0000
0100
0010
1000
0000
0001
0000
0010
0100
,
1000
0000
0100
0010
0001
0000
1000
0000
0100
0010
0001
0000
1000
0000
0010
0100
,
0001
0000
0100
0010
1000
0000
0001
0000
0100
0010
1000
0000
0001
0000
0010
0100
,
1000
0000
0100
0010
0001
0000
1000
0000
0100
0010
0001
0000
1000
0000
0010
0100
,
0001
0000
0100
0010
1000
0000
0001
0000
0100
0010
1000
0000
0001
0000
0010
0100
,
1000
0000
0100
0010
0001
0000
1000
0000
0100
0010
0001
0000
1000
0000
0100
0010
,
0004
0000
0000
0000
0000
0000
0000
0003
,
1000
0002
0000
0000
0000
0000
0000
0003
1000
0002
0000
0000
0000
0000
0000
0003
1000
0002
0000
0000
0000
0000
0000
0003
1000
0002
0000
0000
0000
0000
0000
0003
,
1000
0100
1000
0010
0100
0001
1000
0100
1000
0001
0100
0010
1000
0001
0010
0001
0100
0010
0100
0001
1000
0100
0010
0100
,
1000
0001
0100
0001
1000
0001
0200
0000
0320
0000
2030
0000
3001
0010
0200
0000
,
1300
0000
0000
0100
0000
0000
1000
0000
0000
0010
0000
0000
0100
0000
0000
0010
0000
0000
1000
0000
0001
0000
0010
0000
0100
0000
0000
1000
0000
0000
0001
0000
0000
0100
0000
0000
0002
0000
0000
0000
0000
0000
0000
0000
0000
0000
0000
0000
,
1003
0100
1000
0010
0100
0001
1000
0100
1000
0010
0100
0001
1000
0100
0010
0100
1000
0010
0100
0001
1000
0100
0010
0100
,
1000
0010
0100
0001
0010
0100
1000
0010
0100
0001
0010
0100
2000
0000
0000
0000
0000
0000
0000
0000
0000
0000
0000
0000
,
3100
0010
0001
0100
0001
1000
0200
0000
0000
2300
0000
0000
3020
0000
0000
2030
0000
0000
3020
0000
0000
0230
0000
0000
,
0302
0203
0302
2003
3200
0320
0032
0000
,
1003
0001
0010
0001
1000
0010
0100
0001
1000
0100
0010
0100
1000
0010
0100
0001
,
1000
0100
1000
0010
0100
0001
1000
0010
0100
0001
1000
0100
1000
0001
1000
0010
,
1000
0001
0010
0001
1000
0010
0100
0001
1000
0100
0010
0100
1000
0010
0100
0001
,
1000
0100
1000
0010
0100
0001
1000
0010
0100
0001
1000
0100
1000
0001
1000
0010
,
0100
0001
0010
0100
1000
0010
0100
0001
0010
0100
1000
0100
0010
0001
0100
0010
1000
0100
0010
0001
0100
0010
1000
0001
,
1000
0010
0100
0001
0010
0100
1000
0010
0100
0001
0010
0100
1000
0100
0010
0001
0100
0010
1000
0100
0010
0001
0100
0010
,
1000
0001
0010
0001
1000
0010
0100
0001
1000
0100
0010
0100
1000
0010
0100
0001
,
1000
0100
1000
0010
0100
0001
1000
0010
0100
0001
1000
0100
1000
0001
1000
0010
,
2000
3020
0230
0000
0302
0000
2003
3200
,
1300
0010
0100
0001
0010
0001
0100
0010
1000
0001
1000
0100
0010
0100
1000
0010
0100
0001
0010
0100
1000
0010
0100
0001
,
0010
0001
1000
0100
1000
0010
1000
0001
0100
0001
1000
0020
0000
0000
0000
0000
,
2030
0000
0000
0000
0000
0000
0000
0000
0000
0000
0000
0000
0000
0000
0000
0000
0000
0000
0000
0000
0000
0000
0000
0000
0000
0000
0000
0000
0000
0000
0000
0000
0000
0000
0000
0000
0000
0000
0000
0000
0000
0000
0000
0000
0000
0000
0000
0000
0000
0000
0000
0000
0000
0000
0000
0000
0000
0000
0000
0000
0000
0000
0000
0000
0000
0000
0000
0000
0000
0000
0000
0000
0000
0000
0000
0000
0000
0000
0000
0000
0000
0000
0000
0000
0000
0000
0000
0000
0000
0000
0000
0000
0000
0000
0000
0000
3002
0000
0000
0000
0003
0000
0000
0000
0000
0000
0000
0000
0200
0000
0000
0000
0000
0000
0300
0000
0000
0000
0000
0000
0020
0000
0000
0000
0000
0000
0030
0000
0000
0000
0000
0000
2000
0000
0000
0000
0000
0000
3000
0000
0000
0000
0000
0000
0002
0000
0000
0000
0000
0000
0003
0000
0000
0000
0000
0000
0020
0000
0000
0000
0000
0000
0030
0000
0000
0000
0000
0000
0200
0000
0000
0000
0000
0000
0300
0000
0000
0000
0000
0000
2000
0000
0000
0000
0000
0000
3000
0000
0000
0000
0000
0000
,
0020
0000
0230
0000
,
0301
1000
0010
0100
0001
0010
0100
1000
0100
0010
0001
0100
0010
1000
0100
0010
0000
0000
0011
0000
0000
1001
0000
0000
,
0002
0000
0000
0000
0003
0000
0000
0000
0000
0000
0000
0000
0200
0000
0000
0000
0300
0000
0000
0000
0000
0000
0000
0000
0020
0000
0000
0000
0030
0000
0000
0000
0000
0000
0000
0000
0200
0000
0000
0000
0000
0000
0300
0000
0000
0000
0000
0000
0002
0000
0000
0000
0003
0000
0000
0000
0000
0000
0000
0000
2000
0000
0000
0000
0000
0000
3000
0000
0000
0000
0000
0000
0020
0000
0000
0000
0030
0000
0000
0000
0000
0000
0000
0000
2000
0000
0000
0000
3000
0000
0000
0000
0000
0000
0000
0000
0002
0000
0000
0000
0003
0000
0000
0000
0000
0000
0000
0000
0020
0000
0000
0000
0030
0000
0000
0000
0000
0000
0000
0000
0002
0000
0000
0000
0000
0000
0003
0000
0000
0000
0000
0000
0200
0000
0000
0000
0000
0000
0300
0000
0000
0000
0000
0000
0020
0000
0000
0000
0000
0000
0030
0000
0000
0000
0000
0000
2000
0000
0000
0000
0000
0000
3000
0000
0000
0000
0000
0000
0200
0000
0000
0000
0000
0000
0300
0000
0000
0000
0000
0000
0020
0000
0000
0000
0030
0000
0000
0000
0000
0000
0000
0000
,
0002
0000
0000
0000
,
1003
0100
0010
0001
0100
0010
1000
0100
0010
0001
0100
0010
1000
0010
0100
0001
0010
0100
1000
0010
0100
0001
0010
0100
,
1000
0001
0100
0010
0100
0001
0010
0100
1000
0010
1000
0001
0010
0100
1000
0010
0100
0001
1000
0100
0010
0100
1000
0010
,
1000
0001
0100
0001
2000
0000
3002
0000
0203
0000
0302
0000
0023
0000
0230
0000
,
2300
3020
0230
0320
2030
3200
0320
0000
,
0032
0000
0000
0000
,
0403
0000
0000
0000
,
0301
1000
0010
0100
0010
1000
0100
1000
0010
0100
0010
1000
0100
0010
0001
0100
,
0002
0000
0000
0000
,
1003
0001
0010
0001
1000
0010
0100
0001
1000
0100
0010
0100
1000
0010
0100
0001
,
1000
0100
1000
0010
0100
0001
1000
0010
0100
0001
1000
0100
1000
0001
1000
0010
,
1000
0001
0010
0001
1000
0010
0100
0001
1000
0100
0010
0100
1000
0010
0100
0001
,
1000
0100
1000
0010
0100
0001
1000
0010
0100
0001
1000
0100
1000
0001
1000
0010
,
0100
0001
0010
0100
1000
0010
0100
0001
0010
0100
1000
0100
0010
0001
0100
0010
1000
0100
0010
0001
0100
0010
1000
0001
,
1000
0010
0100
0001
0010
0100
1000
0010
0100
0001
0010
0100
1000
0100
0010
0001
0100
0010
1000
0100
0010
0001
0100
0010
,
1000
0001
0010
0001
1000
0010
0100
0001
1000
0100
0010
0100
1000
0010
0100
0001
,
1000
0100
1000
0010
0100
0001
1000
0010
0100
0001
1000
0100
1000
0001
1000
0010
,
1000
0001
0100
0001
1000
0100
0010
0001
1000
0010
0100
0010
1000
0100
0010
0001
,
1000
0010
1000
0100
0010
0001
1000
0100
0010
0001
1000
0010
1000
0001
1000
0100
,
1000
0001
0100
0001
1000
0100
0010
0001
1000
0010
0100
0010
1000
0100
0010
0001
,
1000
0010
1000
0100
0010
0001
1000
0100
0010
0001
1000
0010
1000
0001
1000
0100
,
0010
0001
0100
0010
1000
0100
0010
0001
0100
0010
1000
0010
0100
0001
0010
0100
1000
0010
0100
0001
0010
0100
1000
0001
,
1000
0100
0010
0001
0100
0010
1000
0100
0010
0001
0100
0010
1000
0010
0100
0001
0010
0100
1000
0010
0100
0001
0010
0100
,
1000
0001
0100
0001
1000
0100
0010
0001
1000
0010
0100
0010
1000
0100
0010
0001
,
1000
0010
1000
0100
0010
0001
1000
0100
0010
0001
1000
0010
1000
0001
1000
0100
,
1000
0010
0100
0001
0010
0100
1000
0010
0100
0010
1000
0001
0040
0000
0000
0000
0000
0000
0000
0000
0000
0000
0000
0000
,
0031
1000
0010
0100
0010
1000
0100
1000
0010
0100
0001
0010
0001
0100
0010
1000
,
0001
0000
0000
0010
0000
0000
0001
0000
0000
1000
0000
0000
0010
0000
0000
0100
0000
0000
0001
0000
0000
0010
0000
0000
0001
0000
0000
0100
0000
0000
0001
0000
0100
0000
0010
0000
0100
0000
0001
0000
0010
0000
0100
0000
1000
0000
0010
0000
,
0100
0001
1000
0100
1000
0010
0100
0001
0010
0100
1000
0010
0100
0001
1000
0100
1000
0010
0100
0001
0010
0100
1000
0001
,
0100
0010
1000
0100
0010
0001
0100
0001
1000
0100
0010
0100
1000
0010
1000
0001
0010
0100
1000
0010
0100
0001
1000
0001
,
0020
0000
0000
0000
0000
0000
0004
0000
0000
0000
0000
0000
0000
0000
0000
0000
0000
0000
0030
0000
0000
0000
0000
0003
,
1000
0001
0100
0001
1000
0100
0010
0100
1000
0001
0100
0001
0010
0100
0010
0001
,
1000
0100
0010
0100
1000
0010
0100
0001
1000
0100
0010
0001
0100
0010
1000
0001
0010
0100
1000
0010
0100
0010
1000
0001
,
0010
0100
0010
0001
0100
0010
0100
0001
0010
0100
1000
0010
0100
0010
1000
0001
0010
0100
1000
0010
0100
0001
0010
0001
,
2000
3002
0023
0230
0320
0032
0203
0320
,
1030
0000
0000
0100
0000
0000
1000
0000
0000
0001
0000
0000
0100
0000
0000
0010
0000
0000
1000
0000
0000
0100
0000
0000
0010
0000
0001
0000
0100
0000
0010
0000
1000
0000
0001
0000
0010
0000
0001
0000
1000
0000
0010
0000
1000
0000
0100
0000
,
0020
0000
0000
0000
0031
0010
0100
0010
0001
0100
0010
1000
0001
1000
0100
1000
,
0001
0100
0010
0100
0001
0010
0001
0100
0010
1000
0100
0010
0002
0000
0000
0000
0000
0000
0000
0000
0000
0000
0000
0000
,
4000
0000
0000
0003
,
3001
0010
0100
0010
0001
0100
0010
0100
0001
1000
0100
1000
0001
0100
0001
1000
,
0100
1000
0001
0100
0010
1000
0001
0100
0001
1000
0100
0010
0100
1000
0010
0100
,
0001
0010
0001
0100
0010
1000
0100
1000
0010
0100
0001
0010
0100
1000
0010
1000
,
0001
0100
0010
1000
0100
1000
0001
0100
0010
1000
0100
1000
0001
0100
0010
0100
0001
0010
0100
1000
0010
0100
0001
1000
,
0100
0010
0001
2000
0000
0000
0000
0000
,
3001
0100
0010
1000
0100
1000
0001
0100
0001
0100
0010
1000
0001
0100
0010
1000
,
0100
1000
0001
0010
0001
1000
0100
0010
0001
1000
0010
0200
0000
0000
0000
0000
,
0301
1000
0010
0100
0001
0010
0100
0010
0001
0100
0010
1000
0100
0010
0100
1000
0001
0100
0010
1000
0100
0010
0001
0100
,
0010
0000
0000
1000
0000
0000
0100
0000
0000
1000
0000
0000
0010
0000
0000
1000
0000
0000
0001
0000
0000
0010
0000
0000
0100
0000
1000
0000
0010
0000
0100
0000
0001
0000
1000
0000
0100
0000
0010
0000
0100
0000
1000
0000
0010
0000
0100
0000
,
0002
0000
0000
0000
1003
0100
0010
0001
1000
0010
0100
0010
1000
0001
0010
0001
,
1000
0010
0100
0001
0010
0100
1000
0010
0100
0010
1000
0100
0020
0000
0000
0000
0000
0000
0000
0000
0000
0000
0000
0000
,
0031
1000
0100
1000
0001
0100
0010
1000
0001
0010
0100
0010
0001
0100
0010
1000
,
0001
0010
0001
0100
0010
1000
0001
0100
0010
1000
0001
0010
0001
1000
0001
0100
,
0001
1000
0100
1000
0001
0100
0010
1000
0001
0010
0100
0010
0001
0100
0010
1000
,
0001
0010
0001
0100
0010
1000
0001
0100
0010
1000
0001
0010
0001
1000
0001
0100
,
0010
1000
0100
0010
0001
0100
0010
1000
0100
0010
0001
0010
0100
1000
0010
0100
0001
0010
0100
1000
0010
0100
0001
1000
,
0001
0100
0010
1000
0100
0010
0001
0100
0010
1000
0100
0010
0001
0010
0100
1000
0010
0100
0001
0010
0100
1000
0010
0100
,
0001
1000
0100
1000
0001
0100
0010
1000
0001
0010
0100
0010
0001
0100
0010
1000
,
0001
0010
0001
0100
0010
1000
0001
0100
0010
1000
0001
0010
0001
1000
0001
0100
,
0001
1000
0010
1000
0001
0010
0100
1000
0001
0100
0010
0100
0001
0010
0100
1000
,
0001
0100
0001
0010
0100
1000
0001
0010
0100
1000
0001
0100
0001
1000
0001
0010
,
0001
1000
0010
1000
0001
0010
0100
1000
0001
0100
0010
0100
0001
0010
0100
1000
,
0001
0100
0001
0010
0100
1000
0001
0010
0100
1000
0001
0100
0001
1000
0001
0010
,
0100
1000
0010
0100
0001
0010
0100
1000
0010
0100
0001
0100
0010
1000
0100
0010
0001
0100
0010
1000
0100
0010
0001
1000
,
0001
0010
0100
1000
0010
0100
0001
0010
0100
1000
0010
0100
0001
0100
0010
1000
0100
0010
0001
0100
0010
1000
0100
0010
,
0001
1000
0010
1000
0001
0010
0100
1000
0001
0100
0010
0100
0001
0010
0100
1000
,
0001
0100
0001
0010
0100
1000
0001
0010
0100
1000
0001
0100
0001
1000
0001
0000
,
1001
0000
1000
0001
1000
0010
0100
0001
1000
0100
0010
0100
1000
0010
0100
0001
,
1000
0100
1000
0010
0100
0001
1000
0010
0100
0001
1000
0100
1000
0001
1000
0000
,
1001
0000
0001
1000
0001
0100
0010
1000
0001
0010
0100
0010
0001
0100
0010
1000
,
0001
0010
0001
0100
0010
1000
0001
0100
0010
1000
0001
0010
0001
1000
0001
0000
,
1001
0000
0000
1000
0100
0010
0001
0100
0010
1000
0100
0010
0001
0100
0010
1000
0100
0010
0001
0100
0010
1000
0010
0100
,
0001
0010
0100
1000
0010
0100
0001
0010
0100
1000
0010
0100
0001
0100
0010
1000
0100
0010
0001
0100
0010
1000
0100
0010
,
0001
1000
0100
1000
0001
0100
0010
1000
0001
0010
0100
0010
0001
0100
0010
1000
,
0001
0010
0001
0100
0010
1000
0001
0100
0010
1000
0001
0010
0001
1000
0100
1000
,
0010
1000
0001
0100
0001
1000
0100
1000
0001
0100
0010
1000
0001
0100
0001
1000
0100
1000
0001
0100
0001
1000
0001
0010
,
0100
1000
0001
1000
0100
1000
0001
0100
0001
1000
0010
1000
0001
0100
0010
1000
0001
1000
0100
1000
0001
0010
0100
1000
,
0001
0100
0001
1000
0010
1000
0001
1000
0100
1000
0001
0100
0001
1000
0001
0100
0010
1000
0001
1000
0010
0100
0001
1000
,
0001
0010
0001
1000
0100
0010
0001
1000
0001
0100
0010
1000
0001
0100
0001
1000
0100
1000
0001
0100
0010
1000
0001
0010
,
0001
1000
0100
0010
0001
1000
0001
0100
0001
1000
0100
1000
0001
0010
0100
1000
0001
0100
0001
1000
0010
0100
0001
1000
,
0100
1000
0001
0010
0100
1000
0001
0100
0010
0100
0001
1000
0010
1000
0001
0100
0010
1000
0001
1000
0100
1000
0001
0010
,
0100
0010
0001
1000
0100
0010
0001
1000
0001
0100
0001
1000
0010
1000
0001
0100
0010
1000
0001
0100
0001
1000
0100
1000
,
0001
0100
0010
1000
0001
0100
0001
1000
0001
0010
0100
1000
0100
0010
0001
1000
0001
0100
0001
1000
0100
1000
0001
1000
,
0010
1000
0001
0100
0001
1000
0100
1000
0001
0100
0010
1000
0001
0100
0001
1000
0100
1000
0001
0100
0001
1000
0001
0010
,
0100
1000
0001
1000
0100
1000
0001
0100
0001
1000
0010
1000
0001
0100
0010
1000
0001
1000
0100
1000
0001
0010
0100
1000
,
0001
0100
0001
1000
0010
1000
0001
1000
0100
1000
0001
0100
0001
1000
0001
0100
0010
1000
0001
1000
0010
0100
0001
1000
,
0001
0010
0001
1000
0100
0010
0001
1000
0001
0100
0010
1000
0001
0100
0001
1000
0100
1000
0001
0100
0010
1000
0001
0010
,
0001
1000
0100
0010
0001
1000
0001
0100
0001
1000
0100
1000
0001
0010
0100
1000
0001
0100
0001
1000
0010
0100
0001
1000
,
0100
1000
0001
0010
0100
1000
0001
0100
0010
0100
0001
1000
0010
1000
0001
0100
0010
1000
0001
1000
0100
1000
0001
0010
,
0100
0010
0001
1000
0100
0010
0001
1000
0001
0100
0001
1000
0010
1000
0001
0100
0010
1000
0001
0100
0001
1000
0100
1000
,
0001
0100
0010
1000
0001
0100
0001
1000
0001
0010
0100
1000
0100
0010
0001
1000
0001
0100
0001
1000
0100
1000
0001
1000
,
0100
0100
0010
0001
0001
1000
0010
0000
,
1001
1001
0010
1001
1001
0010
1001
0000
;
