#TITLE:WOW WOW 220;
#SUBTITLE:;
#ARTIST:paraoka;
#TITLETRANSLIT:;
#SUBTITLETRANSLIT:;
#ARTISTTRANSLIT:;
#CREDIT:;
#BANNER:wowwow_220.png;
#BACKGROUND:wowwow_220-bg.png;
#LYRICSPATH:;
#CDTITLE:cdtitle.png;
#MUSIC:wowwow_220.mp3;
#OFFSET:-5.753;
#SAMPLESTART:91.213;
#SAMPLELENGTH:12.000;
#SELECTABLE:YES;
#BPMS:0.000=220.080;
#STOPS:;
#BGCHANGES:;
// cache tags:
#FIRSTBEAT:0.000;
#LASTBEAT:401.500;
#SONGFILENAME:Songs/Japanese Collaboration Mix/wowwow_220/wowwow_220.sm;
#HASMUSIC:1;
#HASBANNER:1;
#MUSICLENGTH:118.826;
// end cache tags

//---------------dance-single - Hard----------------
#NOTES:
     dance-single:
     Hard:
     Hard:
     9:
     0.634,0.718,0.202,0.160,0.000,484.000,24.000,19.000,0.000,0.000:
1000
0100
0001
0100
,
0001
0100
1000
0100
,
1000
0100
0001
0100
,
0001
0100
1000
0100
,
0010
0000
0001
0000
1000
0001
1000
0000
,
0100
0000
1000
0020
0000
0000
0130
0000
,
0001
0011
0000
1000
,
0010
0000
1000
0000
0100
0000
0001
1000
,
0001
0000
1000
0000
0001
0100
0001
0000
,
1000
0000
0010
0200
0000
0000
2300
0000
,
0100
3100
0000
0000
,
1001
0000
0000
0010
0000
0000
0100
0000
,
0001
1000
0001
0000
1000
0001
1000
0000
,
0010
1000
0100
0001
,
0010
0100
0010
0000
0100
0010
0100
0000
,
1000
0100
0001
0010
,
0001
1000
0001
0000
1000
0001
1000
0000
,
0010
0001
0100
1000
,
0010
0100
0010
0000
0100
0010
0100
0000
,
0001
0000
0001
0200
0010
0000
0301
0000
,
1000
0100
1000
0100
0010
0100
0010
0100
,
1000
0001
1000
0001
0010
0000
0010
0100
,
1000
0100
1000
0100
1000
0001
1000
0001
,
0010
0000
0100
0010
0100
0010
1000
0001
,
1000
0001
0010
0200
0010
0000
1300
0100
,
1000
0100
0010
0001
0010
0100
0010
0000
,
0001
0100
0010
0100
0010
1000
0010
1000
,
0010
0100
0010
0000
1000
0001
1000
0001
,
0010
0100
0010
0100
1000
0100
1000
0000
,
0001
1000
0001
1000
0010
0100
0010
0100
,
0001
0100
0010
0000
0001
0100
0010
0100
,
0010
1000
0001
1000
0001
0000
1001
0000
,
1000
0100
0100
0001
,
0100
0100
0010
0100
,
0100
0000
0001
0010
0001
0000
0100
0000
,
1000
0100
0100
0001
,
0100
0100
0010
0000
,
0000
0000
1001
0000
0100
0010
0100
0000
,
1000
0001
1100
0001
,
0210
0001
0010
0310
,
0100
1000
0010
0001
,
0010
0000
0010
0000
1000
0000
0100
0001
,
0100
0010
0001
0100
,
1000
0010
0100
1001
,
0100
0010
0100
0000
0001
0000
0010
0001
,
0010
0100
1000
0000
2000
0000
0100
0000
,
0100
0000
3010
0000
1000
0010
0100
0001
,
1000
0010
0100
0001
1000
0001
0100
0010
,
1000
0100
0010
0001
1000
0010
0100
0001
,
1000
0010
0100
0001
1000
0001
0100
0010
,
1000
0100
0010
0001
0010
0100
1000
0200
,
0000
0010
0300
0100
1000
0100
0010
0001
,
1000
0001
0000
2002
0000
0000
0000
0000
,
3003
0200
1000
0010
,
0010
0000
0310
0000
0001
0000
0000
1100
,
0000
0010
0000
0001
0000
0000
0000
0000
,
0000
0000
0010
0000
0100
0000
1000
0100
,
1000
0010
0100
0001
,
0010
0001
0010
0000
0100
0000
0000
1100
,
0000
0010
0000
0001
0000
0000
0000
0000
,
0000
0010
0001
1000
,
0001
0000
0100
0000
0001
1000
0001
0000
,
0010
0000
0100
0000
0010
0000
0000
1100
,
0000
0010
0000
0001
0000
0000
0000
0000
,
0000
0010
1000
0001
,
0100
0000
0010
1000
0010
0000
0100
0001
,
0100
0000
0010
0000
1000
0000
0000
1100
,
0000
0010
0000
0001
0000
0000
0000
0000
,
0000
0010
1000
0100
,
0001
0100
0010
1000
0000
1000
0100
0010
,
0001
0010
0100
1000
0000
0000
1000
0000
,
0100
0001
0100
1000
,
0100
0001
0100
1000
,
0100
0001
0100
0010
,
0001
0010
1000
0010
,
0001
0010
1000
0010
,
0100
0000
0001
0000
0110
0000
0000
1000
,
0000
0000
0000
0101
0000
0000
0000
0000
,
1000
0010
0100
0001
,
0010
0000
0001
0000
0100
0010
0100
0000
,
0001
0000
0100
0010
1000
0000
0001
0100
,
0001
0010
0200
2000
0000
3300
0000
1100
,
0000
1000
0001
0010
0100
0010
0001
1000
,
0100
1000
0100
0010
0001
0010
0100
0010
,
0000
0001
0100
0010
0100
0010
1000
0010
,
1000
0010
0100
0010
0000
1000
0001
1000
,
0001
0010
0100
0010
0100
1000
0100
1000
,
0000
0001
1000
0001
1000
0010
0100
0001
,
0010
0001
0000
0011
0000
0000
0000
0001
,
0000
0100
0000
1000
0000
0100
0000
0001
,
0000
0011
0000
2100
0000
0001
0000
3010
,
0000
1100
0000
0011
0000
0000
0000
0000
,
0000
0000
0000
0000
1000
0100
0010
0001
,
0000
0110
0000
2002
0000
0000
0000
0000
,
0000
3003
0000
0000
0001
0000
1000
0000
,
0010
0000
0100
0000
1000
0000
0100
0001
,
0100
0010
0100
0000
1000
0100
0010
0001
,
0000
0110
0000
2002
0000
0000
0000
0000
,
0000
3003
0000
0000
0001
0000
0010
0000
,
1000
0200
0010
1000
,
0010
0300
0010
0100
0000
0000
0000
0000
;
