#TITLE:Christmas Wrapping;
#SUBTITLE:;
#ARTIST:SPICE GIRLS;
#TITLETRANSLIT:;
#SUBTITLETRANSLIT:;
#ARTISTTRANSLIT:;
#CREDIT:;
#BANNER:Christmas Wrapping.png;
#BACKGROUND:Christmas Wrapping-bg.png;
#LYRICSPATH:;
#CDTITLE:Christmas Mix.png;
#MUSIC:Christmas Wrapping.mp3;
#OFFSET:-12.580;
#SAMPLESTART:70.100;
#SAMPLELENGTH:12.000;
#SELECTABLE:YES;
#BPMS:0.000=116.000;
#STOPS:;
#BGCHANGES:16.000=-random-=1.000=0=0=1,
172.000=Christmas Wrapping-bg.png=1.000=0=0=1,
99999=-nosongbg-=1.000=0=0=0 // don't automatically add -songbackground-
;
// cache tags:
#FIRSTBEAT:0.000;
#LASTBEAT:179.000;
#SONGFILENAME:Songs/DDRExtreme.co.uk presents ChristmasMix/Christmas Wrapping/Christmas Wrapping.sm;
#HASMUSIC:1;
#HASBANNER:1;
#MUSICLENGTH:107.945;
// end cache tags

//---------------dance-single - ----------------
#NOTES:
     dance-single:
     :
     Beginner:
     2:
     0.184,0.242,0.324,0.000,0.000,104.000,35.000,0.000,0.000,0.000:
1000
0000
1000
0000
,
0001
0000
1000
0000
,
0001
0001
0001
0001
,
0001
0001
0001
0000
,
1000
0000
1000
0000
,
1000
1000
1000
0000
,
0001
0000
0001
0000
,
0001
0001
0001
0000
,
0100
0000
0100
0000
,
0100
0100
0100
0000
,
0010
0000
0010
0000
,
0010
0010
0010
0000
,
1001
0000
0100
0000
,
0100
0000
0100
0000
,
1001
0000
0010
0000
,
0010
0000
0010
0000
,
1001
0000
1000
0000
,
1000
0000
1000
0000
,
1001
0000
0001
0000
,
0001
0000
0001
0000
,
1001
0000
1001
0000
,
1000
0000
0001
0000
,
0100
0000
0100
0000
,
0100
0000
0100
0000
,
1001
0000
1001
0000
,
0001
0000
1000
0000
,
0010
0000
0010
0000
,
0010
0000
0010
0000
,
1001
0000
1001
0000
,
1001
1001
1001
0000
,
1001
0000
1001
0000
,
1001
1001
1001
0000
,
0100
0100
0100
0000
,
0010
0010
0010
0000
,
1000
1000
1000
0000
,
0001
0001
0001
0000
,
0100
0000
0010
0000
,
1001
0000
1001
0000
,
1001
1001
1001
0000
,
1001
0000
1001
0000
,
1001
1001
1001
0000
,
1001
0000
1001
0000
,
1001
1001
1001
0000
,
1001
0000
1001
0000
;

//---------------dance-single - ----------------
#NOTES:
     dance-single:
     :
     Easy:
     3:
     0.258,0.269,0.269,0.213,0.000,143.000,29.000,23.000,0.000,0.000:
1000
0001
1000
0100
,
1000
0001
1000
0100
,
1000
0100
1000
0001
,
1000
0100
1000
0001
,
0002
0000
0023
0000
,
1030
1000
1000
0000
,
2000
0000
3200
0000
,
0301
0001
0001
0000
,
0002
0000
0023
0000
,
1030
1000
1000
0000
,
2000
0000
3200
0000
,
0301
0001
0001
0000
,
1001
1000
0010
0010
,
0100
0010
0100
0010
,
1001
0001
0100
0100
,
0010
0100
0010
0100
,
0110
0001
1000
1000
,
0001
1000
0001
1000
,
0110
1000
0001
0001
,
1000
0001
1000
0001
,
0020
0130
0200
0310
,
1000
0100
1000
0100
,
0002
0013
2000
3100
,
0001
1000
0001
1000
,
0001
0001
1000
1000
,
0001
0010
0100
0100
,
0010
1000
0100
0001
,
0020
0000
0000
0030
,
1001
1001
1001
1001
,
0200
0000
0000
0300
,
1001
1001
1001
1001
,
0020
0000
0000
0030
,
1000
0100
1000
0000
,
0001
0000
0010
0000
0001
0001
0001
0000
,
1000
0100
1000
0000
,
0001
0010
0002
0000
,
2003
0000
3020
0030
,
1001
1001
1001
1001
,
0020
0000
0000
0030
,
1001
1001
1001
1001
,
0200
0000
0000
0300
,
1001
1001
1001
1001
,
0020
0000
0000
0030
,
1001
1001
1001
1001
,
2002
0000
0000
3003
;

//---------------dance-single - ----------------
#NOTES:
     dance-single:
     :
     Medium:
     5:
     0.295,0.269,0.259,0.213,0.000,172.000,28.000,23.000,0.000,0.000:
1000
0001
1000
0100
,
1000
0001
1000
0100
,
1000
0010
0100
0000
1000
0000
0001
0000
,
1000
0010
0100
0000
1000
0000
0001
0000
,
0002
0103
0020
0130
,
1000
0100
1000
0100
1000
0000
0100
0000
,
2000
3100
0200
0310
,
0001
0010
0001
0010
0001
0000
0000
0000
,
0002
0013
0020
0130
,
1000
0010
1000
0010
1000
0000
0000
0000
,
2000
3100
0200
0310
,
0001
0100
0001
0100
0001
0000
0000
0000
,
1001
0000
1000
0000
0010
0100
0010
0000
,
0100
0010
0100
0010
,
1001
0000
0001
0000
0100
0010
0100
0000
,
0010
0100
0010
0100
,
0110
0000
0001
0000
1000
0100
1000
0000
,
0001
1000
0001
1000
,
0110
0000
1000
0000
0001
0010
0001
0000
,
1000
0001
1000
0001
,
0020
0130
0200
0310
,
1000
0010
0100
0001
1000
0000
0100
0000
,
0002
0013
2000
3100
,
0001
0010
1000
0100
0001
0000
1000
0000
,
0001
0001
1000
1000
,
0001
0010
0100
0200
,
0310
1000
0100
0001
,
0020
0000
0000
0030
,
1100
0101
1010
0011
,
0200
0000
0000
0300
,
0011
1010
0101
1100
,
0020
0000
0000
0030
,
1000
0000
0100
0010
1000
0000
0000
0000
,
0001
0000
0010
0000
0001
0001
0001
0000
,
1000
0000
0100
0010
1000
0000
0000
0000
,
0001
0010
0002
0000
,
2003
0000
3020
0030
,
1010
0011
0101
1100
,
0020
0000
0000
0030
,
0101
1100
1010
0011
,
0200
0000
0000
0300
,
0011
1100
0101
1010
,
0020
0000
0000
0030
,
1100
0011
1010
0101
,
0200
0000
0000
0300
;

//---------------dance-single - ----------------
#NOTES:
     dance-single:
     :
     Hard:
     8:
     0.466,0.456,0.222,0.222,0.449,304.000,24.000,24.000,0.000,0.000:
1000
0001
1000
0100
,
1000
0001
1000
0100
,
1000
0001
1000
0100
1000
0001
1000
0100
,
1000
0001
1000
0100
1000
0001
1000
0100
,
2001
0000
0000
0000
3200
0000
0000
0000
0310
0000
0001
1000
0000
0100
0000
0000
,
1000
0000
0100
0000
1000
0000
0010
0000
1000
0000
0100
0010
0000
0001
0000
0000
,
1002
0000
0000
0000
0023
0000
0000
0000
0130
0000
1000
0001
0000
0010
0000
0000
,
0001
0000
0010
0000
0001
0000
0100
0000
0001
0000
0010
0100
0000
1000
0000
0000
,
2001
0000
0000
0000
3200
0000
0000
0000
0310
0000
0001
1000
0000
0100
0000
0000
,
1000
0000
0100
0000
1000
0000
0010
0000
1000
0000
0100
0010
0000
0001
0000
0000
,
1002
0000
0000
0000
0023
0000
0000
0000
0130
0000
1000
0001
0000
0010
0000
0000
,
0001
0000
0010
0000
0001
0000
0100
0000
0001
0000
0010
0100
0000
1000
0000
0000
,
1001
0000
1100
0000
0010
0001
0010
0000
,
0100
0000
0010
0000
1000
0000
0001
0000
0010
1000
0000
0100
0000
0000
0000
0000
,
1001
0000
0011
0000
0100
1000
0100
0000
,
0010
0100
0001
1000
0100
0000
0100
0000
,
0110
0000
0101
0000
1000
0010
1000
0000
,
0001
0000
1000
0000
0010
0000
0100
0000
0001
0100
0000
0010
0000
0000
0000
0000
,
0110
0000
1010
0000
0001
0100
0001
0000
,
1000
0001
0100
0010
1000
0000
0001
0000
,
2000
3100
0002
0013
,
1000
0100
0000
0000
1000
0100
0000
0000
1000
0000
1000
0000
1000
0000
0000
0000
,
0002
0013
2000
3100
,
0001
0010
0000
0000
0001
0010
0000
0000
0001
0000
0001
0000
0001
0000
0000
0000
,
0200
0010
0301
0000
0020
0100
1030
0000
,
0010
0001
0100
1000
0010
0000
0100
0000
,
0020
1030
0200
0301
,
0010
1000
0000
0100
0000
0001
0000
0100
0000
0010
0000
1000
0000
0000
0100
0010
,
1000
0100
0000
0000
0011
0000
0010
0100
0001
0010
0000
0000
1100
0000
0001
0010
,
1000
0100
0000
0001
0000
0010
0000
0001
0000
1000
0000
0100
0000
0000
1000
0001
,
0010
0100
0000
0000
0011
0000
0001
0010
1000
0100
0000
0000
0011
0000
0100
1000
,
0010
0001
0000
0100
0000
1000
0000
0010
0000
0001
0000
1000
0000
0000
0000
0000
,
1000
0000
0100
0010
0000
0001
0100
0000
2000
0000
0000
0000
0000
0000
0000
0000
,
3001
0000
0010
0100
0000
1000
0010
0000
0001
0000
0001
0000
0002
0000
0000
0000
,
1003
0000
0010
0100
0000
1000
0010
0000
0002
0000
0000
0000
0000
0000
0000
0000
,
1003
0000
0100
0010
0000
0001
0100
0000
2000
0000
0000
0000
0000
0000
0000
0000
,
3200
0000
0000
0000
0000
0000
0000
0000
2300
0000
0000
0000
0000
0000
3010
0100
,
0001
0010
0000
0000
1100
0000
0100
0010
1000
0100
0000
0000
0011
0000
1000
0100
,
0001
0010
0000
1000
0000
0100
0000
1000
0000
0001
0000
0010
0000
0000
0001
1000
,
0100
0010
0000
0000
1100
0000
1000
0100
0001
0010
0000
0000
1100
0000
0010
0001
,
0100
1000
0000
0010
0000
0001
0000
0100
0000
1000
0000
0001
0000
0000
0100
0010
,
1000
0100
0000
0000
0011
0000
0010
0100
0001
0010
0000
0000
1100
0000
0001
0010
,
1000
0100
0000
0001
0000
0010
0000
0001
0000
1000
0000
0100
0000
0000
1000
0001
,
0010
0100
0000
0000
0011
0000
0001
0010
1000
0100
0000
0000
0022
0000
0000
0000
,
0000
0000
0000
0033
;
