#TITLE:Bass Abuse (Drum Test Mix);
#SUBTITLE:Oh Henry!;
#ARTIST:Autopsy;
#TITLETRANSLIT:;
#SUBTITLETRANSLIT:;
#ARTISTTRANSLIT:;
#CREDIT:;
#BANNER:../Fallback-Ban.png;
#BACKGROUND:../Fallback-BG.png;
#LYRICSPATH:;
#CDTITLE:../~CDTitle-@@.png;
#MUSIC:Autopsy - Bass Abuse (Drum Test Mix).ogg;
#OFFSET:-10.790;
#SAMPLESTART:125.076;
#SAMPLELENGTH:20.451;
#SELECTABLE:YES;
#BPMS:0.000=199.500;
#STOPS:;
#BGCHANGES:;
// cache tags:
#FIRSTBEAT:0.000;
#LASTBEAT:777.000;
#SONGFILENAME:Songs/Oh Henry! Mad Stamina/Bass Abuse (Drum Test Mix) (16-)/Bass Abuse.sm;
#HASMUSIC:1;
#HASBANNER:1;
#MUSICLENGTH:246.549;
// end cache tags

//---------------dance-single - @@----------------
#NOTES:
     dance-single:
     @@:
     Challenge:
     16:
     1.000,1.000,0.049,0.174,1.000,2157.000,12.000,43.000,2.000,0.000:
0001
1000
0020
0030
0000
0000
0000
0000
,
0000
1000
0100
0000
0000
1000
0000
0000
,
0040
0000
0000
0000
,
0000
0000
0000
0000
,
1030
0000
0100
0000
0010
0001
0010
0001
1000
0000
0000
0000
0010
0000
0000
0000
,
0100
0000
0000
0001
1000
0000
0000
0000
0100
1000
0001
0010
0001
0000
0000
0000
,
1000
0000
0000
1000
0000
0000
1000
0000
,
0001
0000
0000
0001
0000
0000
0001
0000
,
1000
0010
1000
0010
1000
0100
0010
0001
0010
0100
1000
0001
0100
0010
0100
0010
,
1000
0001
1000
0100
0010
0001
0010
0001
1000
0010
0100
0001
1000
0010
1000
0010
,
0100
0001
1000
0001
0010
0100
0010
0100
1000
0010
0100
0010
1000
0001
1000
0001
,
0010
0100
0010
0001
1000
0010
1000
0010
0100
0001
1000
0010
1000
0100
1000
0100
,
0010
0001
1000
0001
0100
0010
0100
0010
1000
0001
0100
0001
1000
0100
1000
0100
,
0010
0001
1000
0100
1000
0001
1000
0001
0100
0010
0100
0001
0010
0100
0010
0100
,
1000
0100
0010
0001
1000
0100
1000
0001
0100
0010
0100
0001
1000
0010
0100
0001
,
0100
0000
0000
0000
0000
0000
0001
0000
0101
0000
0000
1000
0000
0000
1000
0000
,
0100
0010
0001
1000
0100
1000
0001
0100
0010
1000
0001
0100
0001
1000
0100
0010
,
0100
1000
0001
1000
0100
0010
0001
1000
0010
1000
0001
0100
0010
1000
0100
0010
,
0100
1000
0001
0100
0001
1000
0010
0100
0001
0100
0010
1000
0001
0010
0100
0010
,
0001
1000
0100
1000
0001
0000
0100
0010
1000
0010
0100
0000
0001
0000
1000
0000
,
0100
0010
0001
0010
0100
0000
1000
0001
1000
0010
0100
0010
1000
0000
0001
0010
,
0001
1000
0100
0010
0001
0000
1000
0100
1000
0001
0100
0010
1000
0000
0001
1000
,
0001
0000
0000
0001
0000
0000
0001
0000
,
2000
0000
3000
0000
0020
0030
0100
0000
,
0001
1000
0010
1000
0001
1000
0100
0010
0001
1000
0100
1000
0001
0010
0100
1000
,
0001
0100
0001
1000
0001
0010
0100
0010
0001
1000
0001
0100
0001
1000
0100
1000
,
0001
0010
0100
1000
0001
0010
0001
1000
0010
0100
0010
1000
0001
0100
0001
1000
,
0100
0010
0100
0010
0001
1000
0001
0100
0010
1000
0010
1000
0001
0100
0010
1000
,
0001
1000
0100
0010
0100
1000
0001
0100
0010
1000
0010
0100
0010
1000
0001
1000
,
0001
0010
0100
0010
0001
1000
0001
0100
0010
1000
0001
1000
0001
0000
0001
0000
,
1000
0000
0000
1000
0000
0000
1000
0000
,
0002
0023
0032
0003
,
1000
0100
0010
0001
1000
0010
1000
0001
0100
0010
0100
0010
1000
0001
1000
0100
,
0010
0001
0010
0001
1000
0100
1000
0001
0100
0010
0100
0010
1000
0001
0100
0001
,
1000
0100
1000
0100
1000
0001
0010
0001
1000
0010
1000
0010
0100
0001
1000
0001
,
0010
0100
0010
0100
1000
0001
0010
0100
1000
0001
1000
0001
0200
0000
0300
0000
,
0010
1000
0001
0100
0001
1000
0001
1000
0100
0010
0100
1000
0100
0010
0001
0100
,
0001
1000
0010
0100
0001
1000
0001
1000
0010
0100
0001
1000
0100
0000
1000
0001
,
0100
0010
0100
0010
1000
0001
0010
0001
1000
0010
1000
0010
0100
0001
1000
0100
,
1000
0001
1000
0001
0010
0100
0010
0001
0200
0000
0300
0000
0020
0000
0030
0000
,
1000
0100
1000
0100
1000
0010
0100
0001
1000
0001
0010
0100
0010
0001
1000
0010
,
0100
0010
1000
0000
0001
0000
0100
0010
0100
0010
1000
0000
0001
0010
0100
1000
,
0010
0100
0001
1000
0100
0010
0100
0010
0001
1000
0100
1000
0001
0100
0001
1000
,
0010
1000
0001
1000
0100
0000
0010
0001
0010
0001
1000
0000
0001
0000
0001
0000
,
1000
0001
1000
0010
0100
0001
0100
0001
1000
0010
1000
0000
0001
0010
0100
0010
,
0001
1000
0001
1000
0010
0100
0010
1000
0001
0100
0001
0000
1000
0100
0010
0001
,
1000
0100
1000
0100
0010
0001
1000
0010
0100
0010
1000
0001
0100
0001
1000
0001
,
0020
0000
0000
0000
0230
0300
0000
0000
,
1000
0100
1000
0100
0010
0001
1000
0001
0100
0010
1000
0010
0100
0001
1000
0001
,
1000
0100
0010
0100
1000
0001
0100
0001
2000
3010
0100
0000
0001
1000
0001
1000
,
0100
0010
0001
0010
0100
1000
0001
1000
0010
0100
0010
1000
0001
0100
0001
1000
,
0100
0010
0100
0010
0001
1000
0100
1000
0002
0003
0000
0000
0001
0000
1000
0000
,
0100
1000
0100
0010
0001
1000
0001
0100
0010
1000
0010
0100
0001
1000
0001
1000
,
0100
0010
0100
1000
0001
0010
0001
1000
0010
1000
0010
0100
0001
1000
0010
1000
,
0001
0000
1000
0000
0100
0010
0100
0000
1000
0000
0010
0100
0010
0000
1000
0000
,
0100
0000
0000
0010
0000
0000
0001
0000
1000
0000
0000
1000
0000
0000
0001
0000
,
0100
0010
1000
0001
0100
0001
1000
0010
1000
0100
1000
0100
0010
0001
0010
0100
,
0010
0001
1000
0010
0100
0001
0100
0001
0020
0030
0000
0000
0010
0000
0100
0000
,
1000
0001
0010
0001
1000
0100
0010
0001
0100
0010
1000
0001
0100
0001
0100
0010
,
2000
0000
0000
3000
0000
0000
0000
0000
0000
0000
0000
0000
0002
0000
0000
0013
0000
0000
0200
0000
0000
0300
0000
0000
1000
0000
0000
0000
0000
0000
0001
0000
1000
0000
0001
0000
1000
0000
0000
0000
0000
0000
1000
0000
0000
0000
0000
0000
,
0001
0100
0010
0100
0001
0000
1000
0100
0010
0001
1000
0100
1000
0000
0001
0100
,
0010
0100
0001
1000
0001
0000
1000
0100
0010
0001
1000
0100
1000
0000
0001
1000
,
0001
0001
0001
0001
,
1000
0000
0000
0000
,
1001
1000
0200
0300
0000
0000
0000
0000
,
0000
0000
0000
0000
0000
0000
0000
0000
1000
0000
0001
0000
0100
0010
0100
0000
,
0001
0000
1000
0000
0100
0010
0100
0000
1000
0000
0001
0000
0100
0010
0100
0000
,
0001
0000
1000
0000
0100
0010
0100
0000
1000
0000
0001
0000
1000
0000
0010
0000
,
0100
0000
0000
0001
0000
0000
0100
0000
0000
0010
0000
0000
1000
0000
0000
0001
0000
0000
1000
0000
0000
0100
0000
0000
0010
0000
0000
0000
0000
0000
0000
0000
0000
0000
0000
0000
0200
0000
0000
0000
0300
0000
0000
0000
0000
0000
0000
0000
,
1000
0000
0000
0000
0000
0000
0000
0000
0000
0000
0000
0000
0002
0000
0000
0003
0000
0000
0000
0000
0000
0000
0000
0000
1000
0000
0000
0000
0000
0000
0000
0000
0010
0000
0000
0000
0100
0000
0000
0000
0000
0000
0000
0000
0000
0000
0000
0000
,
0002
0000
0000
0003
,
0000
0000
0000
0000
0000
0000
0000
0000
0000
0000
0000
0000
0000
0000
0000
0000
0000
0000
1000
0001
1000
0001
1000
0001
,
4000
0004
0000
0000
0000
0000
0000
0000
0000
0000
0000
0000
0000
0000
0000
0000
0000
0000
0000
0000
0000
0000
0000
0000
,
0000
0000
0000
0000
,
0000
0000
0000
0000
,
0000
0000
0000
0000
,
0000
0000
0000
0000
,
0000
0000
0000
0000
0000
0000
0000
3003
,
1000
0000
0000
1000
0000
0000
1000
0000
,
0001
0000
0000
0001
0000
0000
0001
0000
,
1000
0100
0010
0001
1000
0100
1000
0100
1000
0010
0100
0001
1000
0010
1000
0010
,
0100
0001
0010
0100
1000
0001
1000
0001
0100
0010
0100
0001
1000
0010
1000
0010
,
1000
0100
0010
0001
0010
0100
0010
0100
1000
0010
0100
0001
1000
0010
1000
0010
,
1000
0100
0010
0100
1000
0001
1000
0001
0100
0010
0100
0001
0010
0100
1000
0100
,
0010
0000
0001
0010
0100
0000
1000
0100
0010
0000
0001
0100
0010
0000
1000
0010
,
0100
0000
0001
0010
0100
0000
1000
0100
0010
0000
0001
0100
0010
0000
1000
0010
,
0100
0100
0001
0010
,
0002
1000
0103
0000
,
0001
0100
0010
1000
0001
0100
0001
1000
0100
0010
0100
1000
0001
0010
0001
1000
,
0010
0100
0010
1000
0001
0100
0001
1000
0100
0010
0100
1000
0001
0010
0001
0010
,
0001
0100
0010
0100
0001
1000
0010
1000
0001
0010
0100
0010
0001
1000
0100
1000
,
0001
0000
0000
0100
0000
0000
0010
0000
0000
1000
0000
0000
0010
0000
0000
0100
0000
0000
0001
0000
0000
1000
0000
0000
0100
0000
0000
0010
0000
0000
0001
0000
0000
1000
0000
0000
0001
0000
1000
0000
0001
0000
1000
0000
0001
0000
1000
0000
,
0001
1000
0010
1000
0001
0010
0100
1000
0100
0010
0001
1000
0001
0000
0001
0000
,
1000
0000
0000
0010
0000
0000
1000
0000
0000
0001
0000
0000
1000
0000
0000
0000
0000
0000
1000
0000
0000
0000
0000
0000
0100
0000
1000
0000
0100
0000
1000
0000
0100
0000
1000
0000
0100
0000
1000
0000
0100
0000
1000
0000
0100
0000
1000
0000
,
0200
0000
0000
0300
,
0010
0000
0000
0000
0022
0033
0000
0000
,
0001
1000
0010
0100
0010
1000
0001
0100
0001
1000
0001
0010
0100
1000
0100
0010
,
0001
1000
0100
1000
0001
0100
0010
0100
0001
1000
0010
0100
0010
1000
0001
1000
,
0100
0010
0001
1000
0001
0100
0001
0100
0001
1000
0100
0010
0100
1000
0100
0010
,
0001
1000
0010
1000
0100
0010
0001
1000
0001
0100
0010
1000
0100
0000
0010
0000
,
0100
1000
0001
0010
0100
0010
0001
1000
0100
0010
0100
1000
0001
0010
0100
1000
,
0010
0100
0001
0100
0010
1000
0100
1000
0001
0100
0010
0100
0001
1000
0100
1000
,
0001
0100
0010
0100
0001
1000
0001
1000
0100
0010
0001
1000
0001
1000
0010
0100
,
0001
0000
0000
0010
0000
0000
0100
0000
0000
1000
0000
0000
0001
0000
0000
0010
0000
0000
0001
0000
0000
0100
0000
0000
0001
0000
0000
1000
0000
0000
0010
0000
1000
0000
0010
0000
1000
0000
0000
0000
0000
0000
0001
0000
0000
0000
0000
0000
,
1000
0001
0010
0100
0010
0001
1000
0100
1000
0001
1000
0010
0100
0001
0100
0010
,
1000
0001
0100
0001
1000
0100
0010
0100
1000
0001
0010
0100
0010
0001
1000
0001
,
0100
0010
1000
0001
1000
0100
0010
0100
1000
0001
0100
0010
0100
0001
0100
0010
,
1000
0001
0010
0001
0100
0010
1000
0001
1000
0100
0010
0001
0200
0300
0010
0000
,
1000
0100
1000
0001
1000
0010
1000
0000
,
1001
0000
0000
1100
0000
0000
0110
0000
0000
0011
0000
0000
0001
1000
0001
0000
,
0010
0010
0001
0100
,
0002
0010
1003
0000
,
1000
0001
0100
0010
0100
0001
1000
0010
1000
0001
1000
0100
0010
0001
0010
0100
,
1000
0001
0010
0001
1000
0010
0100
0010
1000
0001
0100
0010
0100
0001
1000
0001
,
0010
0100
1000
0001
1000
0010
1000
0010
1000
0001
0010
0100
0010
0001
0010
0100
,
1000
0001
0100
0001
0010
0100
1000
0001
1000
0010
0100
0001
0020
0030
0100
0000
,
0010
0001
1000
0010
0100
0010
1000
0001
0100
0010
0100
0001
1000
0010
0100
0001
,
0010
0100
1000
0100
0010
0001
0100
0001
1000
0100
0010
0100
1000
0001
0100
0001
,
1000
0100
0010
0100
1000
0001
0100
0010
0100
0001
1000
0100
1000
0001
0010
0001
,
0100
0000
0000
0010
0000
0000
1000
0000
0000
0001
0000
0000
0100
0000
0000
0001
0000
0000
1000
0000
0000
0100
0000
0000
1000
0000
0000
0001
0000
0000
0010
0000
0001
0000
0010
0000
0001
0000
0000
0000
0000
0000
1000
0000
0000
0000
0000
0000
,
0001
0100
0010
0100
0001
1000
0010
1000
,
0100
0010
0001
1000
0001
0010
0100
1000
,
0010
0100
0001
0100
0010
1000
0010
0100
,
0001
0000
0010
0100
0010
0000
0001
0000
1000
0000
0010
0100
0020
0030
0010
0000
,
1000
0100
0010
0001
0010
0100
1000
0001
,
0100
0010
0100
0001
0100
0010
0100
0001
,
2000
3000
0000
2000
3000
0000
2000
3000
,
0002
0000
0000
0000
,
1003
0100
0010
0001
0100
0001
1000
0100
1000
0001
0100
0010
1000
0001
0010
0001
,
1000
0100
0010
0001
1000
0010
0100
0010
1000
0001
0100
0001
0010
0100
0010
0100
,
1000
0001
1000
0100
0010
0001
0010
0001
1000
0010
0100
0001
1000
0010
1000
0010
,
0100
0001
1000
0100
1000
0010
0100
0001
0100
0010
1000
0001
0100
0000
0100
0000
,
0001
0010
0100
1000
0010
0100
0010
1000
0001
1000
0100
0010
0001
1000
0100
1000
,
0001
0100
0010
1000
0100
1000
0001
0010
0100
1000
0001
0100
0010
1000
0010
1000
,
0001
0100
0001
1000
0100
0010
0100
1000
0001
0100
0001
1000
0100
0010
0100
1000
,
0001
0100
0001
0010
0100
1000
0001
1000
0100
0010
0001
1000
0010
0100
0010
1000
,
0100
0010
0001
1000
0100
1000
0001
0010
0001
1000
0010
0100
0001
0100
0010
1000
,
0001
0010
0100
0010
0001
1000
0100
0010
0001
1000
0010
0100
0010
1000
0100
0010
,
0001
0010
0100
0010
0001
1000
0001
0010
0001
1000
0010
0100
0010
1000
0001
0100
,
0001
1000
0100
0010
0001
0100
0010
1000
0100
0010
0100
1000
0001
0100
0001
1000
,
0100
0010
0001
0100
0001
1000
0100
1000
0001
0100
0001
1000
0100
0010
0100
1000
,
0001
0100
0010
1000
0001
0100
0010
0100
0001
0010
0100
1000
0100
0010
0001
1000
,
0010
0100
0010
1000
0001
0010
0100
0010
0001
1000
0010
1000
0001
0010
0001
0100
,
0010
1000
0001
1000
0100
0010
0001
1000
0010
0100
0001
0010
0100
0000
0000
0000
,
1000
0100
0010
0001
0100
0010
0100
0001
1000
0100
0010
0001
1000
0010
0100
0010
,
1000
0001
0100
0001
1000
0010
1000
0001
0010
0100
1000
0100
0010
0001
0010
0001
,
1000
0010
1000
0001
0010
0100
0010
0001
1000
0010
1000
0001
0010
0100
0010
0001
,
1000
0010
1000
0001
0010
0100
0010
0001
0100
0000
0000
0000
0002
0003
0001
0000
,
1000
0010
0100
0001
0010
0001
1000
0010
1000
0001
0100
0001
1000
0100
0010
0001
,
1000
0100
1000
0010
0100
0001
1000
0010
1000
0001
0100
0001
1000
0100
1000
0100
,
1000
0001
0100
0010
0100
0001
1000
0100
1000
0001
0100
0010
0100
0001
1000
0100
,
1000
0001
0100
0010
1000
0100
0010
0001
0010
0100
1000
0001
1000
0010
0100
0001
,
0010
0100
1000
0001
0100
0010
0100
0010
1000
0001
1000
0100
0010
0001
0010
0001
,
1000
0010
0100
0001
1000
0010
1000
0010
0100
0001
1000
0100
0010
0001
0100
0000
,
0001
1000
0010
1000
0001
0100
0001
0100
0001
0010
0100
1000
0001
0010
0001
0010
,
0001
0100
0010
1000
0001
0100
0001
0010
0100
1000
0010
0100
0001
1000
0001
1000
,
0100
0010
0001
1000
0010
0100
0001
1000
0100
0010
0001
1000
0010
0100
0001
1000
,
0001
0010
0100
1000
0001
0100
0010
1000
0100
0010
0001
0100
0010
1000
0001
0100
,
0002
0003
0000
0000
0001
0000
0000
0000
0001
0000
0000
0000
0001
0000
0000
0000
,
1000
0000
0000
0000
,
1000
0100
0010
0001
1000
0100
1000
0100
1000
0010
0100
0010
1000
0001
1000
0001
,
0010
0100
1000
0001
0010
0100
0010
0100
1000
0001
0100
0010
1000
0001
1000
0001
,
0010
0100
0010
0001
1000
0100
1000
0100
1000
0010
0100
0001
1000
0010
1000
0010
,
1000
0100
0010
0001
0010
0100
0010
0100
1000
0001
1000
0010
0200
0300
0100
0000
,
0001
0100
0010
1000
0100
0010
0100
0010
0001
1000
0010
1000
0001
0100
0001
0100
,
0010
1000
0001
0010
0100
1000
0100
1000
0001
0100
0010
1000
0001
0100
0001
0100
,
0001
0010
0100
1000
0100
0010
0100
0010
0001
1000
0010
0100
0001
1000
0001
1000
,
0100
0010
0001
1000
0010
1000
0001
0010
0100
0000
1000
0000
0020
0030
0010
0000
,
0100
0001
0100
0010
1000
0100
0010
0001
1000
0100
1000
0001
0100
0010
0100
0010
,
1000
0001
1000
0100
0010
0001
0010
0001
1000
0010
0100
0010
1000
0001
1000
0100
,
1000
0001
0010
0100
1000
0001
0100
0010
1000
0001
0100
0001
1000
0100
0010
0100
,
1000
0010
1000
0010
1000
0001
1000
0001
1000
0100
0010
0000
0100
0000
1000
0000
,
0001
0100
0001
0010
0100
0010
0001
1000
0100
0010
0100
1000
0001
0100
0001
0100
,
0010
1000
0001
1000
0100
0010
0100
0010
0001
1000
0010
0100
0001
1000
0001
1000
,
0100
0010
0001
1000
0100
0010
0100
1000
0001
0100
0010
1000
0010
0100
0001
1000
,
0100
0010
0001
1000
0001
0010
0100
1000
0010
0100
0001
1000
0100
0010
0100
1000
,
0002
0100
0100
0100
,
0100
0100
0100
0103
,
0004
0000
0000
0000
,
0000
0000
0000
0000
,
1003
0100
0010
0001
1000
0001
0010
0100
1000
0001
0100
0001
1000
0010
1000
0001
,
0010
0100
1000
0001
1000
0100
0010
0001
1000
0010
0100
0010
1000
0001
0100
0001
,
2000
0000
0000
0000
,
3000
0000
0000
0000
,
0002
0000
0000
0000
,
0000
0000
0000
0003
,
0040
0000
0000
0000
,
0000
0000
0000
0000
,
0230
0000
0000
0000
,
0000
0000
0000
0000
,
0300
0000
0000
0000
,
0000
0000
0000
0000
,
2002
0000
3003
0000
,
0000
0000
0000
0000
,
0000
0MM0
0000
0000
;
