#TITLE:Lower World;
#SUBTITLE:;
#ARTIST:D.J.SETUP;
#TITLETRANSLIT:;
#SUBTITLETRANSLIT:;
#ARTISTTRANSLIT:;
#CREDIT:;
#BANNER:Lower World.png;
#BACKGROUND:Lower World-bg.png;
#LYRICSPATH:;
#CDTITLE:;
#MUSIC:Lower World.mp3;
#OFFSET:-0.005;
#SAMPLESTART:59.100;
#SAMPLELENGTH:12.000;
#SELECTABLE:YES;
#BPMS:0.000=154.900,140.000=150.000,140.250=145.000,140.500=140.000,140.750=135.000,141.000=130.000,141.250=125.000,141.500=120.000,141.750=115.000,142.000=110.000,142.250=105.000,142.500=100.000,142.750=95.000,143.000=90.000,143.250=85.000,143.500=80.000,143.750=75.000,144.000=70.000,146.000=77.800,162.000=73.000,163.000=154.900;
#STOPS:146.000=1.420
;
#BGCHANGES:;
// cache tags:
#FIRSTBEAT:16.000;
#LASTBEAT:257.750;
#SONGFILENAME:Songs/new/Lower World/Lower World.sm;
#HASMUSIC:1;
#HASBANNER:1;
#MUSICLENGTH:109.877;
// end cache tags

//---------------dance-single - ----------------
#NOTES:
     dance-single:
     :
     Easy:
     4:
     0.238,0.322,0.137,0.073,0.000,160.000,15.000,8.000,0.000,0.000:  // measure 1
0000
0000
0000
0000
,  // measure 2
0000
0000
0000
0000
,  // measure 3
0000
0000
0000
0000
,  // measure 4
0000
0000
0000
0000
,  // measure 5
0000
0001
0000
0001
,  // measure 6
0000
0100
0000
0100
,  // measure 7
0000
0010
0000
0010
,  // measure 8
0000
0000
0000
0000
,  // measure 9
1000
0000
0001
0000
,  // measure 10
1000
0000
0001
0000
,  // measure 11
0100
0000
0010
0000
,  // measure 12
0100
0000
0010
1000
,  // measure 13
0001
0000
0010
0000
,  // measure 14
0100
0000
1000
0000
,  // measure 15
0001
0000
0100
0000
,  // measure 16
0010
1000
0001
0100
,  // measure 17
0110
1000
0000
0001
,  // measure 18
0000
1000
0001
1000
,  // measure 19
0100
0000
0010
0000
,  // measure 20
0100
0010
0100
0010
,  // measure 21
1001
0100
0000
0100
,  // measure 22
0010
0001
0100
0010
,  // measure 23
1001
0010
0000
0010
,  // measure 24
0100
0001
1000
0100
,  // measure 25
0001
0001
1000
1000
,  // measure 26
0001
1000
0001
1000
,  // measure 27
0010
0010
0100
0100
,  // measure 28
0010
0100
0010
0100
,  // measure 29
1001
0000
0001
0001
,  // measure 30
0110
0000
1000
1000
,  // measure 31
0001
0100
1000
0100
,  // measure 32
0001
0010
1000
0010
,  // measure 33
2002
0000
0000
0000
,  // measure 34
0000
0000
0000
0000
,  // measure 35
0000
0000
0000
0000
,  // measure 36
0000
0000
0000
0000
,  // measure 37
0000
0000
3003
0100
,  // measure 38
0000
0010
1000
0002
,  // measure 39
0003
2000
3000
0020
,  // measure 40
0030
0100
0000
0010
,  // measure 41
1000
0002
0003
1000
,  // measure 42
0000
1000
0000
1000
,  // measure 43
1000
1000
1000
0100
,  // measure 44
0000
0100
0000
0100
,  // measure 45
0100
0010
1001
0001
,  // measure 46
0000
0100
0000
1000
,  // measure 47
0000
0100
0000
0220
,  // measure 48
0000
0000
0000
0000
,  // measure 49
0000
0330
0000
1001
,  // measure 50
0001
0000
1000
0000
,  // measure 51
0001
0000
1000
0000
,  // measure 52
0010
0000
0100
0000
,  // measure 53
0010
0000
1000
1001
,  // measure 54
0001
0000
1000
1001
,  // measure 55
0010
0000
0010
0101
,  // measure 56
0001
0000
1000
0000
,  // measure 57
0100
0000
0010
0001
,  // measure 58
0100
0001
0001
1000
,  // measure 59
0100
1000
1000
0001
,  // measure 60
0010
0001
0001
1000
,  // measure 61
0010
1000
1000
0001
,  // measure 62
0100
0010
1000
1000
,  // measure 63
0100
0010
0001
0100
,  // measure 64
0010
0100
0010
1010
,  // measure 65
1001
0101
0000
0000
;

//---------------dance-single - ----------------
#NOTES:
     dance-single:
     :
     Medium:
     6:
     0.346,0.439,0.237,0.118,0.000,227.000,26.000,13.000,0.000,0.000:  // measure 1
0000
0000
0000
0000
,  // measure 2
0000
0000
0000
0000
,  // measure 3
0000
0000
0000
0000
,  // measure 4
0000
0000
0000
0000
,  // measure 5
0000
0001
0000
0001
,  // measure 6
0000
1000
0000
1000
,  // measure 7
0000
0010
0000
0010
,  // measure 8
0000
0000
0000
0000
,  // measure 9
1000
0001
1000
0100
,  // measure 10
0001
1000
0001
0100
,  // measure 11
1000
0010
0001
1000
,  // measure 12
0001
0010
1000
0001
,  // measure 13
1000
0100
0010
0000
0100
0000
0011
0000
,  // measure 14
1000
0100
0010
0100
,  // measure 15
0001
0100
0010
0000
0100
0000
1010
0000
,  // measure 16
0001
0100
0010
0100
,  // measure 17
0001
0002
1000
1003
,  // measure 18
0010
0000
0100
0000
0010
1000
0001
0000
,  // measure 19
2000
0100
0010
3001
,  // measure 20
0002
0100
0010
1003
,  // measure 21
0110
0000
1001
0000
0100
0100
0100
0000
,  // measure 22
0010
0000
0100
0000
0001
0001
0001
0000
,  // measure 23
1000
0100
1000
0000
0001
0100
0001
0000
,  // measure 24
1010
0101
1100
0000
,  // measure 25
0010
1001
0010
1001
,  // measure 26
0100
1001
0100
1001
,  // measure 27
0010
0101
0010
1100
,  // measure 28
0001
0110
1000
0110
,  // measure 29
1001
0100
0010
0100
,  // measure 30
1001
0100
0010
0100
,  // measure 31
0010
0010
1000
0000
0010
0010
1000
0000
,  // measure 32
0001
0100
0010
1000
0010
0100
0001
0000
,  // measure 33
2002
0000
0000
0000
,  // measure 34
0000
0000
0000
0000
,  // measure 35
0000
0000
0000
0000
,  // measure 36
0000
0000
0000
0000
,  // measure 37
0000
0000
3003
0100
,  // measure 38
0010
2000
3001
0200
,  // measure 39
0300
0020
0030
2000
,  // measure 40
0000
3002
0000
0103
,  // measure 41
0010
0200
0300
0001
,  // measure 42
1000
0001
1000
0001
,  // measure 43
1000
0000
0001
0001
0001
0000
1000
0000
,  // measure 44
0100
0010
0001
1000
,  // measure 45
0100
0010
0001
0100
,  // measure 46
0100
0010
0010
1000
,  // measure 47
0001
0100
0010
2002
,  // measure 48
0000
0000
0000
0000
,  // measure 49
0000
3003
0000
0010
,  // measure 50
0100
0000
0010
1000
0100
0000
0010
0000
,  // measure 51
0100
0000
0010
0001
0100
0000
0001
0000
,  // measure 52
1000
0000
0001
0100
1000
0000
0001
0000
,  // measure 53
1000
0000
0100
0010
0000
0000
1001
0000
,  // measure 54
0100
0000
0010
0001
0100
0000
0001
0000
,  // measure 55
1100
0000
0010
0100
0010
0000
1000
0001
,  // measure 56
0100
0000
0000
1000
0100
0000
0000
0001
,  // measure 57
0100
0000
0000
0001
0000
0001
1000
0000
,  // measure 58
0100
1000
1001
0001
,  // measure 59
0100
0001
1001
0010
,  // measure 60
1000
0010
1010
0100
,  // measure 61
0001
0000
0100
0000
0101
0000
0010
1000
,  // measure 62
0100
0000
0010
0001
0100
0000
0001
1000
,  // measure 63
0100
0000
1000
0100
0001
0000
1000
0100
,  // measure 64
0010
0000
0001
0100
0010
1000
0000
0001
,  // measure 65
0000
0100
0000
0110
0000
0000
0000
0000
;

//---------------dance-single - ----------------
#NOTES:
     dance-single:
     :
     Hard:
     9:
     0.506,0.586,0.255,0.109,0.164,349.000,28.000,12.000,0.000,0.000:  // measure 1
0000
0000
0000
0000
,  // measure 2
0000
0000
0000
0000
,  // measure 3
0000
0000
0000
0000
,  // measure 4
0000
0000
0000
0000
,  // measure 5
1000
0100
0001
0010
,  // measure 6
1000
0100
0001
0010
,  // measure 7
1100
0000
0001
0000
0101
0000
1000
0100
,  // measure 8
0000
0000
0000
0000
,  // measure 9
0001
1000
0000
0000
0100
0000
0000
0000
1000
0000
0000
0000
0100
0000
0000
0000
,  // measure 10
1000
0001
0000
0000
0100
0000
0000
0000
0001
0000
0000
0000
0100
0000
0000
0000
,  // measure 11
0010
1000
0000
0000
0001
0000
0000
0000
1000
0000
0000
0000
0110
0000
0000
0000
,  // measure 12
0010
0001
0000
0000
1000
0000
0000
0000
0001
0000
0000
0000
0110
0000
0000
0000
,  // measure 13
1001
0000
1001
0000
0010
0001
0100
0000
,  // measure 14
1001
0000
1001
0000
0010
1000
0100
0000
,  // measure 15
0001
0101
1000
1100
,  // measure 16
0001
0100
1000
0100
0101
1000
1010
0000
,  // measure 17
1001
0100
0010
0000
1001
0100
0010
0000
,  // measure 18
1001
0100
0010
0001
0100
1000
0100
0000
,  // measure 19
0010
1000
1001
0000
0010
1000
1001
0000
,  // measure 20
0010
0100
0001
1000
0010
0001
0010
0000
,  // measure 21
1010
0000
0100
1000
0001
0100
0010
0010
,  // measure 22
0000
0101
0010
1000
0100
0010
0001
0000
,  // measure 23
1000
0100
1100
0000
0001
0010
0011
0000
,  // measure 24
1000
0100
0010
0001
1000
1000
0000
1100
,  // measure 25
0010
0000
0100
0000
1000
0001
0000
1000
0000
0000
0100
0000
1000
0001
0000
1000
,  // measure 26
0000
0000
0010
0000
1000
0001
0000
1000
0000
0000
0010
0000
1000
0001
0000
1000
,  // measure 27
0000
0000
0001
0000
0100
0010
0000
0100
0000
0000
0001
0000
0100
0010
0000
0100
,  // measure 28
0000
0000
1000
0000
0100
0001
0000
0100
0000
0000
1000
0000
0100
0001
0000
0100
,  // measure 29
0010
0000
1000
0000
0001
0100
0001
0000
0100
0000
0010
0000
1000
0000
1000
0000
,  // measure 30
0100
0000
1000
0000
0001
1000
0001
0000
1000
0000
0001
0000
1000
0000
1000
0000
,  // measure 31
0110
0010
0010
0010
0100
0010
0010
0010
,  // measure 32
1000
0001
0100
0010
1000
0010
0100
0001
,  // measure 33
2002
0000
0000
0000
,  // measure 34
0000
0000
0000
0000
,  // measure 35
0000
0000
0000
0000
,  // measure 36
0000
0000
0000
0000
,  // measure 37
0000
0000
0000
0000
3003
0000
0100
0010
,  // measure 38
1000
0010
0200
0000
0310
1000
0002
0000
,  // measure 39
0203
0320
2030
3002
,  // measure 40
0000
0023
0000
1030
,  // measure 41
0001
0100
1000
0001
,  // measure 42
0001
0000
0001
0001
0001
0000
0001
0100
,  // measure 43
1000
0000
1000
0100
0001
0010
1000
0010
,  // measure 44
0001
0000
0010
0001
1000
0000
1000
0100
,  // measure 45
0010
0000
0100
0010
0001
0000
0100
1000
,  // measure 46
0100
0001
0010
0001
0100
1000
0100
0001
,  // measure 47
0010
0100
1000
0010
0001
0010
2000
0000
,  // measure 48
0000
3020
0000
0230
,  // measure 49
0000
0000
0000
0000
0300
0000
0010
0100
,  // measure 50
0001
0100
0010
0100
0001
0100
1000
0100
,  // measure 51
0001
0010
0001
0100
0001
0010
0100
1000
,  // measure 52
0100
1000
0001
1000
0001
1000
0001
0010
,  // measure 53
0001
0010
1000
0010
0000
0100
1001
0100
,  // measure 54
1000
0100
0010
1000
0001
0100
0011
0100
,  // measure 55
0001
0100
0010
0001
1000
0100
1001
0100
,  // measure 56
0100
0000
1000
0001
0001
0000
0010
1000
,  // measure 57
1000
0000
0000
0000
0000
0000
0010
0000
0000
0000
0010
0000
1000
0001
0000
0000
,  // measure 58
0100
0001
0000
0000
0010
0000
0000
0000
1000
0000
0000
0000
0001
1000
0000
0000
,  // measure 59
0100
1000
0000
0000
0010
0000
0000
0000
0001
0000
0000
0000
0100
0010
0000
0000
,  // measure 60
1000
0100
0000
0000
1000
0000
0001
0000
1000
0000
0000
0000
0010
0100
0000
0000
,  // measure 61
0001
0010
0000
0000
0001
0000
1000
0000
0001
0000
0100
0000
0100
0010
0000
0010
,  // measure 62
0100
0000
0001
0000
1000
0000
0100
0000
1000
0000
0010
0000
0100
0001
0000
0001
,  // measure 63
0100
0000
0001
0000
0010
0000
0001
0000
1000
0000
0010
0000
1000
0100
0000
0100
,  // measure 64
1000
0001
0100
0010
1000
0010
0000
0010
,  // measure 65
0000
1000
0000
0101
0000
0000
0000
0000
;

//---------------dance-single - ----------------
#NOTES:
     dance-single:
     :
     Challenge:
     9:
     0.589,0.674,0.264,0.109,0.341,412.000,29.000,12.000,0.000,0.000:  // measure 1
0000
0000
0000
0000
,  // measure 2
0000
0000
0000
0000
,  // measure 3
0000
0000
0000
0000
,  // measure 4
0000
0000
0000
0000
,  // measure 5
1000
0100
0000
1100
0000
0101
0000
1000
,  // measure 6
0100
1000
0000
1100
0000
0101
0000
1000
,  // measure 7
0100
0000
1000
0000
0000
0000
1100
0000
0000
0000
0101
0000
0000
0000
1000
0100
,  // measure 8
0000
0000
0000
0000
,  // measure 9
0010
1000
0100
1000
0001
0100
0010
0000
,  // measure 10
0010
1000
0100
1000
0001
0100
0010
0000
,  // measure 11
0100
0001
0010
0001
1000
0100
0010
0000
,  // measure 12
0100
0001
0010
0001
1000
0100
0010
1001
,  // measure 13
0000
1001
0100
1000
0100
1000
0100
0001
,  // measure 14
0000
1000
0010
0001
0010
0001
0010
1000
,  // measure 15
0000
0001
0100
1000
0100
0001
0010
1000
,  // measure 16
0010
0000
0001
0000
0100
0000
0010
0000
1000
0000
0001
1000
0001
1000
0001
0000
,  // measure 17
0000
0000
1000
0000
0100
1000
0000
0100
0000
0000
0001
0000
0100
0001
0000
0100
,  // measure 18
0000
0000
0010
0000
0001
0010
0000
0001
0000
0000
1000
0000
1000
0000
0001
0000
,  // measure 19
1000
0000
0100
0000
1000
0001
0000
1000
0001
0000
0100
0000
0001
1000
0000
0001
,  // measure 20
1000
0000
0100
0000
1000
0001
0000
1000
0001
0000
0100
0000
0010
0000
0100
0000
,  // measure 21
0110
0000
0000
0000
1001
0000
0000
0000
0010
1000
0010
0000
1010
0000
0000
0000
,  // measure 22
1100
0000
0000
0000
0101
0000
0000
0000
0001
1000
0001
0000
1001
0000
0000
0000
,  // measure 23
1000
0100
0000
0000
0010
0000
0000
0000
1000
0100
0000
0000
0010
0000
0000
0000
,  // measure 24
0001
0100
0001
0000
1000
0000
0100
0000
0010
0000
0100
0000
1001
0000
0000
0000
,  // measure 25
1001
0000
0010
0000
0100
0001
0000
1000
0001
0000
0010
0000
0100
1000
0000
0001
,  // measure 26
1000
0000
0010
0000
0100
0001
0000
1000
0001
0000
0010
0000
0001
1000
0001
0000
,  // measure 27
0100
0000
1000
0000
0001
0010
0000
0001
0100
0000
0001
0000
1000
0010
0000
1000
,  // measure 28
0100
0000
1000
0000
0001
0010
0000
0001
0100
0000
0001
0000
0010
0100
0010
0000
,  // measure 29
1001
0000
0000
0100
1000
0000
0001
0000
0100
0000
0100
0000
0100
0010
1000
0000
,  // measure 30
1001
0000
0000
0100
1000
0000
0001
0000
0100
0000
0100
0000
0100
0000
0010
0000
,  // measure 31
0101
0000
1000
0100
1000
0000
0010
0000
0101
0000
1000
0100
1000
0000
0010
0000
,  // measure 32
0101
0001
0010
0001
1000
0100
1000
0010
,  // measure 33
2002
0000
0000
0000
,  // measure 34
0000
0000
0000
0000
,  // measure 35
0000
0000
0000
0000
,  // measure 36
0000
0000
0000
0000
,  // measure 37
0000
0000
0000
0000
3003
0000
0100
0010
,  // measure 38
1000
0010
0200
0000
0310
1000
0002
0000
,  // measure 39
0203
0320
2030
3002
,  // measure 40
0000
0023
0000
1030
,  // measure 41
0001
0000
0100
0000
1000
0000
0001
0001
,  // measure 42
0001
0000
0001
0001
0001
0000
0001
0100
,  // measure 43
1000
0100
0001
0010
1000
0000
1000
1000
,  // measure 44
1000
0000
1000
0010
0001
0100
1000
0100
,  // measure 45
0001
0010
1000
0100
0010
0000
0001
0001
,  // measure 46
1100
0000
0010
0010
1100
0000
1000
1000
,  // measure 47
0001
0100
1000
0010
0001
0010
0120
0000
,  // measure 48
0000
2030
0000
3002
,  // measure 49
0000
0000
0000
0000
0000
0000
0000
0000
0003
0000
0000
0000
1000
0000
0000
0010
,  // measure 50
0100
0001
0010
0100
0010
0001
0100
1000
,  // measure 51
0100
0000
0010
0000
1000
0000
0100
0000
0100
0000
1000
0000
0010
0000
0000
0100
,  // measure 52
0001
1000
0010
0100
0010
1000
1000
0100
,  // measure 53
0100
0000
1000
0000
0100
0000
1100
0000
0000
0000
1100
0000
1001
0000
0000
0010
,  // measure 54
0100
0000
0001
0000
1000
0000
0010
0000
0100
0000
0001
0000
1001
0000
0000
0010
,  // measure 55
0100
0000
0001
0000
1000
0000
0010
0000
1000
0001
0100
0000
0001
0000
0001
0000
,  // measure 56
0001
0000
1000
1000
1000
0000
0100
0010
,  // measure 57
1000
0000
0001
0000
0100
0000
0010
0000
1000
0001
1000
0000
0010
0100
0000
0000
,  // measure 58
0001
0100
0000
0000
1000
0100
0000
1000
0001
0000
1000
0000
0010
0100
0000
0000
,  // measure 59
0001
0100
0000
0000
1000
0100
0000
1000
0001
0000
1000
0000
0010
0100
0000
0000
,  // measure 60
0010
1000
0000
0000
0100
1000
0000
0001
1000
0000
0001
0000
0010
0100
0000
0000
,  // measure 61
0010
1000
0000
0000
0100
1000
0000
0001
1000
0000
0001
0000
0010
0001
0010
0000
,  // measure 62
0001
1000
0000
0100
1000
0000
0001
0100
0001
0000
0100
0000
0010
1000
0010
0000
,  // measure 63
1000
0001
0000
0100
0001
0000
1000
0100
1000
0000
0100
0000
0010
0001
1000
0000
,  // measure 64
0001
0100
0000
0010
1000
0000
0001
1000
0001
0000
0100
0000
0000
0010
1000
0000
,  // measure 65
0001
0000
0100
0000
0001
0000
1000
0100
0000
0000
0000
0000
0000
0000
0000
0000
;
