#TITLE:Ruins in Hell;
#SUBTITLE:;
#ARTIST:Unknown artist;
#TITLETRANSLIT:;
#SUBTITLETRANSLIT:;
#ARTISTTRANSLIT:;
#CREDIT:;
#BANNER:rihbn.png;
#BACKGROUND:;
#LYRICSPATH:;
#CDTITLE:;
#MUSIC:01 IRON ATTACK! - Ruins in Hell.ogg;
#OFFSET:-0.281;
#SAMPLESTART:37.781;
#SAMPLELENGTH:12.000;
#SELECTABLE:YES;
#BPMS:0.000=160.000;
#STOPS:;
#BGCHANGES:;
// cache tags:
#FIRSTBEAT:26.000;
#LASTBEAT:568.250;
#SONGFILENAME:Songs/SSSC PACK/[Zarkonis] - Ruins in Hell/Ruins in Hell.sm;
#HASMUSIC:1;
#HASBANNER:1;
#MUSICLENGTH:105.000;
// end cache tags

//---------------dance-single - Blank----------------
#NOTES:
     dance-single:
     Blank:
     Challenge:
     15:
     1.000,1.000,1.000,0.352,1.000,1694.000,145.000,37.000,0.000,0.000:

0000
0000
0000
0000
,
0000
0000
0000
0000
,
0000
0000
0000
0000
,
0000
0000
0000
0000
,
0000
0000
0000
0000
,
0000
0000
0000
0000
,
0000
0000
0000
0000
0000
0000
0000
0000
1000
0010
0100
0001
0010
0000
0110
0000
,
1100
0000
0000
0011
0000
0000
0101
0000
1010
0000
0000
1001
0000
0000
0011
0000
,
1100
0000
0000
1010
0000
0000
0110
0000
0100
0010
1000
0001
1000
0000
1100
0000
,
0011
0000
0000
0101
0000
0000
1001
0000
1100
0000
0000
0101
0000
0000
0011
0000
,
0001
0100
0001
0100
0010
1000
0100
1000
0010
0100
0001
0010
0001
1000
0001
0100
,
0001
1000
0100
1000
0001
0100
0001
0010
0100
0010
0001
0100
0010
1000
0100
1000
,
0001
0010
0001
1000
0100
0010
0001
0010
0100
1000
0010
0100
0001
1000
0010
1000
,
0100
1000
0001
1000
0010
1000
0001
0100
0101
0000
0000
1010
0000
0000
1100
0000
,
0100
1000
0100
1000
0010
1000
0100
1000
0010
0100
0001
0010
0001
1000
0100
1000
,
0001
0010
0001
0100
0010
0100
0001
1000
0100
0010
0100
1000
0001
0100
0010
0100
,
0001
0010
0001
1000
0100
1000
0010
0100
0001
0010
0001
1000
0100
0010
0100
1000
,
0001
1000
0100
1000
0001
0100
0001
1000
1001
0000
0000
0101
0000
0000
1010
0000
,
0010
1000
0010
0100
0001
0100
0010
0100
0001
0010
0001
1000
0100
1000
0010
0100
,
0010
1000
0100
1000
0010
0100
0001
1000
2002
0000
0000
0000
0000
0000
0000
3003
,
0001
0010
0100
1000
0001
0010
0100
1000
0001
0000
0100
0000
0001
0100
0001
0000
,
1000
0000
0100
1000
0001
0010
0001
0000
0100
0000
0010
0000
1000
0100
1000
0000
,
0010
0000
0100
0010
0100
0001
1000
0000
0011
0000
0001
1000
0001
1000
0100
0000
,
1000
0000
0010
0100
0010
0100
0001
0000
0010
0000
0001
0000
1000
0100
1000
0001
,
0100
0000
0001
1000
0001
1000
0010
0000
0110
0000
0100
0001
1000
0001
0100
0000
,
0010
0000
1000
0100
1000
0100
0010
0000
0001
0000
1000
0000
0010
1000
0010
0000
,
0100
0000
0001
0010
0001
1000
0100
0000
0110
0000
0010
0000
0001
1000
0001
0000
,
0100
0000
0010
1000
0100
1000
0010
0000
0110
0000
0001
0000
0010
0001
0010
0000
,
0100
0000
0010
0100
0010
0100
1000
0000
1010
0000
0010
0100
0010
0100
0001
0000
,
1000
0000
0100
1000
0100
1000
0001
0000
0100
0000
0010
1000
0000
0010
0000
0100
,
0001
0010
0001
1000
0000
0100
0010
0001
1000
0001
0010
0001
0100
0001
1000
0100
,
1000
0010
1000
0001
0010
0001
0100
0010
1000
0100
1000
0001
0010
0100
0010
0001
,
1000
0010
0100
0010
1000
0100
1000
0001
0100
0001
1000
0100
1000
0001
0010
0100
,
1000
0010
0100
0010
1000
0001
1000
0010
0100
0001
0100
0010
1000
0010
0100
0010
,
1000
0001
1000
0000
0001
0000
0010
0001
0101
0000
0000
0000
0100
0000
0010
0000
,
1010
0000
1000
0100
1100
0000
0100
0010
,
0001
0000
1000
0000
0010
0100
0010
0000
1000
0001
0010
0100
1000
0000
0101
0000
,
1010
0000
0000
1100
0000
0000
0110
0000
0011
0000
0000
0101
0000
0000
1010
0000
,
1100
0000
0000
1001
0000
0000
0101
0000
0001
0100
0010
1000
0001
0000
0011
0000
,
1001
0000
0000
1100
0000
0000
1010
0000
2002
0000
3003
0202
0000
0303
1100
0000
,
1000
0010
0100
0001
1000
0010
0100
0001
1000
0001
0100
0001
1000
0001
0100
0001
,
1000
0100
0010
0100
1000
0100
0010
0100
1000
0010
0100
0010
1000
0010
1000
0001
,
0100
0001
0010
0001
0100
0001
0010
0001
1000
0100
1000
0010
0100
0001
0010
0001
,
1000
0100
1000
0001
0010
0100
1000
0100
0110
0000
0000
0011
0000
0000
1001
0000
,
1000
0100
0010
0001
1000
0100
0010
0001
0100
0001
0100
0001
0010
0001
0100
0001
,
1000
0001
1000
0100
0010
0001
1000
0001
0010
0100
1000
0010
0100
0001
0100
0010
,
1000
0010
0100
0001
1000
0100
1000
0001
0010
0001
0100
0010
1000
0100
1000
0001
,
0010
0100
0010
0001
0100
0010
0100
0010
1010
0000
0000
1100
0000
0000
0011
0000
,
0001
0010
0100
1000
0001
0010
0100
1000
0001
0010
0001
0100
0010
1000
0100
1000
,
0001
0010
0100
1000
0001
0010
0100
0010
2002
0000
0000
0000
0000
0000
0000
3003
,
1000
0010
0100
0001
1000
0010
0100
0001
1000
0000
0010
0000
0100
0010
0100
0000
,
0001
0000
0010
0001
0010
0001
1000
0000
0010
0000
0100
0000
0001
0100
0001
0000
,
1000
0000
0100
1000
0100
1000
0001
0000
0011
0000
0001
0000
0100
0001
0100
0000
,
0010
0000
1000
0001
1000
0001
0010
0000
0100
0000
1000
0000
0100
1000
0100
0000
,
0010
0000
0001
1000
0001
0100
0010
0000
1010
0000
1000
0000
0100
1000
0100
0000
,
0010
0000
0001
0100
0001
0100
0010
0000
1000
0000
0010
0000
0100
0010
0100
0000
,
0001
0000
0010
0001
0010
0001
1000
0000
1100
0000
0100
0000
0010
0001
1000
0000
,
0010
0000
0100
0010
0100
0010
1000
0000
1100
0000
0100
0000
0010
0001
1000
0000
,
0010
0000
1000
0010
1000
0010
0100
0000
0101
0000
0001
0000
0010
0001
0010
0000
,
0100
0000
1000
0100
1000
0001
0100
0000
0010
0000
1000
0010
0000
0100
0000
0001
,
0100
0010
1000
0001
0000
0010
0001
1000
0100
1000
0010
1000
0001
0010
0001
0100
,
0010
1000
0100
1000
0010
0100
0001
0010
0001
1000
0100
0010
0100
1000
0010
0100
,
0010
1000
0010
1000
0001
0010
0001
1000
0100
1000
0001
0100
0001
0010
0001
1000
,
0100
0010
0100
1000
0001
0100
0010
0100
0001
0010
0001
1000
0100
1000
0010
0100
,
0001
1000
0001
0000
0010
0000
0100
1000
1001
0000
0000
0000
0001
0000
0100
0000
,
0110
0000
0010
1000
1100
0000
0100
0010
,
0001
1000
0001
0000
0100
0010
0100
0010
1000
0001
0010
0100
1000
0000
0011
0000
,
0101
0000
0000
1010
0000
0000
1100
0000
0101
0000
0000
0011
0000
0000
1100
0000
,
1001
0000
0000
0101
0000
0000
0110
0000
1000
0010
0100
0001
1000
0000
1010
0000
,
0101
0000
0000
0011
0000
0000
1100
0000
2002
0000
3003
2200
0000
3300
0101
0000
,
0001
0100
0010
1000
0100
1000
0001
1000
0001
0000
0000
0000
0100
0000
0000
0000
,
0110
0000
0010
1000
1100
0000
0010
0001
,
0100
0000
0010
1000
0100
0000
0010
0001
1000
0000
0000
0000
0100
0000
1000
0000
,
1100
0000
0000
0000
0100
0000
0010
0000
0022
0000
0033
2200
0000
3300
1001
0000
,
0001
1000
0100
1000
0010
0100
0001
2000
0002
0000
0000
0000
0000
0000
0000
0000
,
0000
0000
0000
0000
,
3003
0000
0110
0000
1000
0001
0000
0000
1000
0100
1000
0100
0010
0001
0010
0001
,
0100
0001
0100
0001
1000
0010
1000
0010
0100
0010
0100
0010
1000
0001
1000
0001
,
0010
0001
0010
0001
1000
0100
1000
0100
0010
0100
0010
0100
1000
0001
1000
0001
,
0100
0010
0100
0010
1000
0010
1000
0010
0100
0001
0100
0001
1000
0100
1000
0100
,
0010
0001
0010
0001
1000
0001
1000
0001
0101
0100
0010
1000
0100
1000
0010
0100
,
0110
0010
1000
0001
0010
0100
1000
0100
1100
1000
0001
0010
0001
0100
0010
1000
,
1010
0010
0100
0001
0010
0001
1000
0001
1000
0100
0010
0001
1000
0100
0010
0001
,
1000
0000
0001
0000
0100
0000
0010
0000
0100
0000
0001
0000
1000
0000
0000
0010
0000
0000
0100
0000
0000
0001
0000
0000
1000
0000
0000
0010
0000
0000
0100
0000
0010
0000
1000
0000
0002
0000
0000
0000
0000
0000
1000
0000
0000
0000
0000
0000
,
1000
0000
1000
0000
1003
0001
0010
0001
1000
0100
0010
0001
1000
0001
0010
0100
,
1000
0000
0000
0010
0000
0000
0200
0000
0000
0000
0000
0000
0300
0000
0000
0000
0000
0000
0000
0000
0000
0000
0000
0000
0001
0000
0000
0000
1000
0000
0010
0000
0100
0000
0001
0000
1000
0000
0000
0100
0000
0000
0010
0000
0001
0000
0010
0000
,
0100
0000
1000
0000
0010
0000
0100
0000
0000
0010
0000
0000
0100
0000
0010
0000
1000
0000
0001
0000
1000
0000
0100
0000
1000
0000
0100
0000
0010
0000
0001
0000
0000
0100
0000
0000
0010
0000
0000
0100
0000
0000
0001
0000
0000
1000
0000
0000
,
0001
0000
0010
0000
0100
0000
1000
0000
0001
0000
0010
0000
0100
0000
0010
0000
0001
0000
0010
0000
0100
0000
0010
0000
0001
0000
0000
0100
0000
0000
0010
0000
1000
0000
0001
0000
1000
0000
0000
0001
0000
0000
0010
0000
0000
0100
0000
0000
,
1000
0010
0100
0001
2000
0000
3000
0000
0000
0000
0010
1000
0100
1000
0001
0010
,
0001
0000
0000
0000
0000
0000
1000
0000
0000
0000
0000
0000
0010
0000
0000
1000
0000
0000
0100
0000
0000
1000
0000
0000
0001
0000
0000
0000
0100
0000
0000
0000
0010
0000
0000
0000
1000
0000
0000
0000
0001
0000
0000
0000
0010
0000
0000
0000
,
0100
0000
1000
0000
0100
0000
0010
0000
0000
0001
0000
0000
1000
0000
0000
0010
0000
0000
0100
0000
0000
0001
0000
0000
1000
0000
0000
0000
0000
0000
0010
0000
0000
0000
0000
0000
0100
0000
0000
0000
0000
0000
0200
0000
0000
0000
0000
0000
,
0000
0000
0000
0000
0000
0000
0000
0000
0000
0000
0000
0000
0301
0000
0000
0010
0000
0000
0100
0000
1000
0000
0001
0000
1000
0000
0010
0000
0100
0000
0001
0000
0000
1000
0000
0000
0100
0000
0000
0000
0000
0000
0010
0000
0000
0000
0000
0000
,
0001
0000
0100
0000
0010
0000
0010
1000
0001
1000
0010
1000
0001
0100
0010
1000
,
0001
0010
0100
1000
0001
0010
0100
0010
0001
1000
0010
0100
0010
1000
0010
0100
0001
1000
0010
0100
0001
1000
0001
1000
,
0100
0010
0001
0010
0100
0010
0001
1000
0100
0010
0001
0010
0001
1000
0100
1000
0100
1000
0100
0010
0100
0010
0100
0010
,
0001
0010
0001
0010
0001
0010
0001
1000
0010
0100
0001
0100
0010
0100
0001
0100
0010
1000
0010
0100
0010
0100
0001
1000
,
0200
0000
0000
0000
0000
0300
0000
0000
0000
0000
0000
0000
0010
0001
0010
0100
1000
0001
0010
0100
0010
0001
1000
0100
,
0010
0000
0100
0000
1000
0000
0100
0000
1000
0000
0100
0000
0010
0000
0001
0000
0010
0000
0001
0000
1000
0000
0001
0000
0010
0000
0000
0100
0000
0000
1000
0000
0000
0010
0000
0000
1000
0000
0010
0000
0100
0000
0001
0000
1000
0000
0010
0000
,
0100
0010
1000
0010
0100
0001
0100
0010
1000
0001
1000
0010
0100
0001
1000
0001
0010
0100
0010
0001
1000
0100
1000
0100
,
0010
0100
0010
0002
0000
0000
0000
0000
0000
0000
0000
0000
0000
0000
0000
0000
0000
0000
0000
0000
0000
0000
0000
0000
,
1003
0010
0100
0001
1000
0100
1000
0001
2002
0000
3003
0000
1000
0000
0100
0000
,
2100
0000
0000
0000
3002
0000
0100
0003
0102
0000
0000
0003
2000
0000
0010
3000
,
2010
0000
0000
3000
0002
0000
0010
0003
0012
0000
0000
0003
1000
0000
0001
0000
,
1000
0001
1000
0000
0010
0100
0010
0000
1000
0000
0001
0100
0000
0001
0010
0001
,
1000
0000
0100
0010
0000
0001
0000
1000
0001
0010
0100
1000
0001
0000
0101
0000
,
1001
0000
0000
1100
0000
0000
0110
0000
0011
0000
0000
1001
0000
0000
1010
0000
,
0110
0000
0000
0101
0000
0000
1001
0000
1000
0100
0010
0001
1000
0000
1010
0000
,
0101
0000
0000
0011
0000
0000
1100
0000
0202
0000
0303
2020
0000
3030
0110
0000
,
0010
0100
0010
0100
0001
1000
0001
1000
0100
1000
0010
1000
0100
1000
0001
1000
,
0010
0100
0001
0010
0001
0100
0001
1000
0001
1000
0100
0010
0001
0010
0100
1000
,
0010
0100
0001
0010
0001
0100
0010
0100
0001
1000
0100
1000
0001
0100
0001
1000
,
0010
1000
0001
0010
0001
0100
0010
0100
1010
0000
0000
0110
0000
0000
0101
0000
,
0001
1000
0100
1000
0001
0100
0010
0100
0001
0000
1000
0000
0100
1000
0100
0000
,
0010
0000
0001
0100
0001
0100
0010
0000
1000
0000
0001
0000
0010
0001
0010
0000
,
0100
0000
1000
0001
1000
0010
0100
0000
0010
0000
1000
0000
0100
1000
0100
0000
,
0010
0000
0001
0100
0001
1000
0010
0000
0100
0000
0010
0000
1000
0001
1000
0000
,
0010
0000
0100
0010
0100
0010
1000
0000
0100
0000
1000
0000
0100
1000
0100
0000
,
0010
0000
0001
1000
0001
0100
0010
0000
1000
0000
0001
0000
0010
0001
0010
0000
,
0100
0000
1000
0010
0100
0010
1000
0000
1001
0000
0001
0000
0010
0001
0010
0000
,
0100
0000
0010
0001
0100
0001
0010
0000
1001
0000
1000
0010
1000
0010
0100
0000
,
0010
0000
0100
0001
0100
0001
1000
0000
0100
0000
1000
0000
0001
0010
0001
0000
,
0100
0000
0010
0100
0010
1000
0001
0000
0010
0000
0001
0010
0000
0100
0000
1000
,
0010
0100
0001
1000
0000
0001
1000
0001
0100
0001
0010
0001
1000
0100
1000
0010
,
0100
0001
0010
0001
1000
0100
0010
0100
1000
0001
0010
0100
0010
0001
0100
0010
,
0100
0010
1000
0100
0010
0100
1000
0001
0010
0001
1000
0100
1000
0010
0100
0001
,
0010
0001
0100
0001
1000
0100
1000
0010
0100
0001
0010
0001
1000
0100
1000
0001
,
0010
0100
0010
0000
0100
0000
1000
0001
1000
0000
0000
0000
0010
0000
1000
0000
,
1010
0000
0000
0000
0010
0000
0100
0000
0101
0000
0000
0000
0001
1000
0001
0000
,
1001
0000
1000
0000
0100
1000
0100
1000
0001
0010
0100
1000
0001
0000
1001
0000
,
1010
0000
0000
0110
0000
0000
0101
0000
1001
0000
0000
1100
0000
0000
0011
0000
,
0101
0000
0000
1100
0000
0000
1010
0000
0010
0100
0010
1000
0001
0000
0011
0000
,
1100
0000
0000
0110
0000
0000
0011
0000
0101
0000
0000
1010
0000
0000
1100
0000
,
0100
1000
0100
1000
0001
0010
0001
0010
0100
1000
0010
0100
0001
0010
0001
1000
,
0100
1000
0001
0010
0001
0100
0010
0100
0001
1000
0100
0010
0100
1000
0001
1000
,
0100
1000
0010
0100
0001
0010
0001
0010
0100
1000
0100
0010
0001
1000
0001
0100
,
0010
0100
0001
0100
0010
1000
0100
1000
1010
0000
0000
0011
0000
0000
1100
0000
,
0100
1000
0100
1000
0010
0100
0001
0010
0001
1000
0100
1000
0001
0100
0001
0010
,
0001
1000
0100
1000
0001
0010
0100
1000
0010
0100
0001
0010
0001
1000
0100
0010
,
0100
1000
0001
0100
0010
0100
0001
1000
0100
1000
0001
0010
0001
1000
0010
1000
,
0001
0100
0001
0010
0001
1000
0100
0010
1001
0000
0000
1100
0000
0000
0011
0000
,
0001
1000
0001
1000
0010
0100
0010
0100
0001
0010
0001
0100
0010
1000
0100
1000
,
0001
0010
0100
1000
0001
1000
0010
0100
0001
0100
0010
1000
0100
0010
0001
1000
,
0001
0100
0000
0000
0000
0000
0000
0000
0000
0000
0000
0000
0000
0000
0000
0000
;
