#TITLE:all about us;
#SUBTITLE:Only Inhuman (2007);
#ARTIST:Sonic Syndicate;
#TITLETRANSLIT:;
#SUBTITLETRANSLIT:;
#ARTISTTRANSLIT:;
#CREDIT:;
#BANNER:All about us Banner.jpg;
#BACKGROUND:All about us BG.jpg;
#LYRICSPATH:;
#CDTITLE:!cdtitle.png;
#MUSIC:09. All about us.mp3;
#OFFSET:1.757;
#SAMPLESTART:92.036;
#SAMPLELENGTH:12.000;
#SELECTABLE:YES;
#BPMS:0.000=86.000,20.000=172.000,132.000=86.000,148.000=172.000,260.000=43.000,276.000=172.000;
#STOPS:;
#BGCHANGES:;
// cache tags:
#FIRSTBEAT:4.000;
#LASTBEAT:388.500;
#SONGFILENAME:Songs/Astronomic Metal Collection 2/(XOX) all about us/all about us.sm;
#HASMUSIC:1;
#HASBANNER:1;
#MUSICLENGTH:168.698;
// end cache tags

//---------------dance-single - ----------------
#NOTES:
     dance-single:
     :
     Hard:
     11:
     1.000,1.000,1.000,0.124,0.622,825.000,404.000,21.000,0.000,76.000:
0000
0000
0000
0000
,
1100
1100
1100
1100
2000
0000
0000
3000
1010
1010
1010
1010
0020
0000
0000
0030
,
0110
0000
0000
0110
0000
0000
0110
0000
0200
0000
0000
0000
0000
0000
0300
0000
0011
0000
0011
0000
0011
0000
0011
0000
0002
0000
0000
0000
0000
0000
0003
0000
,
0011
1000
0011
1000
0011
1000
0011
1000
0020
0000
0000
0000
0000
0000
0030
0000
1100
0001
1100
0001
1100
0001
1100
0001
0200
0000
0000
0000
0000
0000
0300
0000
,
0011
0100
0011
0100
0011
0100
0011
0100
0020
0000
0000
0000
0000
0000
0030
0000
1100
0001
1100
0001
1100
0001
1100
0001
1100
0010
0100
0010
1101
0000
0000
0000
,
0101
0000
0101
0000
0101
0000
0101
0000
0011
0100
0010
0100
0011
0100
0010
0100
,
1010
0000
1010
0000
1010
0000
1010
0000
1100
0010
0100
0010
1100
0010
0100
0010
,
0101
0000
0101
0000
0101
0000
0101
0000
0011
0100
0010
0100
0011
0100
0010
0100
,
1010
0000
1010
0000
1010
0000
1010
0000
0011
0100
0010
0100
0011
0100
0010
0100
,
1011
0000
0110
0000
1011
0000
0110
0000
0011
0100
0001
0100
0011
0100
0001
0100
,
0011
0100
0010
0100
0010
0100
0010
0100
0011
0100
0001
0100
0011
0100
0001
0100
,
1012
0000
0010
0100
1010
0000
0100
0000
,
0213
0000
0000
0000
0010
0001
1000
0010
1301
0000
0000
0000
0000
0000
0000
0000
,
1111
0000
0001
0100
1011
0000
0101
0010
,
1001
0010
1100
0000
0101
1010
0110
1001
,
1111
0000
0010
0100
1011
0000
1001
0010
,
0101
1000
0101
0000
0101
1010
0110
1001
,
1111
0000
0010
0010
1101
0000
0010
0000
,
1111
0000
0000
0000
0000
0000
0000
0000
0010
0100
0010
0100
1001
0000
0000
0000
0000
0000
1101
0000
0000
0000
0000
0000
,
1111
0000
0010
0100
1011
0000
1001
0010
,
0101
0010
1100
0000
0101
1010
0110
1001
,
1111
0000
0001
0100
1011
0000
1001
0010
,
0101
0010
1100
0000
0101
0011
1010
0110
,
1111
0000
0010
0100
1011
0000
0010
0000
,
1111
0000
0000
0000
0000
0000
0000
0000
0010
0100
0010
0100
1001
0000
0000
0000
0000
0000
1010
0000
0000
0000
0000
0000
,
0011
0100
0001
0000
0001
0000
0001
0000
0011
0100
0001
0000
0001
0000
0011
0100
,
0001
0000
0001
0000
0011
0100
0001
0000
0011
0100
0001
0000
0011
0100
0001
0000
,
1011
0100
0001
0000
0001
0000
0001
0000
0011
0100
0001
0000
0001
0000
0011
0100
,
0001
0000
0001
0000
0011
0100
0001
0000
0011
0100
0001
0000
0011
0100
0001
0000
,
1011
0100
0001
0000
0001
0000
0001
0000
0011
0100
0001
0000
0001
0000
0011
0100
,
0001
0000
0001
0000
0011
0100
0001
0000
0011
0100
0001
0000
0011
0100
0001
0000
,
1011
0100
0001
0000
0001
0000
0001
0000
0011
0100
0001
0000
0001
0000
0011
0100
,
1022
0000
0000
0000
0133
0010
0001
0100
1011
0000
0000
0000
0101
0000
0000
0000
,
0101
0101
0101
0000
0000
0000
0000
0000
1010
1010
1010
0000
0000
0000
0000
0000
,
0110
0110
0110
0000
0000
0000
0000
0000
0101
0101
0101
0000
0000
0000
0000
0000
,
1100
1100
1100
0000
0000
0000
0000
0000
1100
1100
1100
0000
0000
0000
0000
0000
,
1010
0000
1010
0000
1010
0000
0000
0000
0000
0000
0000
0000
0000
0000
0000
0000
0102
0000
0010
0000
0000
0000
0010
0100
1010
0000
0000
0000
0000
0000
0000
0003
,
0101
0000
0101
0000
0101
0000
0101
0000
0011
0100
0010
0100
0011
0100
0010
0100
,
1010
0000
1010
0000
1010
0000
1010
0000
1100
0010
0100
0010
1100
0010
0100
0010
,
0101
0000
0101
0000
0101
0000
0101
0000
0011
0100
0010
0100
0011
0100
0010
0100
,
1010
0000
1010
0000
1010
0000
1010
0000
0011
0100
0010
0100
0011
0100
0010
0100
,
1011
0000
0110
0000
1011
0000
0110
0000
0011
0100
0001
0100
0011
0100
0001
0100
,
0011
0100
0010
0100
0010
0100
0010
0100
0011
0100
0001
0100
0011
0100
0001
0100
,
1012
0000
0010
0100
1010
0000
0100
0000
,
0213
0000
0000
0000
0010
0001
1000
0010
1301
0000
0000
0000
0000
0000
0000
0000
,
1111
0000
0001
0100
1011
0000
0101
0010
,
1001
0010
1100
0000
0101
1010
0110
0101
,
1111
0000
0010
0100
1011
0000
1001
0010
,
0101
1000
0101
0000
0101
1010
0110
0101
,
1111
0000
0010
0010
1101
0000
0010
0000
,
1111
0000
0000
0000
0000
0000
0000
0000
0010
0100
0010
0100
1001
0000
0000
0000
0000
0000
1101
0000
0000
0000
0000
0000
,
1111
0000
0010
0100
1011
0000
1001
0010
,
0101
0010
1100
0000
0101
1010
0110
1001
,
1111
0000
0001
0100
1011
0000
1001
0010
,
0101
0010
1100
0000
0101
0011
1010
0110
,
1111
0000
0010
0100
1011
0000
0010
0000
,
1111
0000
0000
0000
0000
0000
0000
0000
0010
0100
0010
0100
1001
0000
0000
0000
0000
0000
1010
0000
0000
0000
0000
0000
,
0011
0100
0001
0000
0001
0000
0001
0000
0011
0100
0001
0000
0001
0000
0011
0100
,
0001
0000
0001
0000
0011
0100
0001
0000
0011
0100
0001
0000
0011
0100
0001
0000
,
1011
0100
0001
0000
0001
0000
0001
0000
0011
0100
0001
0000
0001
0000
0011
0100
,
0001
0000
0001
0000
0011
0100
0001
0000
0011
0100
0001
0000
0011
0100
0001
0000
,
1011
0100
0001
0000
0001
0000
0001
0000
0011
0100
0001
0000
0001
0000
0011
0100
,
0001
0000
0001
0000
0011
0100
0001
0000
0011
0100
0001
0000
0011
0100
0001
0000
,
1011
0100
0001
0000
0001
0000
0001
0000
0011
0100
0001
0000
0001
0000
0011
0100
,
1022
0000
0000
0000
0133
0010
0001
0100
1011
0000
0000
0000
0101
0000
0000
0000
,
0202
0000
0000
0000
,
0000
0303
0000
0000
,
0000
0000
0000
0000
,
0000
0000
0000
0000
,
1001
1001
1001
1001
1001
1001
1001
1001
,
1001
1001
1001
1001
1001
1001
1001
1001
,
0101
0101
0101
0101
0101
0101
0101
0101
,
0101
0101
0101
0101
0101
0101
0101
0101
,
0110
0110
0110
0110
0110
0110
0110
0110
,
0110
0001
1010
0000
0101
0000
0110
0000
0011
0000
0101
0000
0100
0010
0001
0100
,
1011
0000
0001
0100
1011
0000
0101
0010
,
1001
0010
1100
0000
0101
1010
0110
0101
,
1111
0000
0010
0100
1011
0000
1001
0010
,
0101
1000
0101
0000
0101
1010
0110
0101
,
1111
0000
0010
0100
1011
0000
0010
0000
,
1111
0000
0000
0000
0000
0000
0000
0000
0010
0100
0010
0100
1001
0000
0000
0000
0000
0000
1001
0000
0000
0000
0000
0000
,
1111
0000
0010
0100
1011
0000
1001
0010
,
0101
0010
1100
0000
0101
1010
0110
1001
,
1111
0000
0001
0100
1011
0000
1001
0010
,
0101
0010
1100
0000
0101
0011
1010
0110
,
1111
0000
0010
0100
1011
0000
0010
0000
,
1111
0000
0000
0000
0000
0000
0000
0000
0010
0100
0010
0100
1001
0000
0000
0000
0000
0000
1010
0000
0000
0000
0000
0000
,
0011
0100
0001
0000
0001
0000
0001
0000
0011
0100
0001
0000
0001
0000
0011
0100
,
0001
0000
0001
0000
0011
0100
0001
0000
0011
0100
0001
0000
0011
0100
0001
0000
,
1011
0100
0001
0000
0001
0000
0001
0000
0011
0100
0001
0000
0001
0000
0011
0100
,
0001
0000
0001
0000
0011
0100
0001
0000
0011
0100
0001
0000
0011
0100
0001
0000
,
1011
0100
0001
0000
0001
0000
0001
0000
0011
0100
0001
0000
0001
0000
0011
0100
,
0001
0000
0001
0000
0011
0100
0001
0000
0011
0100
0001
0000
0011
0100
0001
0000
,
1011
0000
0000
1100
0011
0100
1001
0010
0101
0010
1100
0000
0101
0000
0010
0101
,
1010
0000
0010
0000
0101
1010
0001
0000
0101
0010
0001
0110
1001
0010
0100
0000
,
0101
1010
0100
0000
0101
0000
0001
0110
0001
0000
1010
0000
0001
0110
0001
0000
,
1011
0100
1000
0010
0100
0010
0001
0010
1101
0010
1000
0001
0100
0010
0100
0001
,
2220
3330
0000
0000
0000
0000
0000
0000
;
