#TITLE:outbreak;
#SUBTITLE:(ver1.1);
#ARTIST:narve;
#TITLETRANSLIT:;
#SUBTITLETRANSLIT:;
#ARTISTTRANSLIT:;
#CREDIT:;
#BANNER:banner.png;
#BACKGROUND:bg.png;
#LYRICSPATH:;
#CDTITLE:../cdtitle.png;
#MUSIC:outbreak.mp3;
#OFFSET:-0.080;
#SAMPLESTART:35.769;
#SAMPLELENGTH:12.000;
#SELECTABLE:YES;
#BPMS:0.000=255.000;
#STOPS:;
#BGCHANGES:;
// cache tags:
#FIRSTBEAT:15.000;
#LASTBEAT:480.000;
#SONGFILENAME:Songs/Japanese Collaboration Mix/outbreak/outbreak.sm;
#HASMUSIC:1;
#HASBANNER:1;
#MUSICLENGTH:118.524;
// end cache tags

//---------------dance-single - ----------------
#NOTES:
     dance-single:
     :
     Challenge:
     10:
     0.787,0.861,0.135,0.135,0.000,621.000,16.000,16.000,0.000,0.000:
0000
0000
0000
0000
,
0000
0000
0000
0000
,
0000
0000
0000
0000
,
0000
0000
0000
1000
,
0001
1000
0001
0100
,
0001
0000
1000
0000
0100
1000
0001
0000
,
0100
0001
1000
0001
,
0010
0000
0001
0000
1000
0001
0100
0000
,
0010
1000
0001
0100
,
0001
0000
1000
0000
0100
0010
0001
0000
,
1000
0001
0010
0100
,
1000
0000
0001
0000
0100
0010
0100
0010
,
0100
0001
1000
0100
,
0010
0000
0001
0000
1000
0010
0100
0000
,
0001
1000
0001
0010
,
0100
0000
1000
0000
0001
0010
0001
0000
,
1000
0010
0100
0001
,
1000
0000
0001
0000
1000
0100
0010
0000
,
0001
1000
0010
0100
,
0001
0000
1000
0000
0001
0100
0001
0000
,
1000
0000
2002
0000
,
0000
3003
0110
0000
,
1000
0000
0001
0000
1000
0001
0010
0000
,
0001
0000
0000
0100
0000
0000
0010
0000
,
1000
0000
0100
0000
0010
0001
1000
0000
,
0010
0000
0000
0001
0000
0000
1000
0000
,
0010
0000
0001
0000
1000
0010
0100
0000
,
0001
0000
0000
0100
0000
0000
0001
0000
,
1000
0000
0001
0000
0010
0001
1000
0000
,
0010
0000
0000
0001
0000
0000
0100
0000
,
1000
0000
0001
0000
0010
0001
1000
0000
,
0010
0000
0000
0001
0000
0000
1000
0000
,
0100
0000
0001
0000
1000
0001
0010
0000
,
0001
0000
0000
0100
0000
0000
0001
0000
,
1000
0000
0001
0000
0010
0001
0100
0000
,
1000
0000
0000
0001
0000
0000
0010
0000
,
1000
0000
0100
0000
1000
0001
0100
0000
,
0001
0000
0000
0100
0002
0000
0000
0000
,
1003
0100
0010
0001
1000
0001
0010
0001
,
1000
0010
0100
0001
1000
0001
0010
0100
,
1000
0001
0100
0001
1000
0001
0010
0100
,
1000
0001
0100
0001
1000
0010
0100
0001
,
1000
0100
0010
0001
1000
0001
0010
0100
,
1000
0001
0100
0001
1000
0010
0100
0001
,
1000
0001
0010
0100
1000
0001
0010
0001
,
1000
0010
0100
0010
2000
0000
0000
0000
,
3001
0010
0001
1000
0100
0010
0001
1000
,
0001
0010
0001
1000
0100
0010
0100
1000
,
0001
0100
0001
1000
0010
0100
0010
1000
,
0001
1000
0100
0010
0100
1000
0001
0100
,
0001
1000
0100
0010
0001
0010
0001
1000
,
0010
0100
0001
1000
0001
0010
0001
1000
,
0100
0010
0001
1000
0100
1000
0001
0100
,
0001
1000
0100
0010
0001
1000
0001
0100
,
0010
0010
0010
0010
,
0010
0010
0010
0010
,
0010
0010
0010
0010
,
0010
0000
0010
0000
1000
0001
1000
0000
,
0001
0000
0101
0000
,
1100
0000
0101
0000
,
1000
0000
1100
0000
,
0101
0000
1100
0000
,
0001
0000
0011
0000
,
1010
0000
0011
0000
,
1000
0000
1010
0000
,
0011
0000
1010
0000
,
0001
0100
0001
0100
0001
0100
0001
0100
,
0001
0100
0001
0200
0000
0000
0301
0000
,
1000
0001
1000
0001
1000
0001
1000
0001
,
1000
0001
1000
0002
0000
0000
0103
0000
,
1000
0010
1000
0010
1000
0001
1000
0001
,
0010
0001
1000
0020
0000
0000
0130
0000
,
0001
1000
0001
0010
0001
1000
0100
0010
,
0001
1000
0001
0020
0000
0000
0031
0000
,
1000
0100
0010
0100
1000
0001
0100
0001
,
1000
0010
0100
0002
0000
0000
0103
0000
,
0001
1000
0010
0100
0001
1000
0001
0010
,
0100
1000
0001
0020
0000
0000
0031
0000
,
1000
0001
0010
0100
1000
0001
0010
0100
,
1000
0001
0010
0002
0000
0000
0103
0000
,
0001
1000
0010
0100
0001
1000
0001
1000
,
0100
0010
0001
2000
0000
0000
3001
0000
,
0100
0001
1000
0001
0100
0001
1000
0001
,
0100
0001
1000
0200
0000
0000
1300
0000
,
0001
0010
0001
1000
0010
0100
0001
1000
,
0001
0010
0100
2000
0000
0000
3001
0000
,
1001
0000
0000
0000
,
0000
0000
0110
0000
,
1000
0000
0001
0000
0100
0001
1000
0000
,
0001
0000
0000
0100
0000
0000
1000
0000
,
0010
0000
0001
0000
1000
0010
0100
0000
,
0001
0000
0000
0010
0000
0000
0100
0000
,
1000
0000
0010
0000
0001
1000
0001
0000
,
0010
0000
0000
1000
0000
0000
0100
0000
,
0001
0000
0010
0000
0001
1000
0010
0000
,
0100
0000
0000
1000
0000
0000
0010
0000
,
0001
0000
1000
0000
0100
0010
0001
0000
,
1000
0000
0000
0010
0000
0000
1000
0000
,
0010
0000
0100
0000
0001
1000
0100
0000
,
1000
0000
0000
0010
0000
0000
0001
0000
,
0010
0000
0100
0000
0001
1000
0010
0000
,
0100
0000
0000
1000
0000
0000
0010
0000
,
0001
0000
1000
0000
0100
0010
0001
0000
,
0010
0000
0000
1000
0200
0000
0000
0000
,
1300
0100
1000
0001
0100
0001
1000
0001
,
0010
0001
1000
0001
0010
0100
1000
0001
,
1000
0100
1000
0001
0100
0001
1000
0010
,
0100
0001
1000
0001
0010
0100
1000
0001
,
0010
0001
1000
0010
0100
0001
1000
0001
,
0010
0001
1000
0100
1000
0001
0100
0001
,
1000
0010
1000
0001
0010
0100
1000
0001
,
0010
0001
1000
0010
2000
0000
0000
0000
,
3001
0010
0001
1000
0100
0010
0001
1000
,
0001
0010
0001
1000
0100
0010
0001
1000
,
0010
0100
0001
1000
0001
0010
0001
1000
,
0010
1000
0100
1000
0100
1000
0001
0100
,
0001
0010
0100
1000
0001
0010
0001
1000
,
0001
0100
0001
1000
0001
0010
0001
1000
,
0100
0010
0001
1000
0001
1000
0100
0010
,
0100
1000
0001
1000
0100
0010
0100
1000
,
0010
0000
0000
0000
;
