#TITLE:Silent Hill;
#SUBTITLE:(Speed Mix);
#ARTIST:Thomas Howard vs JAKAZiD;
#TITLETRANSLIT:;
#SUBTITLETRANSLIT:;
#ARTISTTRANSLIT:;
#CREDIT:;
#BANNER:shs.jpg;
#BACKGROUND:shs-bg.jpg;
#LYRICSPATH:;
#CDTITLE:cdtitle.bmp;
#MUSIC:Silent Hill (JAKAZiD's Speed Mix).ogg;
#OFFSET:-1.431;
#SAMPLESTART:13.732;
#SAMPLELENGTH:21.944;
#SELECTABLE:YES;
#BPMS:0.000=175.000;
#STOPS:;
#BGCHANGES:;
// cache tags:
#FIRSTBEAT:0.000;
#LASTBEAT:360.000;
#SONGFILENAME:Songs/IzzySM Keyboard Mega Pack/Silent Hill (Speed Mix)/shs.sm;
#HASMUSIC:1;
#HASBANNER:1;
#MUSICLENGTH:126.197;
// end cache tags

//---------------dance-single - ----------------
#NOTES:
     dance-single:
     :
     Hard:
     8:
     0.634,0.564,0.658,0.048,0.000,471.000,83.000,6.000,0.000,0.000:  // measure 1
1000
0100
0010
0000
1000
0100
0010
0000
,  // measure 2
0001
0100
0010
1000
0100
0010
0001
0000
,  // measure 3
0100
0010
1000
0000
0100
0010
1000
0000
,  // measure 4
0001
0100
0010
1000
0100
0010
0001
0000
,  // measure 5
0100
1010
0100
0011
,  // measure 6
1000
0100
1000
0100
0010
0001
0010
0000
,  // measure 7
0100
1010
0100
0011
,  // measure 8
1000
0010
0100
0001
1000
0010
0100
0000
,  // measure 9
2001
0000
0001
3010
,  // measure 10
0100
0000
1010
0000
0001
0100
0010
0000
,  // measure 11
1000
0000
0010
0100
0010
0100
0010
0000
,  // measure 12
1000
0000
0101
0000
1000
0100
0010
0000
,  // measure 13
0001
0000
1000
0100
1000
0100
1000
0000
,  // measure 14
0001
0101
1001
1000
,  // measure 15
0100
0011
1100
0010
,  // measure 16
0100
1001
0010
0100
,  // measure 17
0010
1100
0011
1100
,  // measure 18
0001
0000
1000
0010
1000
0000
0001
0000
,  // measure 19
0110
0000
1000
0001
1000
0001
1000
0000
,  // measure 20
0010
0000
0100
0001
0010
0000
0100
0000
,  // measure 21
1010
0000
0001
0100
0001
0100
0001
0000
,  // measure 22
1000
0000
1100
0000
0010
0100
0001
0000
,  // measure 23
1000
0000
0010
0100
0010
0000
0101
0000
,  // measure 24
1000
0000
0001
0010
0100
0000
1010
0000
,  // measure 25
0101
0000
1000
0000
0010
0100
0001
0000
,  // measure 26
1000
0000
2100
0000
3001
0000
0100
0010
,  // measure 27
1000
0101
1010
0001
,  // measure 28
0100
0000
0010
1000
0100
0000
0010
0000
,  // measure 29
0001
0000
0110
0000
1000
0000
0001
1000
,  // measure 30
0010
0100
0001
0000
0110
0000
1001
0000
,  // measure 31
0100
0000
0010
1000
0010
1000
0010
0100
,  // measure 32
0001
0000
0110
0000
1000
0010
0100
0000
,  // measure 33
0001
1100
0011
1100
,  // measure 34
0010
0000
0100
0001
0010
0000
1100
0000
,  // measure 35
0011
0000
1000
0001
1000
0010
0100
0001
,  // measure 36
1000
0000
0010
0100
0001
0000
1000
0000
,  // measure 37
0110
0000
1001
0000
0010
0100
0010
0100
,  // measure 38
0010
1100
0001
0011
,  // measure 39
1000
0000
0010
0100
0001
1000
0010
0100
,  // measure 40
0001
0000
1100
0000
0001
0100
0010
0000
,  // measure 41
1000
0101
1010
0101
,  // measure 42
2000
0000
0100
0000
,  // measure 43
3001
0100
1000
0000
,  // measure 44
0200
0000
0301
0000
,  // measure 45
0100
0010
1000
0001
,  // measure 46
0110
1000
0001
0100
,  // measure 47
0010
1000
0100
0000
0010
0000
0001
0000
,  // measure 48
1000
0110
1001
0110
,  // measure 49
0001
0000
1000
0100
0000
0100
0010
0000
,  // measure 50
1001
0000
0010
0100
0010
0000
1100
0000
,  // measure 51
0011
0000
1000
0100
0000
0100
0010
0001
,  // measure 52
1000
0000
0011
0000
1100
0000
0001
0100
,  // measure 53
0010
1000
0100
0000
0010
0001
0100
0010
,  // measure 54
1000
0000
0110
0000
1001
0000
0010
0100
,  // measure 55
0010
0000
1000
0001
0000
0001
0100
0010
,  // measure 56
1000
0000
0101
0000
1100
0000
0001
0100
,  // measure 57
0010
1000
0100
0010
0001
0000
0101
0000
,  // measure 58
1000
0100
1000
0000
1000
0100
1000
0000
,  // measure 59
1000
0100
1000
0000
1000
0100
0010
0001
,  // measure 60
0100
0000
0001
0010
0001
0000
1000
0000
,  // measure 61
0001
0010
0001
0010
0001
0000
0100
0000
,  // measure 62
2010
0000
3001
0000
0100
0010
1000
0000
,  // measure 63
0110
0000
1001
0000
0100
0010
0100
0000
,  // measure 64
0011
0000
1000
0100
0010
0000
0010
0100
,  // measure 65
1000
0011
1100
0011
,  // measure 66
1000
0000
0010
0100
0001
0000
1100
0000
,  // measure 67
0011
0000
1000
0010
0100
0001
1000
0010
,  // measure 68
0100
0000
0001
1000
0010
0000
0100
0000
,  // measure 69
0001
1100
0101
1100
,  // measure 70
0011
0000
1000
0100
0010
0000
0101
0000
,  // measure 71
1000
0010
0000
0010
0100
0000
1001
0000
,  // measure 72
0110
0000
0001
0010
0100
0000
1010
0000
,  // measure 73
0101
0000
1000
0010
0100
0001
0010
0100
,  // measure 74
1000
0000
0001
0010
0000
0010
0100
0000
,  // measure 75
1001
0000
0100
0010
0000
0010
1000
0000
,  // measure 76
0101
0000
1000
0010
0100
0001
0010
0000
,  // measure 77
0100
1000
0010
0100
0010
0100
0001
1000
,  // measure 78
0010
0000
0100
0001
0010
0000
1200
0000
,  // measure 79
0310
0000
0001
1000
0000
1000
0001
0000
,  // measure 80
0110
0000
1000
0001
1000
0000
0110
0000
,  // measure 81
0011
0000
1000
0100
0000
0100
0010
0000
,  // measure 82
0001
1000
0100
0000
0001
1000
0100
0000
,  // measure 83
0010
0001
1000
0010
0100
0001
0010
0000
,  // measure 84
0100
1000
0010
0000
0100
1000
0010
0000
,  // measure 85
0100
0001
0010
0100
1000
0010
0100
0001
,  // measure 86
1000
0110
1001
0110
,  // measure 87
0001
1000
0010
0100
0001
1000
0010
0000
,  // measure 88
0100
0001
0010
0000
0100
0001
0010
0000
,  // measure 89
0100
1000
0010
0100
0001
0010
0100
0000
,  // measure 90
1001
0000
0000
0000
;

//---------------dance-single - ----------------
#NOTES:
     dance-single:
     :
     Easy:
     5:
     0.417,0.494,0.357,0.182,0.000,300.000,45.000,23.000,0.000,0.000:  // measure 1
1000
0000
0100
0000
,  // measure 2
0010
0001
0010
0001
,  // measure 3
0100
0000
0010
0000
,  // measure 4
1000
0001
1000
0001
,  // measure 5
0100
0000
0010
0000
,  // measure 6
1000
0100
1000
0100
,  // measure 7
0010
0000
0001
0000
,  // measure 8
0100
0010
1000
0001
,  // measure 9
0100
0100
0100
0100
,  // measure 10
1001
0010
0100
0010
,  // measure 11
1000
0001
1000
0001
,  // measure 12
0100
0010
1000
0100
,  // measure 13
0010
0001
0010
0001
,  // measure 14
0100
0010
1000
0001
,  // measure 15
0010
0100
0010
0100
,  // measure 16
1000
0010
0100
0001
,  // measure 17
1000
0010
1000
0010
,  // measure 18
0200
0000
0301
0000
,  // measure 19
0002
0000
1003
0000
,  // measure 20
2000
0000
3010
0000
,  // measure 21
0020
0000
0130
0000
,  // measure 22
0002
0000
0010
0000
,  // measure 23
0100
0000
1003
0000
,  // measure 24
2000
0000
0010
0000
,  // measure 25
0100
0000
3001
0110
,  // measure 26
1001
1000
0010
0100
,  // measure 27
0001
0000
1000
0100
,  // measure 28
0010
0100
1001
0000
,  // measure 29
0001
0010
0100
1000
,  // measure 30
0110
0110
1001
1001
,  // measure 31
0010
0010
0100
0100
,  // measure 32
0001
1000
0010
0100
,  // measure 33
1001
0010
0010
0010
,  // measure 34
0100
1001
0010
0100
,  // measure 35
0010
1000
0001
0100
,  // measure 36
0010
1100
1100
0001
,  // measure 37
0100
0010
1000
0001
,  // measure 38
0100
0100
0010
0010
,  // measure 39
1000
0001
0100
0010
,  // measure 40
1000
0101
0010
1100
,  // measure 41
0001
0100
0001
0100
,  // measure 42
2001
0000
3100
0000
,  // measure 43
0102
0000
0013
0000
,  // measure 44
2010
0000
3001
0000
,  // measure 45
0100
0010
1000
0100
,  // measure 46
0010
0000
0001
0100
,  // measure 47
0010
1000
0001
0000
,  // measure 48
0100
0010
1000
0001
,  // measure 49
0100
0000
1010
1010
,  // measure 50
0002
0103
2000
3100
,  // measure 51
0001
0000
0110
0110
,  // measure 52
1000
0001
0100
0010
,  // measure 53
1100
1100
0001
0100
,  // measure 54
0010
1000
0001
0100
,  // measure 55
0010
0000
1001
1001
,  // measure 56
0010
0100
0010
1000
,  // measure 57
0001
1000
0010
0000
,  // measure 58
0102
1000
0100
2003
,  // measure 59
0000
0100
0010
3200
,  // measure 60
1000
0000
0310
0000
,  // measure 61
0001
1000
0010
0100
,  // measure 62
1001
0000
0010
0100
,  // measure 63
1001
0000
0100
0010
,  // measure 64
1001
0110
1001
0110
,  // measure 65
1001
1001
1001
1001
,  // measure 66
0001
0100
0010
1000
,  // measure 67
0001
0100
0010
0000
,  // measure 68
1100
0001
0010
0000
,  // measure 69
0100
1000
0010
0100
,  // measure 70
1001
0000
1000
0100
,  // measure 71
0010
0001
0100
0000
,  // measure 72
0020
1030
2000
3001
,  // measure 73
0100
0000
0010
1000
,  // measure 74
0110
0001
1000
0001
,  // measure 75
0100
0010
1000
0100
,  // measure 76
0020
0001
0130
0000
,  // measure 77
1000
0001
0100
0010
,  // measure 78
1000
1100
1100
0001
,  // measure 79
0010
0100
1000
0000
,  // measure 80
0110
0110
0001
1000
,  // measure 81
0001
0100
0010
0000
,  // measure 82
2001
0000
0100
0000
,  // measure 83
0001
0000
3100
0000
,  // measure 84
0002
0000
0010
0000
,  // measure 85
0100
0000
1003
0001
,  // measure 86
2000
3100
0002
0103
,  // measure 87
2000
3010
0002
0013
,  // measure 88
1000
0100
0010
0001
,  // measure 89
0100
0010
1000
0001
,  // measure 90
0110
0000
0000
0000
;

//---------------dance-single - ----------------
#NOTES:
     dance-single:
     :
     Challenge:
     11:
     1.000,1.000,0.475,0.016,1.000,962.000,60.000,2.000,0.000,0.000:  // measure 1
1001
0100
0010
0100
1001
0010
0100
0001
,  // measure 2
0011
0010
0100
1000
1010
0010
0100
0001
,  // measure 3
0101
0100
0001
0010
0110
0100
1000
0010
,  // measure 4
1010
0010
1000
0100
1100
1000
0100
0010
,  // measure 5
0001
0000
0100
0001
0100
0000
0001
0000
1000
0000
0100
1000
0100
0000
1000
0000
,  // measure 6
0001
0000
0010
0001
0010
0000
0001
0000
0100
0000
0010
1000
0010
0000
1000
0001
,  // measure 7
1000
0000
0100
0000
0010
0000
0001
1000
0001
0000
0010
0000
0100
0000
1000
0001
,  // measure 8
1000
0100
0010
0100
1000
0100
0010
0100
1000
0001
0100
0010
1000
0001
0100
0010
,  // measure 9
1000
0000
0001
0000
0010
0000
1000
0000
0001
0000
0000
0100
1000
0000
0010
0000
,  // measure 10
1000
0001
1000
0010
1000
0001
1000
0010
0100
0001
1000
0010
0100
0001
0010
0100
,  // measure 11
0001
0100
0010
0100
1000
0010
0001
0010
1000
0100
0010
0001
1000
0001
0010
0100
,  // measure 12
1000
0010
0100
0001
0010
0001
1000
0010
0100
0001
1000
0100
0010
0100
0001
0100
,  // measure 13
0010
0001
1000
0010
0001
0010
1000
0100
0001
0100
1000
0001
0010
1000
0010
0100
,  // measure 14
0001
0100
0010
0100
0010
0001
0100
0010
1000
0001
0100
0010
1000
0001
0010
0100
,  // measure 15
1000
0100
0010
0001
1000
0010
0100
0010
1000
0001
0100
0010
1000
0001
0100
0010
,  // measure 16
1000
0001
0010
0100
0010
0001
1000
0010
0100
0010
1000
0001
0010
0100
1000
0100
,  // measure 17
0010
0100
1000
0001
0100
0010
1000
0001
0100
0010
1000
0001
0010
0100
1000
0100
,  // measure 18
1100
1000
0100
0010
0011
0101
0010
0100
,  // measure 19
0110
0010
0001
1000
1010
0110
0100
0001
,  // measure 20
0101
0100
0001
0010
0110
1100
1000
0010
,  // measure 21
0100
0010
1000
0100
0110
0010
0001
0010
,  // measure 22
0101
0000
1000
0001
1000
0000
0100
0000
1000
0000
0001
0100
0001
0000
1000
0000
,  // measure 23
0001
0000
1000
0010
1000
0000
0010
0000
1000
0000
0001
0010
0001
0000
0010
0000
,  // measure 24
0100
0000
1000
0001
1000
0000
0100
0000
1000
0000
0001
0010
0001
0000
1000
0000
,  // measure 25
0001
0010
0100
1000
0100
0010
0100
1000
0001
0100
0010
1000
0001
0100
0010
1000
,  // measure 26
0001
0010
1000
0001
0100
1000
0010
0001
,  // measure 27
1000
0100
0001
1000
0100
0001
0100
0010
,  // measure 28
0001
0100
0010
0001
0010
1000
0100
0010
,  // measure 29
0100
0001
0100
0010
1000
0010
0001
0100
,  // measure 30
0010
0001
1000
0100
0010
0100
0001
1000
,  // measure 31
0100
0010
0100
0001
1000
0010
0001
1000
,  // measure 32
0010
0001
1000
0100
0001
0010
0100
0001
,  // measure 33
0100
0000
0010
0000
0001
0000
1000
0000
0010
0000
0001
0000
1000
0100
0000
0000
,  // measure 34
0001
0001
1000
1000
0100
0100
0010
0001
,  // measure 35
0010
0000
0100
0000
1000
0001
1000
0000
0001
0000
1000
0000
0010
0000
0100
0001
,  // measure 36
0100
0000
0010
1000
0001
0000
0100
0000
0010
0000
1000
0100
0010
0000
0100
0000
,  // measure 37
1000
0000
0100
0010
0100
0000
1000
0000
0001
0000
0100
0010
0100
0000
0001
0000
,  // measure 38
1000
0000
0010
0100
0001
0000
1000
0001
0100
0000
0001
1000
0100
0000
1000
0001
,  // measure 39
0010
0000
0001
1000
0010
0000
0100
0010
0100
0000
0010
0100
0001
0000
0010
0001
,  // measure 40
0100
0000
0010
1000
0100
0000
1000
0100
0001
0000
0100
1000
0010
0000
1000
0010
,  // measure 41
0001
0000
0010
0100
0001
0000
0010
0001
0100
0001
1000
0010
0100
0001
1000
0010
,  // measure 42
0100
0001
1000
0100
0110
0010
0100
1000
,  // measure 43
1001
0100
0010
1000
0100
0010
1001
0010
,  // measure 44
0101
0100
0010
1001
0010
0100
0001
1000
,  // measure 45
1001
0100
0010
0100
0011
0100
0010
0100
,  // measure 46
0011
0100
1000
0100
0011
0100
1000
0001
,  // measure 47
0110
0001
1000
0010
0101
0010
1000
0100
,  // measure 48
0110
1000
0100
1000
0011
0100
1000
0100
,  // measure 49
1001
0010
0100
0001
1010
1000
0100
0010
,  // measure 50
0001
0010
0100
0001
0100
0010
0001
1000
0010
0100
0010
1000
0001
0100
0010
1000
,  // measure 51
0001
0010
1000
0010
0100
0001
0100
0010
0100
1000
0100
1000
0001
0100
0010
1000
,  // measure 52
0001
0100
0010
1000
0001
0010
1000
0010
0001
1000
0010
0001
0010
1000
0100
0001
,  // measure 53
0100
1000
0001
0010
1000
0010
0001
1000
0010
0100
0001
1000
0010
0100
0001
0010
,  // measure 54
0100
1000
0001
0100
0010
1000
0010
0100
0001
1000
0010
0100
0001
1000
0010
0100
,  // measure 55
0001
1000
0010
1000
0100
0010
0100
1000
0100
0010
0001
1000
0010
0100
0001
1000
,  // measure 56
0010
0100
0010
1000
0100
0010
0100
1000
0001
0100
0010
0100
0001
0010
0100
1000
,  // measure 57
0001
0100
0010
1000
0010
0100
0001
1000
0010
0100
0001
1000
0010
0100
0001
1000
,  // measure 58
0100
0010
0100
0001
0010
0100
1100
1000
,  // measure 59
0001
0100
1010
0001
0010
0100
1001
0010
,  // measure 60
0100
0001
0110
0100
1000
0001
0110
0100
,  // measure 61
1000
0000
0001
0000
0100
0000
0010
0000
1000
0001
1000
0001
1000
0001
1000
0001
,  // measure 62
1000
0010
0101
0100
0010
1000
1001
0100
,  // measure 63
0010
0100
1001
0010
0100
0001
0011
0010
,  // measure 64
0110
0100
1000
0001
0110
0100
1000
0001
,  // measure 65
0110
0001
1100
0001
0110
0001
1100
0001
,  // measure 66
0110
0000
1000
0000
0100
0000
0010
0001
0010
0000
0100
0000
1000
0000
0001
0100
,  // measure 67
0001
0000
0100
0000
0010
0000
1000
0001
1000
0000
0100
0000
0010
0000
0100
1000
,  // measure 68
0100
0000
1000
0000
0001
0000
0100
1000
0100
0000
0010
0000
1000
0000
0010
0001
,  // measure 69
0010
0000
1000
0000
0100
0000
0001
0100
0001
0000
0100
0000
1000
0000
0010
0001
,  // measure 70
0010
0000
1000
0000
0100
0000
0010
0100
0010
0000
0100
0000
1000
0000
0001
1000
,  // measure 71
0001
0000
1000
0000
0001
0000
0100
1000
0100
0000
1000
0000
0100
0000
0001
0010
,  // measure 72
0001
0000
0010
0000
0100
0000
0010
1000
0010
0000
1000
0000
0010
0000
0100
0010
,  // measure 73
0100
0000
0010
0000
0001
0000
0100
0001
0100
0000
0001
0000
0100
0000
0010
0000
,  // measure 74
1001
0100
0010
0100
1001
0010
0100
0010
,  // measure 75
1001
0100
0010
0100
0011
0100
1000
0010
,  // measure 76
0101
1000
0010
0100
1001
0100
0010
0100
,  // measure 77
1001
0010
0100
0001
0011
0010
0100
1000
,  // measure 78
1100
0100
1000
0001
0100
0010
1000
0001
,  // measure 79
0100
0000
0001
0100
0001
0000
0100
0001
0100
0001
0100
0001
0100
0001
0100
0001
,  // measure 80
0100
0000
0001
0100
0010
0000
0100
0010
1000
0000
0010
0100
0010
0000
1000
0010
,  // measure 81
0100
0010
1000
0001
0100
0010
1000
0001
0010
0100
1000
0001
0010
0100
1000
0100
,  // measure 82
0010
0000
0001
0000
1000
0010
0000
0100
0001
0000
1000
0000
0010
0100
0000
0001
,  // measure 83
1000
0000
0010
0000
0100
0001
0000
0010
0001
0010
0001
0010
0100
0010
0100
0010
,  // measure 84
0100
0000
1000
0000
0001
0100
0000
0010
1000
0000
0001
0000
0010
0100
0000
0010
,  // measure 85
0001
0000
1000
0000
0010
0100
0000
0001
1000
0001
0100
0001
1000
0001
0100
0001
,  // measure 86
1000
0000
0010
0000
0100
0001
0000
1000
0100
0000
0010
0000
0100
1000
0000
0100
,  // measure 87
0010
0000
0100
0000
1000
0001
0000
0100
0010
1000
0001
0100
0010
1000
0001
0010
,  // measure 88
0100
0000
0010
0000
0001
1000
0000
0010
0100
0000
0001
0000
1000
0010
0000
0100
,  // measure 89
0010
1000
0001
0100
0010
1000
0001
0010
0100
1000
0100
0010
0100
1000
0100
0010
,  // measure 90
2002
0000
0000
0000
,  // measure 91
3003
0000
0000
0000
;
