#TITLE:-273.15;
#SUBTITLE:;
#ARTIST:LV.4;
#TITLETRANSLIT:;
#SUBTITLETRANSLIT:;
#ARTISTTRANSLIT:;
#CREDIT:Mad Matt;
#BANNER:../Tachyon Gamma-bn.png;
#BACKGROUND:../Tachyon Gamma-bg.png;
#LYRICSPATH:;
#CDTITLE:;
#MUSIC:-273.15.ogg;
#OFFSET:-0.515;
#SAMPLESTART:47.118;
#SAMPLELENGTH:22.500;
#SELECTABLE:YES;
#DISPLAYBPM:170.000;
#BPMS:0.000=170.000;
#STOPS:;
#BGCHANGES:;
// cache tags:
#FIRSTBEAT:4.000;
#LASTBEAT:397.000;
#SONGFILENAME:Songs/Tachyon Gamma/-273.15 - [Mad Matt]/-273.15.sm;
#HASMUSIC:1;
#HASBANNER:1;
#MUSICLENGTH:144.184;
// end cache tags

//---------------dance-single - Mad Matt----------------
#NOTES:
     dance-single:
     Mad Matt:
     Challenge:
     15:
     1.000,1.000,0.021,0.055,1.000,1375.000,3.000,8.000,8.000,0.000:

0000
0000
0000
0000
,
0002
0003
1000
0000
0001
0000
1000
0100
0000
1000
0010
0000
0100
0000
0001
0000
,
0000
0000
1000
0000
0001
0000
0010
0100
0000
0010
0001
0000
1000
0000
0010
0000
,
0000
0000
0100
0000
0001
0000
1000
0100
0000
1000
0010
0000
0100
0000
0001
0000
,
0000
0000
0100
0000
0001
0000
1000
0010
0000
0100
0002
0003
0000
MMMM
0000
0000
,
2000
3000
0001
0000
0010
0000
0100
0010
0000
0100
1000
0000
0001
0000
0100
0000
,
0000
0000
0010
0000
1000
0000
0001
0010
0000
0100
0010
0000
0001
0000
1000
0000
,
0020
0030
0100
0000
0001
0000
1000
0100
0000
1000
0010
0000
0100
0000
0001
0000
,
4000
0000
0000
0000
0000
0000
0000
0000
0000
3010
0100
0001
0100
0010
0100
0001
0100
0010
0100
0001
0100
0010
0100
0001
,
0100
0000
0001
1000
0001
0000
1000
0010
1000
0000
0010
0100
0010
0000
0100
0001
,
0100
0000
0001
1000
0001
0000
1000
0100
1000
0000
0100
0010
0100
0000
0010
0001
,
0010
0000
0001
1000
0001
0000
0100
0010
0100
0000
0001
1000
0001
0000
0010
0100
,
0010
0000
0001
0100
0001
0000
1000
0010
1000
0000
0002
0003
0000
MMMM
0000
0000
,
2000
3000
0001
0100
0001
0000
1000
0100
1000
0000
0001
0010
0001
0000
1000
0010
,
1000
0000
0100
0010
0100
0000
1000
0001
1000
0000
0010
0100
0010
0000
1000
0100
,
2000
3000
0001
0100
0001
0000
0010
0100
0010
0000
0001
1000
0001
0000
0010
0100
,
4000
0000
0000
0000
0000
0000
0000
0000
0000
3100
0010
0001
0010
0100
0010
0001
1000
0100
0010
0100
1000
0100
0010
0100
,
1000
0100
1000
0001
1000
0100
1000
0100
1000
0001
1000
0001
0100
0001
1000
0010
,
1000
0001
0010
0001
0010
0100
0010
0001
1000
0001
1000
0100
1000
0010
1000
0001
,
1000
0001
0100
0001
0100
0010
1000
0001
1000
0100
1000
0001
0010
0001
0100
0001
,
1000
0010
1000
0010
0100
0001
1000
0001
0010
0001
0010
0001
0100
0001
1000
0100
,
1000
0100
0010
0100
1000
0001
1000
0100
1000
0001
0100
0001
1000
0010
1000
0001
,
0010
0001
1000
0010
1000
0010
0100
0010
1000
0001
1000
0001
0010
0001
0100
0001
,
1000
0100
0010
0100
1000
0001
1000
0100
1000
0001
1000
0100
0010
0001
1000
0010
,
1000
0000
0000
0001
0000
0000
0100
0000
0000
0010
0000
0000
0100
0000
0000
0001
0000
0000
0100
0000
0010
0000
1000
0000
0010
0000
0100
0000
0010
0000
1000
0000
0010
0000
0100
0000
0001
0000
0100
0000
0010
0000
0100
0000
0001
0000
0100
0000
,
0010
1000
0001
1000
0010
0100
0001
0100
0001
1000
0001
0010
0001
1000
0010
0100
,
0010
1000
0001
0010
0100
0010
0100
1000
0001
1000
0001
0100
0010
1000
0001
1000
,
0100
1000
0001
0100
0001
0100
0010
1000
0001
1000
0001
0010
0100
0010
0001
1000
,
0010
1000
0010
0100
0001
1000
0001
1000
0100
0010
0100
1000
0001
1000
0001
0100
,
0010
1000
0010
1000
0001
1000
0001
0010
0100
0010
0001
1000
0001
1000
0010
1000
,
0001
0010
0001
1000
0010
1000
0001
1000
0001
0010
0001
0010
0100
1000
0001
0100
,
0010
1000
0001
0010
0001
1000
0010
1000
0001
0100
0001
1000
0100
1000
0001
0100
,
0010
0000
0000
1000
0000
0000
0100
0000
0000
0010
0000
0000
0001
0000
0000
1000
0000
0000
0001
0000
0100
0000
0010
0000
0100
0000
0001
0000
0100
0000
0010
0000
1000
0000
0010
0000
0100
0000
0010
0000
1000
0000
0010
0000
0100
0000
0010
0000
,
1000
0001
0100
0001
1000
0001
0010
0001
1000
0001
0100
0000
0010
0000
0000
0000
,
1000
0100
0010
0001
1000
0000
0100
0010
0000
0001
1000
0100
0010
0001
0010
0100
,
1000
0001
0100
0001
0010
0001
1000
0001
0100
0001
0010
0000
0001
0000
0000
0000
,
1000
0010
0100
0001
1000
0000
0010
0100
0000
0001
1000
0010
0100
0001
0100
0010
,
1000
0001
0010
0001
0100
0001
1000
0001
0010
0001
0100
0000
0001
0000
0000
0000
,
1000
0100
0010
0001
1000
0000
0010
0100
0000
0001
1000
0100
0010
0001
0100
0010
,
1000
0001
0010
0001
0100
0001
1000
0001
0100
0001
0010
0000
0001
0000
0000
0000
,
1000
0000
0000
0100
0000
0000
0010
0000
0000
0001
0000
0000
1000
0000
0000
0100
0000
0000
1000
0000
0001
0000
1000
0000
0100
0000
1000
0000
0001
0000
1000
0000
0100
0000
1000
0000
0001
0000
0010
0000
0001
0000
1000
0000
0001
0000
0010
0000
,
0001
1000
0100
1000
0001
1000
0010
1000
0001
1000
0100
0000
0010
0000
0000
0000
,
0001
0100
0010
1000
0001
0000
0100
0010
0000
1000
0001
0100
0010
1000
0010
0100
,
0001
1000
0100
1000
0010
1000
0001
1000
0100
1000
0010
0000
1000
0000
0000
0000
,
0001
0010
0100
1000
0001
0000
0010
0100
0000
1000
0001
0010
0100
1000
0100
0010
,
0001
1000
0010
1000
0100
1000
0001
1000
0010
1000
0100
0000
1000
0000
0000
0000
,
0001
0010
0100
1000
0001
0000
0100
0010
0000
1000
0001
0010
0100
1000
0010
0100
,
0001
1000
0100
1000
0010
1000
0001
1000
0010
1000
0100
0000
0010
0000
0000
0000
,
0001
0000
0000
0100
0000
0000
0010
0000
0000
1000
0000
0000
0001
0000
0000
0100
0000
0000
0001
0000
1000
0000
0001
0000
0100
0000
0001
0000
1000
0000
0001
0000
0100
0000
0001
0000
1000
0000
0010
0000
1000
0000
0001
0000
1000
0000
0010
0000
,
1000
0000
0001
0100
0001
0000
1000
0100
1000
0000
0001
0010
0001
0000
1000
0100
,
1000
0000
0001
0100
0001
0000
1000
0010
1000
0000
0010
0100
0010
0000
0100
0001
,
0100
0000
0001
0010
0001
0000
1000
0100
1000
0000
0001
0100
0001
0000
1000
0010
,
1000
0000
0010
0100
0010
0000
0100
0001
0100
0000
0001
1000
0001
0000
1000
0000
,
1001
0000
0001
0100
0001
0000
1000
0100
1000
0000
0010
0100
0010
0000
0100
0001
,
0100
0000
0001
0010
0001
0000
1000
0010
1000
0000
0001
0100
0001
0000
1000
0100
,
1000
0000
0100
0010
0100
0000
0010
0001
0010
0000
0001
1000
0001
0000
1000
0010
,
1000
0000
0000
0000
0000
0000
0001
0000
0000
0100
0000
0000
0010
0000
0000
0000
0000
0000
0000
0000
0000
0100
0000
0000
0000
0000
0000
0010
0000
0000
1000
0000
0001
0000
1000
0000
0001
0000
1000
0000
0001
0000
1000
0000
0001
0000
1000
0000
,
0001
0100
0001
0100
0010
0100
0001
1000
0001
1000
0100
0010
0100
1000
0100
1000
,
0001
0100
0001
0100
0010
1000
0001
1000
0001
0010
0001
1000
0010
1000
0001
0010
,
0100
0010
0100
1000
0100
0010
0001
1000
0001
0100
0001
1000
0100
1000
0001
0100
,
0001
0010
0001
1000
0001
1000
0010
1000
0010
0100
0001
1000
0001
0010
0001
0010
,
0100
1000
0100
0010
0001
1000
0001
1000
0010
1000
0001
0100
0010
0100
0010
1000
,
0001
1000
0100
1000
0001
0010
0100
0010
0100
1000
0100
0010
0001
1000
0001
1000
,
0010
1000
0001
0100
0001
0100
0010
0100
0001
1000
0001
1000
0010
1000
0001
0010
,
0100
0000
0000
1000
0000
0000
0010
0000
0000
0100
0000
0000
0001
0000
0000
1000
0000
0000
0001
0000
0010
0000
0100
0000
0010
0000
0001
0000
0010
0000
0100
0000
1000
0000
0100
0000
0010
0000
0100
0000
1000
0000
0100
0000
0010
0000
0100
0000
,
1000
0001
0010
0100
1000
0100
0010
0001
0010
0100
1000
0000
0100
0000
0000
0000
,
0010
0001
1000
0001
0100
0000
0010
0100
0000
0001
1000
0010
1000
0001
1000
0100
,
1000
0001
0100
0010
1000
0010
0100
0001
0100
0010
1000
0000
0010
0000
0000
0000
,
0100
0001
1000
0001
0010
0000
0100
0010
0000
0001
1000
0100
1000
0001
1000
0010
,
1000
0001
0010
0100
1000
0010
0100
0001
0010
0100
1000
0000
0100
0000
0000
0000
,
0010
0001
1000
0001
0100
0000
0010
0100
0000
0001
1000
0010
1000
0001
1000
0100
,
1000
0001
0100
0010
1000
0100
0010
0001
0100
0010
1000
0000
0010
0000
0000
0000
,
0100
0000
0000
0001
0000
0000
1000
0000
0000
0001
0000
0000
0010
0000
0000
0001
0000
0000
1000
0000
0100
0000
0010
0000
0001
0000
0010
0000
0100
0000
1000
0000
0100
0000
0010
0000
0001
0000
0010
0000
0100
0000
1000
0000
0100
0000
0010
0000
,
0001
1000
0010
0100
0001
0100
0010
1000
0010
0100
0001
0000
0100
0000
0000
0000
,
0010
1000
0001
1000
0100
0000
0010
0100
0000
1000
0001
0010
0001
1000
0001
0100
,
0001
1000
0100
0010
0001
0010
0100
1000
0100
0010
0001
0000
0010
0000
0000
0000
,
0100
1000
0001
1000
0010
0000
0100
0010
0000
1000
0001
0100
0001
1000
0001
0010
,
0001
1000
0010
0100
0001
0010
0100
1000
0010
0100
0001
0000
0100
0000
0000
0000
,
0010
1000
0001
1000
0100
0000
0010
0100
0000
1000
0001
0010
0001
1000
0001
0100
,
0001
1000
0100
0010
0001
0100
0010
1000
0100
0010
0001
0000
0010
0000
0000
0000
,
0100
0000
0000
1000
0000
0000
0001
0000
0000
1000
0000
0000
0010
0000
0000
1000
0000
0000
0001
0000
0100
0000
0010
0000
1000
0000
0010
0000
0100
0000
0001
0000
0100
0000
0010
0000
1000
0000
0010
0000
0100
0000
0001
0000
0100
0000
0010
0000
,
1000
0001
1000
0010
0100
0001
0010
0001
0100
0010
1000
0100
1000
0001
0100
0010
,
1000
0100
1000
0001
0100
0010
1000
0100
1000
0001
0010
0001
1000
0010
0100
0001
,
0010
0001
1000
0010
0100
0010
1000
0001
0010
0001
1000
0100
1000
0001
0100
0001
,
1000
0010
1000
0001
0010
0001
0100
0010
1000
0100
0010
0100
1000
0001
0100
0010
,
0100
0001
0010
0001
0100
0010
0100
0001
1000
0100
1000
0001
0100
0001
0010
0001
,
1000
0010
1000
0100
0010
0100
1000
0010
0100
0001
1000
0100
1000
0001
0100
0001
,
1000
0100
0010
0001
0100
0001
1000
0100
0010
0001
0100
0010
1000
0100
1000
0010
,
0100
0000
0000
0001
0000
0000
1000
0000
0000
0100
0000
0000
0010
0000
0000
0001
0000
0000
1000
0000
0010
0000
0100
0000
0001
0000
1000
0000
0010
0000
1000
0000
0001
0000
0100
0000
0001
0000
1000
0000
0010
0000
0100
0000
0001
0000
1000
0000
,
0010
1000
0001
0010
0100
1000
0010
1000
0100
0010
0001
0100
0001
1000
0100
0010
,
0001
0100
0001
1000
0100
0010
0001
0100
0001
1000
0010
1000
0001
0010
0100
1000
,
0010
1000
0001
0010
0100
0010
0001
1000
0010
1000
0001
0100
0001
1000
0100
1000
,
0001
0010
0001
1000
0010
1000
0100
0010
0001
0100
0010
0100
0001
1000
0100
0010
,
0100
1000
0010
1000
0100
0010
0100
1000
0001
0100
0001
1000
0100
1000
0010
1000
,
0001
0010
0001
0100
0010
0100
0001
0010
0100
1000
0001
0100
0001
1000
0100
1000
,
0001
0100
0010
1000
0100
1000
0001
0100
0010
1000
0100
0010
0001
0100
0001
0010
,
0100
0000
0000
1000
0000
0000
0001
0000
0000
0100
0000
0000
0010
0000
0000
1000
0000
0000
0001
0000
0010
0000
0100
0000
1000
0000
0001
0000
0010
0000
0001
0000
1000
0000
0100
0000
1000
0000
0001
0000
0010
0000
0100
0000
1000
0000
0001
0000
,
0200
0000
0000
0000
,
0000
0000
0000
0000
,
0000
0300
0000
0000
;
