#TITLE:Juggernaut;
#SUBTITLE:;
#ARTIST:Quattro;
#TITLETRANSLIT:;
#SUBTITLETRANSLIT:;
#ARTISTTRANSLIT:;
#CREDIT:;
#BANNER:../Jawn - ban.png;
#BACKGROUND:../Jawn - bg.png;
#LYRICSPATH:;
#CDTITLE:;
#MUSIC:Juggernaut.ogg;
#OFFSET:-0.020;
#SAMPLESTART:39.720;
#SAMPLELENGTH:13.580;
#SELECTABLE:YES;
#DISPLAYBPM:240.000;
#BPMS:0.000=240.020,68.000=240.020,214.000=240.020,224.000=242.000,232.000=240.500,296.000=240.190,360.000=240.500,416.000=240.000;
#STOPS:;
#BGCHANGES:;
// cache tags:
#FIRSTBEAT:7.000;
#LASTBEAT:443.000;
#SONGFILENAME:Songs/Jimmy Jawns/Juggernaut - [Aoreo]/Juggernaut.sm;
#HASMUSIC:1;
#HASBANNER:1;
#MUSICLENGTH:112.750;
// end cache tags

//---------------dance-single - J. Nero (warmup)----------------
#NOTES:
     dance-single:
     J. Nero (warmup):
     Challenge:
     15:
     1.000,1.000,0.160,0.213,0.763,878.000,18.000,24.000,0.000,0.000:
0000
0000
0000
0000
,
0000
0000
0000
0000
0000
0000
2000
3000
,
2002
3003
0202
0303
2020
3030
1000
0000
,
0001
0100
0001
1000
0100
0010
0001
1000
0001
0100
0010
0100
0001
1000
0100
1000
,
0002
0003
0022
0033
2200
3300
1000
0000
,
0001
1000
0001
0100
0010
0100
0001
1000
0100
0010
0001
1000
0010
0100
0010
1000
,
0002
0003
2002
3003
2020
3030
0010
0000
,
0100
0001
1000
0001
0010
0100
1000
0001
0100
0010
0100
0001
1000
0100
0010
0001
,
2000
0000
3000
0000
2020
0000
3030
0000
0220
0000
0330
0000
0100
0001
1000
0001
,
0100
0010
0100
0001
1000
0100
0010
0001
1000
0100
1000
0001
0100
0010
0100
0001
,
1000
0001
0100
0010
0100
0001
0010
0100
,
1000
0010
0100
0001
0010
0100
1000
0001
,
0100
0010
0100
0001
1000
0100
0010
0001
,
1000
0010
0100
0010
1000
0001
0010
0100
,
4000
0000
0000
0000
0000
0000
3001
0100
,
0001
1000
0001
0100
0010
0100
0001
1000
0001
0100
0010
1000
0001
0010
0100
1000
,
0001
0010
0001
1000
0100
1000
0001
0100
0010
0100
0001
1000
0100
0010
0001
1000
,
0001
0100
0010
0100
0001
1000
0100
1000
0001
0100
0010
0100
0001
1000
0100
0010
,
0001
0000
0000
1001
0000
1000
0010
0100
,
0001
0010
0000
0001
1000
0000
0100
1000
,
0001
0100
0000
0010
0100
0000
0101
0000
,
0001
1000
0000
0100
1000
0001
0100
0010
,
0100
0001
0000
0010
0100
1000
0001
0100
,
0010
0000
0000
0110
0000
0000
0101
0000
,
0001
1000
0100
1000
0001
0000
0100
0010
,
1000
0001
0100
0001
1000
0100
0010
0001
1000
0001
0100
0010
0100
0001
1000
0100
,
1000
0000
0001
0000
0000
0000
0100
0000
0001
0000
0000
0000
1000
0100
1000
0010
,
0100
0001
0010
0100
1000
0010
0100
0001
0010
0001
1000
0010
0100
0000
0000
0000
,
0001
0000
0100
0000
0000
0000
0010
0000
0100
0000
0000
0000
0001
0010
0001
0100
,
0010
1000
0100
0010
0001
0100
0010
0100
0001
0010
0100
1000
0001
0000
0000
0000
,
1000
0000
0100
0000
0000
0000
1000
0000
0001
0000
0000
0000
0100
0001
0010
0100
,
1000
0010
0100
0001
0010
0001
1000
0100
1000
0010
0100
0001
1000
0000
0000
0000
,
0001
0000
1000
0000
0000
0000
0100
0000
1000
0000
0000
0000
0010
0100
0001
0010
,
0001
0100
0010
1000
0100
1000
0010
0100
0001
0010
0100
1000
0001
0000
0000
0000
,
1000
0000
0100
0000
0000
0000
1000
0000
0001
0000
0000
0000
0100
0001
0010
0100
,
1000
0010
0100
0001
0010
0001
0100
0010
1000
0100
0010
0001
1000
0000
0000
0000
,
0001
0000
0010
0000
0000
0000
0001
0000
1000
0000
0000
0000
0100
1000
0010
0100
,
0001
0010
0001
0100
0010
1000
0100
0010
0001
0100
0010
1000
0001
0000
0000
0000
,
1000
0000
0100
0000
0000
0000
1000
0000
0001
0000
0000
0000
0100
0001
0010
0001
,
1000
0100
1000
0010
0100
0001
0010
0100
1000
0010
0100
0001
0010
0000
0000
0000
,
0001
0000
0100
0000
0000
0000
0010
0000
0100
0000
0000
0000
0001
0010
0100
1000
,
0010
0000
0000
0100
0000
0000
0001
0000
,
1000
0100
0000
1000
0001
0000
0100
0010
,
0000
0100
0001
0000
0010
0100
1000
0010
,
0100
0001
0000
0010
0100
0000
1000
0100
,
0000
1000
0001
0000
0100
0001
0010
0100
,
1000
0010
0000
0100
0001
0000
1000
0100
,
0000
1000
0010
0000
0100
0001
0010
0100
,
0010
0001
0000
1000
0100
0000
1000
0010
,
0000
0100
0001
0000
0010
0100
1000
0001
,
0100
0010
0000
0100
0001
0000
0010
0100
,
0000
1000
0001
0000
0100
0001
0010
0100
,
1000
0001
0000
0100
0010
0000
1000
0100
,
0000
1000
0001
0000
0100
0001
0010
0001
,
1000
0100
0000
1000
0010
0000
0100
0001
,
0000
0010
0100
0000
1000
0010
0100
0001
,
0010
0100
1000
0001
0100
0010
0100
0001
,
1000
0100
1000
0001
0100
0010
0100
0001
1000
0100
0010
0001
0100
0010
1000
0100
,
1000
0001
0100
0001
0010
0100
1000
0001
,
0010
0100
0010
0001
1000
0010
0100
0010
,
1000
0001
0010
0100
1000
0001
0010
0001
,
1000
0010
0100
0010
1000
0001
0100
0001
,
1000
0100
0010
0100
1000
0010
0100
0010
,
1000
0001
0010
0100
1000
0010
0100
0001
,
0010
0001
1000
0100
1000
0010
0100
0001
,
0010
0100
1000
0001
0100
0010
0100
0001
,
1000
0100
0010
0100
1000
0010
0100
0001
,
0010
0100
1000
0001
0010
0001
1000
0010
,
0100
0010
1000
0100
1000
0001
0010
0100
,
1000
0001
0100
0010
0100
0001
1000
0100
,
0010
0001
1000
0001
0100
0010
0100
0001
,
0010
0100
1000
0001
0010
0001
1000
0100
,
1000
0001
0010
0100
1000
0010
0100
0001
,
1000
0000
0100
1000
0000
0001
0100
0010
,
0100
0000
0001
1000
0000
0100
1000
0000
,
0001
0010
0100
0010
0000
0001
1000
0100
,
1000
0000
0010
0100
0000
0001
0100
0000
,
0001
0010
0100
1000
0000
0010
0100
0001
,
1000
0000
0100
1000
0000
0001
0010
0000
,
0100
1000
0001
0100
0010
0100
0001
0010
,
0100
0000
1000
0100
0000
1000
0001
0100
,
0001
0000
0010
0000
0100
1000
0001
0100
0010
0100
0001
1000
0100
0010
0001
1000
,
0001
0000
0100
0001
0000
0010
0100
0000
,
1000
0100
1000
0001
0000
0100
0010
0100
,
0001
0010
0100
1000
0000
0001
0100
0000
,
0101
0000
0001
0010
0000
0001
1000
0100
,
1000
0000
0010
0100
0000
0001
0010
0100
,
1000
0000
0010
0100
0000
0001
0100
0001
,
1000
0000
0100
0000
1000
0000
0001
0000
0100
0001
1000
0001
0010
0100
1000
0001
,
0100
0000
0000
0101
0000
0000
1001
0000
,
1001
0000
1000
0000
0100
1000
0000
0001
,
0100
0000
0010
0100
0000
0001
0010
0000
,
0100
1000
0000
0001
0100
0001
0000
1000
,
0100
0000
1000
0001
0000
0100
0001
0010
,
0100
0000
1000
0000
0001
0100
0000
0010
,
0100
0000
0001
1000
0000
0100
0010
0000
,
0001
0100
0000
0001
1000
0000
0100
1000
,
0000
0001
0100
0001
0000
1000
0001
0010
,
0200
0300
0000
0000
0000
0000
0000
0000
1000
0000
0000
0000
0000
0000
0000
0000
0001
0000
0000
0000
0100
0000
0000
0000
0000
0000
0000
0000
0001
0000
0000
0000
,
1000
0000
0010
1000
0000
0001
0100
0000
,
0001
0010
0100
0000
1000
0100
0000
1000
,
0001
0000
0100
0010
0000
1000
0100
1000
,
0001
0000
0100
0001
0000
0100
0010
0000
,
1000
0100
0000
1000
0001
0000
0100
0001
,
1000
0000
0100
0000
1000
0000
0001
0000
0010
0000
0100
0000
1000
0100
1000
0010
,
0100
0001
0010
0100
1000
0010
0100
0001
0010
0100
1000
0010
0100
0001
0010
0100
,
1000
0000
0001
0000
0100
0000
0010
0000
0100
0000
0001
0000
1000
0100
1000
0010
,
0100
0001
0010
0100
1000
0010
0100
0001
0010
0001
0100
0010
1000
0100
0010
0001
,
0100
0000
0001
0000
0010
0000
0100
0000
1000
0000
0001
0000
0100
0010
1000
0100
,
0010
0001
0100
0001
0010
0100
1000
0010
0100
0001
1000
0100
0010
0100
1000
0001
,
0200
0000
0000
0300
;
