#TITLE:Fountain of Dreams;
#SUBTITLE:;
#ARTIST:From Super Smash Bros. Melee;
#TITLETRANSLIT:;
#SUBTITLETRANSLIT:;
#ARTISTTRANSLIT:;
#CREDIT:;
#BANNER:Fountain-bn.bmp;
#BACKGROUND:Fountain-bg.bmp;
#LYRICSPATH:;
#CDTITLE:!3rdMix.png;
#MUSIC:11 - Fountain of Dreams.MP3;
#OFFSET:0.680;
#SAMPLESTART:39.528;
#SAMPLELENGTH:24.000;
#SELECTABLE:YES;
#BPMS:0.000=50.400,10.000=159.900,33.500=79.960,37.500=159.900,61.500=79.960,65.500=159.900,97.500=80.659,105.500=159.900,121.500=79.899,129.500=159.900,193.500=80.919;
#STOPS:10.000=2.140
;
#BGCHANGES:;
// cache tags:
#FIRSTBEAT:8.000;
#LASTBEAT:208.500;
#SONGFILENAME:Songs/mike songs/Fountain of Dreams/Fountain.sm;
#HASMUSIC:1;
#HASBANNER:1;
#MUSICLENGTH:103.085;
// end cache tags

//---------------dance-single - Copied from----------------
#NOTES:
     dance-single:
     Copied from:
     Hard:
     7:
     0.477,0.405,0.446,0.223,0.029,275.000,46.000,23.000,0.000,0.000:
0000
0000
0000
0000
,
0000
0000
0000
0000
,
0002
0000
0003
1001
,
0001
0100
0000
0100
0010
0000
0010
1000
,
0000
1001
0000
0101
0000
0001
1000
0000
,
1000
0010
0000
0010
0100
0000
0100
0001
,
0000
1010
0000
0202
0000
0000
0303
2020
,
0000
0000
3030
0101
0000
1001
0000
0110
,
0000
0000
0000
1000
0001
0100
0010
1000
,
0001
0100
0000
0010
1000
0100
0010
0001
,
0000
1000
0010
1000
0001
0100
0010
1000
,
0000
1000
0001
0201
0000
1300
0000
1020
,
0000
0031
0000
1000
0100
1000
0001
0100
,
0001
1000
0010
1000
0000
0001
0100
0010
,
0000
0010
1000
0001
0100
0001
0100
0010
,
0000
1001
0000
1000
0001
0100
0010
1000
,
0001
0100
0000
0101
0000
1000
0100
0010
,
0000
0010
1000
0001
0100
0001
0100
0010
,
0000
1000
0001
0200
0000
0320
0000
2030
,
0000
3002
0000
0103
0000
1001
0000
0101
,
0000
1010
0000
0001
0000
1100
0000
0100
,
0000
0101
0000
0001
0000
1001
0000
1000
,
0000
1010
0000
0101
0000
1001
0000
0101
,
0000
1010
0000
1001
0000
0101
0000
2010
,
0000
0000
0000
0000
0000
0000
3001
0000
0000
1000
0100
0010
0001
1000
0010
0000
,
1000
0001
0000
1000
0010
0100
0001
1000
,
0010
1000
0100
1000
0000
0101
0000
0100
,
0000
1010
0000
0010
0000
0101
0000
1000
,
0000
1010
0000
0101
0000
1001
0000
0101
,
0000
1001
0000
0110
0000
0101
0000
1010
,
0000
0000
0000
0000
0000
0000
0001
0000
0000
1000
0100
0010
0001
1000
0010
0000
,
0100
0001
0000
1000
0010
0100
0001
1000
,
0000
0000
0000
0001
0000
1010
0000
0100
,
0000
0101
0000
1000
0100
0010
0001
2000
,
0000
0000
0000
3001
0010
0100
1000
0001
,
0010
0100
1000
0010
0100
1000
0001
0020
,
0000
0000
0000
1030
0100
0010
0001
1000
,
0100
0010
0100
0010
0001
1000
0100
0010
,
0000
0101
0000
1000
0010
0100
0001
1000
,
0010
0100
0010
1020
0000
0000
0000
0100
,
0000
0130
0000
0001
1000
0100
0010
0001
,
1000
0100
0010
0100
1000
0001
0010
0200
,
0000
0000
0000
1300
0100
0010
0001
1000
,
0100
0010
0001
1000
0010
1000
0010
0200
,
0000
0000
0000
0301
1000
0001
1000
0010
,
0100
0010
0100
1000
0100
0010
0001
1000
,
0010
1000
0001
0202
0000
0000
0303
2020
,
0000
0000
3030
0202
0000
0000
0000
0000
,
0303
0000
0000
1000
0000
0001
0000
0100
,
0010
0100
0000
0001
1000
0100
0010
0001
,
0100
0001
0000
1000
0000
0010
0000
0100
,
0001
0100
0010
1000
0010
0100
0001
1000
,
0010
1001
0000
0000
0000
0000
0000
0000
;

//---------------dance-single - Copied from Copied f----------------
#NOTES:
     dance-single:
     Copied from Copied f:
     Easy:
     4:
     0.227,0.228,0.233,0.068,0.000,133.000,24.000,7.000,0.000,0.000:
0000
0000
0000
0000
,
0000
0000
0000
0000
,
0002
0000
0003
0000
,
0001
0000
0010
0000
,
0000
1001
0000
0101
0000
0001
0000
0000
,
0000
0010
0000
0010
0000
0000
0000
0001
,
0000
1010
0000
1001
0000
0000
0000
1001
,
0000
0000
0000
0001
0000
1000
0000
0001
,
0000
0000
0000
1000
0000
0000
0000
0001
,
0000
0000
0000
1000
0000
0100
0000
0001
,
0000
1000
0000
1000
0000
0100
0000
1000
,
0000
0000
0000
0002
0000
0000
0000
2003
,
0000
0000
0000
0000
0000
3000
0000
0100
,
0000
1000
0000
1000
0000
0001
0000
0010
,
0000
0010
0000
0001
0000
0001
0000
0010
,
0000
1000
0000
0001
0000
0000
0000
1000
,
0000
0000
0000
0001
0000
1000
0000
0010
,
0000
0010
0000
0001
0000
0001
0000
0010
,
0000
1000
0000
0100
0000
0010
0000
1000
,
0000
0001
0000
0100
0000
1001
0000
0000
,
0000
1010
0000
0000
0000
1100
0000
0000
,
0000
0101
0000
0000
0000
1001
0000
0000
,
0000
1010
0000
0000
0000
1001
0000
0000
,
0000
1010
0000
0000
0000
0000
0000
2010
,
0000
0000
0000
3001
0000
0000
0000
0010
,
0000
0000
0000
1000
0000
0000
0000
0000
,
0000
0000
0000
1001
0000
0000
0000
0110
,
0000
0000
0000
1010
0000
0000
0000
1001
,
0000
0000
0000
1001
0000
0000
0000
1001
,
0000
0000
0000
0110
0000
0000
0000
1001
,
0000
0000
0000
0001
0000
0000
0000
0010
,
0000
0000
0000
1000
0000
0000
0000
0000
,
0000
0000
0000
0001
0000
0000
0000
0100
,
0000
0000
0000
1000
0000
0010
0000
1000
,
0000
0000
0000
0001
0000
0100
0000
0001
,
0000
0100
0000
0010
0000
1000
0000
0010
,
0000
0000
0000
1000
0000
0010
0000
1000
,
0000
0010
0000
0010
0000
1000
0000
0010
,
0000
0101
0000
1000
0000
0100
0000
1000
,
0000
0100
0000
0020
0000
0000
0000
0000
,
0000
0030
0000
0001
0000
0100
0000
0001
,
0000
0100
0000
0100
0000
0001
0000
0200
,
0000
0000
0000
1300
0000
0010
0000
1000
,
0000
0010
0000
1000
0000
1000
0000
0200
,
0000
0000
0000
0301
0000
0001
0000
0010
,
0000
0010
0000
1000
0000
0010
0000
1000
,
0000
1000
0000
0001
0000
0000
0000
1000
,
0000
0000
0000
0001
0000
0000
0000
0000
,
0000
0000
0000
1000
0000
0000
0000
0100
,
0000
0000
0000
0001
0000
0000
0000
0001
,
0000
0000
0000
1000
0000
0000
0000
0100
,
0000
0000
0000
1000
0000
0000
0000
0010
,
0000
1001
0000
0000
0000
0000
0000
0000
;

//---------------dance-single - Copied from Copied f----------------
#NOTES:
     dance-single:
     Copied from Copied f:
     Beginner:
     3:
     0.155,0.253,0.184,0.078,0.000,85.000,19.000,8.000,0.000,0.000:
0000
0000
0000
0000
,
0000
0000
0000
0000
,
0000
0000
0000
0000
,
0001
0000
0000
0000
,
0000
1001
0000
1001
0000
1001
0000
0000
,
0000
0000
0000
0000
0000
0000
0000
1001
,
0000
1001
0000
1001
0000
0000
0000
1001
,
0000
0000
0000
0001
0000
0000
0000
1000
,
0000
0000
0000
0002
0000
0000
0000
0000
,
0000
0000
0000
1003
0000
0000
0000
0001
,
0000
0000
0000
1000
0000
0000
0000
1000
,
0000
0000
0000
0002
0000
0000
0000
2003
,
0000
0000
0000
0000
0000
3000
0000
0000
,
0000
1000
0000
0000
0000
0001
0000
0000
,
0000
0010
0000
0000
0000
0001
0000
0000
,
0000
0000
0000
0200
0000
0000
0000
0000
,
0000
0000
0000
0301
0000
0000
0000
0010
,
0000
0000
0000
0001
0000
0000
0000
0010
,
0000
0000
0000
0100
0000
0000
0000
1000
,
0000
0000
0000
0100
0000
0001
0000
0000
,
0000
1000
0000
0000
0000
1000
0000
0000
,
0000
0001
0000
0000
0000
1000
0000
0000
,
0000
1000
0000
0000
0000
1000
0000
0000
,
0000
1001
0000
1001
0000
1001
0000
2002
,
0000
0000
0000
3000
0000
0000
0000
0000
,
0000
0000
0000
0000
,
0000
0000
0000
1003
0000
0000
0000
0110
,
0000
0000
0000
0000
0000
0000
0000
1001
,
0000
0000
0000
0000
0000
0000
0000
1001
,
0000
0000
0000
0110
0000
0000
0000
1001
,
0000
1001
0000
2002
0000
0000
0000
0003
,
0000
0000
0000
0000
,
0000
0000
0000
3001
0000
0000
0000
0000
,
0000
0000
0000
1000
0000
0000
0000
0000
,
0000
0000
0000
0001
0000
0000
0000
0001
,
0000
0000
0000
0010
0000
0000
0000
0010
,
0000
0000
0000
1000
0000
0000
0000
1000
,
0000
0000
0000
0010
0000
0000
0000
0010
,
0000
0000
0000
1000
0000
0000
0000
1000
,
0000
0000
0000
0010
0000
0000
0000
0000
,
0000
0000
0000
0000
0000
0100
0000
0000
,
0000
0100
0000
0000
0000
0000
0000
0100
,
0000
0000
0000
1000
0000
0000
0000
1000
,
0000
0000
0000
1000
0000
0000
0000
0100
,
0000
0000
0000
0001
0000
0000
0000
0010
,
0000
0000
0000
1000
0000
0000
0000
1000
,
0000
0000
0000
0001
0000
0000
0000
1000
,
0000
0000
0000
0001
0000
0000
0000
0000
,
0000
0000
0000
1000
0000
0000
0000
0100
,
0000
0000
0000
0001
0000
0000
0000
0001
,
0000
0000
0000
1000
0000
0000
0000
0100
,
0000
0000
0000
1000
0000
1000
0000
1000
,
0000
1001
0000
0000
0000
0000
0000
0000
;

//---------------dance-single - Copied from Copied f----------------
#NOTES:
     dance-single:
     Copied from Copied f:
     Medium:
     6:
     0.356,0.405,0.340,0.087,0.000,213.000,35.000,9.000,0.000,0.000:
0000
0000
0000
0000
,
0000
0000
0000
0000
,
0002
0000
0003
1001
,
0001
0100
0001
0000
0010
1000
0010
0000
,
0000
1001
0000
0101
0000
0001
1000
0001
,
0000
0010
0100
0010
0000
0000
0100
0001
,
0100
0000
0000
0101
0000
0000
0000
1010
,
0000
0000
0000
0101
0000
1001
0000
0110
,
0000
0000
0000
1000
0000
0100
0000
1000
,
0000
0100
0000
0010
0000
0100
0000
0001
,
0000
1000
0000
1000
0000
0100
0000
1000
,
0000
1000
0000
0101
0000
0100
0000
1010
,
0000
0010
0000
1000
0100
1000
0000
0100
,
0001
0100
0000
1000
0001
1000
0000
0010
,
0000
0010
0000
0001
0000
0001
0000
0010
,
0000
1001
0000
1000
0000
0100
0000
1000
,
0000
0100
0000
0101
0000
1000
0100
0010
,
0000
0010
1000
0001
0000
0001
0100
0010
,
0000
1000
0001
0100
0000
0010
0000
1000
,
0000
0001
0000
0100
0000
1000
0000
0001
,
0000
1000
0000
0001
0000
1000
0000
0100
,
0000
0001
0000
0001
0000
1000
0000
1000
,
0000
1010
0000
0101
0000
1001
0000
0101
,
0000
1010
0000
1001
0000
0101
0000
2010
,
0000
0000
0000
3001
0000
0100
0001
0010
,
1000
0001
0000
1000
0000
0100
0000
1000
,
0000
1000
0000
1000
0000
0001
0000
0100
,
0000
1000
0000
0010
0000
0001
0000
1000
,
0000
1000
0000
0001
0000
1001
0000
0101
,
0000
1001
0000
0110
0000
0101
0000
1010
,
0000
0000
0000
0001
0000
0100
0001
0010
,
0100
0001
0000
1000
0000
0100
0000
1000
,
0000
0000
0000
0001
0000
1010
0000
1001
,
0000
0110
0000
1000
0000
0010
0000
2000
,
0000
0000
0000
3001
0000
0100
0000
0001
,
0000
0100
0000
0010
0000
1000
0000
0020
,
0000
0000
0000
1030
0000
0010
0000
1000
,
0000
0010
0000
0010
0000
1000
0000
0010
,
0000
0101
0000
1000
0000
0100
0000
1000
,
0000
0100
0000
1020
0000
0000
0000
0100
,
0000
0130
0000
0001
1000
0100
1000
0000
,
0001
0100
0001
0000
1000
0001
0100
0200
,
0000
0000
0000
1300
0000
0010
0000
1000
,
0000
0010
0000
1000
0000
1000
0000
0200
,
0000
0000
0000
0301
0000
0001
0000
0010
,
0000
0010
0000
1000
0000
0010
0000
1000
,
0010
1000
0001
0101
0000
0000
0000
1010
,
0000
0000
0000
0202
0000
0000
0000
0000
,
0303
0000
0000
1000
0000
0001
0000
0100
,
0010
0100
0000
0001
1000
0100
0010
0001
,
0100
0001
0000
1000
0000
0010
0000
0100
,
0001
0100
0010
1000
0010
0100
0001
1000
,
0010
1001
0000
0000
0000
0000
0000
0000
;

//---------------dance-single - Copied from Copied f----------------
#NOTES:
     dance-single:
     Copied from Copied f:
     Challenge:
     8:
     0.518,0.480,0.485,0.223,0.146,301.000,50.000,23.000,0.000,0.000:
0000
0000
0000
0000
,
0000
0000
0000
0000
,
0002
0000
0000
0000
0003
0000
1000
0100
,
0010
0001
1000
0010
1000
0001
0010
0100
,
0000
1001
0000
0101
0000
0001
1000
0010
,
0100
0001
1000
0010
1000
0010
0100
0001
,
0100
0010
0000
0202
0000
0000
0303
2020
,
0000
0000
3030
0101
0000
1001
0000
0110
,
0000
0000
0000
1001
0100
0011
0100
1010
,
0010
0110
0000
0010
1000
0100
0010
0001
,
0000
1000
0010
1000
0001
0100
0010
1000
,
0000
1000
0001
0201
0000
1300
0000
1020
,
0000
0031
0000
1000
0100
1000
0001
0100
,
0001
1000
0010
1001
0000
0001
0100
0010
,
0000
0010
1000
0001
0100
0001
0100
0010
,
0000
1001
0000
1010
0001
0110
1000
0101
,
0001
1001
0000
0101
0000
1000
0100
0010
,
0000
0010
1000
0001
0100
0001
0100
0010
,
0000
1000
0001
0200
0000
0320
0000
2030
,
0000
3002
0000
0103
0000
1001
0000
0101
,
0000
1010
0000
0010
0000
1010
0000
0010
,
0000
1010
0000
0010
0000
1010
0000
0010
,
0000
1010
0000
0001
0000
0011
0000
0001
,
0000
0011
0000
0001
0000
0011
0000
2010
,
0000
0000
0000
0000
0000
0000
3001
0000
0000
1000
0100
0010
0001
1000
0010
0000
,
1000
0000
0000
0000
0001
0000
0000
0000
0000
0000
0000
0000
1000
0000
0000
0010
0100
0000
0001
0000
1000
0000
0010
0000
0100
0000
0001
0000
1000
0000
0000
0000
,
0010
1000
0100
1001
0000
0101
0000
0110
,
0000
1010
0000
0101
0000
1001
0000
0110
,
0000
1010
0000
0101
0000
1001
0000
0101
,
0000
1001
0000
0110
0000
0101
0000
1010
,
0000
0000
0000
0000
0000
0000
0001
0000
0000
1000
0100
0010
0001
1000
0010
0000
,
0100
0000
0000
0000
0001
0000
0000
0000
1000
0000
0000
0000
0010
0000
0000
0100
0001
0000
1000
0000
0100
0000
0010
0000
0001
0000
1000
0000
0010
0000
0000
0000
,
0000
0000
0000
0000
1000
0000
0001
0000
0000
0001
1000
0000
0010
0000
0100
0000
,
0001
0000
1000
0000
0100
0000
0010
0000
0000
0010
0001
0000
1000
0000
0020
0000
,
0000
0000
0000
0000
0000
0000
1030
0000
0000
1000
0001
0000
1000
0000
0100
0000
,
0010
0000
0001
0000
0100
0000
0010
0000
0000
0010
1000
0000
0001
0000
0200
0000
,
0000
0000
0000
0000
0000
0000
0301
0000
0000
0001
0100
0000
0010
0000
1000
0000
,
0100
0000
0010
0000
0001
0000
1000
0000
0000
1000
0010
0000
0100
0000
0101
0000
,
0000
0000
1010
0000
0000
0000
0010
0000
0000
0010
0100
0000
0001
0000
1000
0000
,
0010
0100
0001
2000
0000
0000
0000
0100
,
0000
0000
0100
0000
0000
0000
3100
0000
0000
0100
0010
0000
0001
0000
1000
0000
,
0100
0000
0010
0000
0001
0000
0100
0000
0000
0100
0010
0000
1000
0000
0200
0000
,
0000
0000
0000
0000
0000
0000
1300
0000
0000
1000
0010
0000
0100
0000
0001
0000
,
1000
0000
0010
0000
0100
0000
0001
0000
0000
0001
1000
0000
0001
0000
0020
0000
,
0000
0000
0000
0000
0000
0000
0031
0000
0000
0001
1000
0000
0100
0000
1000
0000
,
0001
0000
0100
0000
0010
0000
0100
0000
0000
0100
0001
0000
1000
0000
0100
0000
,
0010
0000
0001
0000
1000
0000
0202
0000
0000
0000
0303
0000
1000
0020
2000
0000
,
0000
0000
3030
0000
0001
0200
0002
0000
0000
0000
0303
0000
0000
0000
0000
0000
,
0000
0000
0000
1000
0000
0001
0000
0100
,
0010
0100
0000
0001
1000
0100
0010
0001
,
0100
0001
0000
1000
0000
0010
0000
0100
,
0001
0000
0100
0000
0010
1000
0001
0000
0100
0000
0001
0000
1000
0000
0100
0000
,
0010
1001
0000
0000
0000
0000
0000
0000
;
