#TITLE:Russian Privjet (Chromeboy 2nd Remix);
#SUBTITLE:;
#ARTIST:Basshunter;
#TITLETRANSLIT:;
#SUBTITLETRANSLIT:;
#ARTISTTRANSLIT:;
#CREDIT:;
#BANNER:;
#BACKGROUND:;
#LYRICSPATH:;
#CDTITLE:;
#MUSIC:Basshunter - Russian Privjet (Chromeboy 2nd Remix).mp3;
#OFFSET:-0.020;
#SAMPLESTART:100.000;
#SAMPLELENGTH:12.000;
#SELECTABLE:YES;
#BPMS:0.000=70.000,48.000=140.000,368.000=70.000,384.000=140.000;
#STOPS:;
#BGCHANGES:;
// cache tags:
#FIRSTBEAT:0.000;
#LASTBEAT:548.500;
#SONGFILENAME:Songs/new cedric/Basshunter - Russian Privjet (Chromeboy 2nd Remix)/Basshunter - Russian Privjet (Chromeboy 2nd Remix).sm;
#HASMUSIC:1;
#HASBANNER:0;
#MUSICLENGTH:262.347;
// end cache tags

//---------------dance-single - ----------------
#NOTES:
     dance-single:
     :
     Challenge:
     11:
     1.000,1.000,0.316,0.374,1.000,1845.000,83.000,98.000,346.000,0.000:

100M
0100
0010
M000
0001
0010
0100
0000
100M
0100
0010
0000
M001
0010
010M
0000
1M00
0010
0100
0000
M010
0100
0001
0000
1000
0010
010M
0000
0010
0100
M001
00M0
,
0001
0100
M010
000M
0100
0010
1M00
0000
0001
0100
M010
0000
0100
0010
1M00
0000
0001
0010
0100
M00M
0010
0100
1000
0000
0001
0010
0100
M00M
0010
0100
1000
0000
,
1000
0010
0100
0000
0010
0100
00M1
0000
1000
0010
0100
M00M
0010
0100
0001
M0M0
0001
0100
0010
0000
0100
0010
1M00
0000
0001
0100
M010
000M
0100
0010
1M00
0000
,
00M1
1000
0M01
0000
10M0
0001
1M00
0000
00M1
1000
0M01
0000
10M0
0001
1M00
0000
M100
001M
0100
M000
0010
010M
0010
M000
0100
001M
0100
M000
0010
010M
0010
0000
,
MM11
M001
0M10
0000
M001
0M10
M001
0000
0M10
M001
0M10
0000
M001
0M10
M001
0000
100M
01M0
100M
0000
01M0
100M
01M0
0000
100M
01M0
100M
0000
01M0
100M
01M0
0000
,
100M
0M10
100M
0000
0M10
100M
0M10
0000
100M
0M10
100M
0000
0M10
100M
0M10
0000
01M0
M001
01M0
0000
M001
01M0
M001
0000
01M0
M001
01M0
0000
M001
01M0
M001
0000
,
M001
01M0
M001
0000
10M0
0100
10M0
0000
00M1
0100
00M1
0000
10M0
0100
10M0
0000
1M00
0010
1M00
0000
0M01
0010
0M01
0000
1M00
0010
1M00
0000
0M01
0010
0M01
0000
,
10M0
0100
00M1
0000
00M1
0100
10M0
0000
10M0
0100
00M1
0000
00M1
0100
10M0
0000
1M00
0010
0M01
0000
0M01
0010
1M0M
0000
1M00
0010
0M01
0000
0M01
0010
1M00
0000
,
1100
0100
0010
0000
0001
0010
0100
0000
1000
0100
0010
0M01
M0M0
0M01
M0M0
0M01
0010
0100
1000
0000
0100
0010
0001
0000
0001
0100
0010
0000
1000
0100
0010
0000
,
0001
0100
0010
0000
1000
0010
0100
0000
0001
0010
0100
0000
1000
0010
0100
0000
0001
0010
0100
0000
1000
0100
1000
0000
1000
0010
1000
0000
1000
0001
1000
0000
,
0001
1000
0001
0000
0001
0010
0001
0000
0001
0100
0001
0000
0001
1000
0001
0000
0001
0100
0010
0000
0010
0100
0001
0000
0001
0100
0010
0000
0010
0100
0001
0000
,
0001
0100
0010
0000
0010
1000
0100
0000
0100
1000
0010
0000
0010
1000
0100
0000
0010
0001
1000
0000
1000
0100
0010
0000
0010
0001
1000
0000
1000
0100
0010
0000
,
0010
0001
1000
0000
1000
0010
1000
0000
0010
1000
0001
0000
0010
0001
1000
0000
,
0100
0010
0001
0000
0001
0010
0100
0000
0100
0010
0001
0000
0001
0010
0100
0000
,
1000
0100
0010
0000
0010
0100
1000
0000
1000
0100
0010
0000
0010
0100
1000
0000
,
1000
0010
0100
0000
0001
0100
0010
0000
1000
0010
0100
0000
0001
0100
0010
0000
,
1000
0100
0010
0000
0001
0100
0010
0000
1000
0100
0010
0000
0001
0100
0010
0000
,
0100
0001
0010
0000
0010
0100
1000
0000
0001
0010
0100
0000
0010
0100
1000
0000
,
1000
0010
1000
0000
0010
0100
0010
0000
0100
0010
0100
0000
0001
0010
0001
0000
,
0010
0100
0010
0000
0100
1000
0100
0000
1000
0010
1000
0000
1000
0001
1000
0000
,
1010
0000
2020
3030
0100
0001
0020
0030
0010
0100
2000
3000
1000
0100
0020
0030
,
0001
0010
0200
0300
1000
0010
0200
0300
0100
0001
0020
0030
0100
1000
0020
0030
,
0010
0100
0002
0003
0001
0010
0200
0300
1000
0100
0020
0030
0001
0100
0020
0030
,
0010
0100
0002
0003
0001
0100
0010
0000
0010
0100
0002
0003
0001
0010
0200
0300
,
0100
0010
0002
0003
0001
0010
0200
0300
0010
0100
2000
3000
1000
0010
0200
0300
,
0100
0010
2000
3000
1000
0010
0200
0300
0100
0010
2000
3000
1000
0010
0200
0300
,
0010
0100
0002
0003
1000
0010
0200
0300
0010
0100
0002
0003
0001
0010
0200
0300
,
1000
0100
0020
0030
0001
0010
0200
0300
1000
0100
0020
0030
0001
0010
0200
0300
,
1000
0100
0010
0001
0100
0010
0100
0100
0001
0010
0100
1000
1000
1000
1000
0100
,
0010
0000
0001
0000
0100
0000
0010
0000
1000
0000
0100
0000
1000
0000
0100
0000
0010
0000
0100
0000
0010
0000
0001
0000
0010
0000
0001
0000
0100
0010
0100
0010
,
0100
0001
0010
0100
1000
0010
0100
0001
0010
0100
1000
0100
0010
0010
0010
0001
,
0010
0001
0010
0100
0010
0100
1000
0001
0010
0100
0010
0100
1000
0010
1000
0010
,
1000
0100
1000
0100
0010
0100
0010
0100
1000
0100
1000
0010
1000
0010
0100
0010
,
0100
0001
0100
0001
1000
0001
1000
0001
0010
0001
0010
0100
0010
0100
1000
0100
,
1000
0001
1000
0001
0010
0001
0010
0001
0100
0001
0100
0001
1000
0001
1000
0001
,
0010
0100
0010
0100
1000
0100
1000
0100
0010
0001
0100
0010
0100
0010
1000
0100
,
1000
0100
0010
0001
0010
0001
0100
0010
0100
0010
1000
0100
1000
0100
0010
0001
,
0010
0000
0001
0000
0100
0000
0010
0000
0100
0000
0001
0000
0010
0000
0001
0000
0010
0000
0001
0000
1000
0000
0001
0000
1000
0000
0001
0000
1000
0010
1000
0010
,
1000
0010
1000
0010
1000
0100
1000
0100
0010
0100
0010
0100
1000
0100
1000
0100
,
0010
0100
0010
0100
0010
0001
0010
0001
0010
0100
0010
0100
0010
1000
0010
1000
,
0010
0100
0010
0100
0010
0001
0010
0001
0100
0010
0100
0010
0100
0001
0100
0001
,
0100
0010
0100
0010
0100
1000
0100
1000
0100
0010
0100
0010
0100
0001
0100
0001
,
0010
0001
0010
0001
0100
0001
0100
0001
1000
0001
1000
0010
1000
0010
1000
0100
,
1000
0100
1000
0010
1000
0010
1000
0001
1000
0001
0010
0001
0010
0100
0010
0100
,
1000
0010
0100
0001
1000
0010
0100
0001
0010
0100
1000
0010
0100
0001
0010
0100
,
1000
0100
0010
0001
0010
0001
1000
0100
0010
0100
0010
0001
0100
0010
0100
0001
,
0010
0100
1000
0100
1000
0001
0010
0100
0010
0100
1000
0010
0100
0010
0100
0001
,
0010
0100
0010
0001
0010
0001
0010
0100
0010
0100
0010
0001
0100
0010
0100
0001
,
0010
0100
1000
0010
1000
0001
0010
0001
1000
0100
0010
0100
1000
0001
0010
0100
,
1000
0010
1000
0010
0100
0010
0100
0001
0100
0001
0010
0001
0100
0001
0100
0001
,
0010
0001
0100
0001
0010
0100
1000
0010
1000
0010
1000
0100
1000
0010
1000
0010
,
1000
0001
0010
0100
1000
0100
1000
0100
0010
0100
0010
0001
0010
0001
0100
0010
,
1001
0000
0000
1000
0000
1000
0010
1000
0001
0010
0100
1000
0100
0010
0100
0010
,
0100
0000
0000
0100
0000
0100
1000
0100
0020
0000
0430
0000
2300
0000
3400
0000
,
2300
0000
3000
0100
0000
0010
0001
0010
0002
0003
0004
0000
0023
0000
0430
0000
,
2300
0000
3000
0100
0000
0010
0100
1000
0200
0000
0340
0000
0032
0000
0403
0000
,
0320
0000
0030
1000
0000
0100
0010
0001
0200
0000
0340
0000
0230
0000
0304
0000
,
0023
0000
0030
0100
0000
1000
0100
1000
0200
0000
0340
0000
0032
0000
0403
0000
,
0320
0000
0030
1000
0000
1000
0100
0010
0001
0000
0100
0010
0000
0100
0010
0100
,
0002
0000
0000
0013
0000
0100
1000
0100
1000
0000
1000
1000
1000
0000
0010
00M0
,
0010
0000
0000
0100
0000
0001
0010
0100
0010
0000
0001
0001
0010
0010
0100
0100
,
1100
0000
0000
MM00
0000
0000
1100
0000
0000
0000
1000
0000
0100
0000
0010
0000
0002
0000
0000
0000
0403
0000
0000
0000
0320
0000
0000
0000
1030
0000
0000
0000
,
2200
00MM
3300
MM21
0000
0031
0100
0001
2000
0000
3040
0000
2030
0000
3001
0000
,
2002
0000
0MM0
0000
3003
0000
0110
M00M
0000
0000
1MM1
0000
2000
0000
3020
0000
0230
0000
0300
0000
0004
0000
0000
0000
0023
0000
0000
0000
0430
0000
0000
0000
,
1310
M0M0
0000
0101
0M0M
0001
0010
0100
0020
0000
0034
0000
0203
0000
0340
0030
,
1010
0000
0000
1100
0000
0001
0010
0001
0200
0000
0340
0000
2030
0000
3040
0000
,
0232
0000
0303
1010
0000
0010
0100
0010
1000
0000
0010
0010
0000
0010
0100
0001
,
0011
0000
0000
0110
0000
0010
0100
1000
0100
0000
0010
0010
0200
0000
1300
0000
,
1010
0000
0000
0110
0000
0100
0001
0010
0001
0001
0010
0010
0100
0100
1000
1000
,
0110
0000
0000
1001
0000
0100
0010
0100
0020
0000
0430
0000
0320
0000
0034
0000
,
0113
0000
0000
0110
0000
0010
1000
0100
0020
0000
0034
0000
0023
0000
0430
0000
,
0311
0000
0000
1100
0000
1000
0001
1000
0002
0000
0043
0000
0230
0000
1300
0000
,
1001
0000
0000
0110
0000
0010
0100
1000
0200
0000
0340
0000
0230
0000
1300
0000
,
1010
0000
0000
0101
0000
1000
0010
0100
0002
0000
4003
0000
3020
0000
0430
0000
,
1301
0000
0000
0110
0000
1000
0001
0010
0100
0000
1000
1000
0000
0100
0010
0001
,
0011
0000
0000
1100
0000
1000
0001
0100
0020
0000
0430
0000
0302
0000
0043
0000
,
2230
0000
3300
0011
0000
1000
0100
0010
0100
0010
0001
0010
0001
0010
0100
1000
,
1010
0000
0000
0101
0000
0100
0010
1000
0200
0000
0340
0000
0230
0000
4300
0000
,
3110
0000
0000
0011
0000
1000
0100
1000
0020
0030
0400
0000
0302
0000
0043
0000
,
0131
0000
0000
0110
0000
0010
0100
0001
0020
0000
0430
0000
2300
0000
3100
0000
,
0110
0000
0000
0011
0000
0001
0100
0010
1000
1000
0400
0000
0320
0000
0031
0000
,
1001
0000
0000
M00M
0000
0000
1001
0000
0000
0000
0100
0000
0010
0000
0100
0000
2000
0000
0000
0000
3040
0000
0000
0000
0230
0000
0000
0000
0301
0000
0000
0000
,
0201
0000
0000
0000
0000
0300
1100
0000
0000
0000
0100
0000
0010
0000
0100
0000
0001
0000
0000
0000
0010
0000
0010
0000
0000
0000
0100
0000
1000
0000
0100
0000
,
1100
0000
0000
0011
0000
0001
0100
0001
0100
0000
0010
0010
1000
0000
0001
0000
,
1MM2
MMM0
MMM0
MMM0
1MM0
MMM0
1MM0
MMM0
,
1MM0
MMM0
MMM0
MMM0
1MM0
MMM0
1MM0
MMM3
,
2MM1
0MMM
0MMM
0MMM
0MM1
0MMM
0MM1
0MMM
,
0MM1
0MMM
0MMM
0MMM
0MM1
0MMM
0MM1
3MMM
,
M12M
MM0M
MM0M
MM0M
M10M
MM0M
M10M
MM0M
,
M10M
MM0M
MM0M
MM0M
M10M
MM0M
M10M
MM3M
,
M21M
M0MM
M0MM
M0MM
M01M
M0MM
M01M
M0MM
,
M01M
M0MM
M0MM
M0MM
M01M
M0MM
M01M
M3MM
,
M100
0001
0010
0000
0010
0100
1000
0000
1000
0100
0010
0000
0001
0010
0100
0000
1000
0100
0010
0000
0001
0010
0100
0000
1000
0100
0010
0000
0001
0010
0100
0000
,
1000
0100
0010
0000
0001
0100
0010
0000
1000
0100
0010
0000
0001
0100
0010
0000
1000
0100
0010
0000
0001
0100
0010
0000
1000
0100
0010
0000
0001
0100
0010
0000
,
0100
0001
0010
0000
0010
0100
1000
0000
0001
0010
0100
0000
1000
0001
0010
0000
0010
0100
1000
0000
1000
0100
0010
0000
0001
0100
0010
0000
0010
0100
0001
0000
,
0001
0010
0001
0000
0001
0100
0001
0000
1000
0010
1000
0000
1000
0100
0010
0000
0001
0100
0010
0000
0100
0010
0100
0000
0100
0001
0100
0000
0001
0010
0100
1000
,
0100
1000
0100
1000
0100
0010
0100
0010
0001
0010
0001
0100
0001
0010
0001
0010
,
0100
0010
0100
0010
0100
1000
0100
1000
0010
1000
0010
1000
0001
1000
0001
1000
,
0001
0010
0001
0010
0001
0100
0001
0100
0010
0100
0010
0100
0001
0010
0001
0010
,
0100
0010
0100
1000
0100
1000
0100
1000
0001
0100
0001
0100
0001
1000
0100
1000
,
0100
1000
0001
0010
0001
0010
0001
1000
0010
1000
0010
1000
0001
0100
0001
0100
,
0001
0010
0001
0010
0001
0100
0001
0100
0010
0100
0010
0100
0010
1000
0010
1000
,
0100
0010
0100
0010
0100
1000
0100
1000
0100
0001
0100
0001
0100
1000
0100
1000
,
0010
0100
0010
0100
0001
0100
0001
0100
0001
0010
0001
0010
0100
0010
0100
0010
,
0100
1000
0100
1000
0010
1000
0010
1000
0001
1000
0001
1000
0001
0100
0001
0100
,
0001
0010
0001
0010
0001
0100
0010
0100
0010
0100
0001
0100
0001
0010
0001
0010
,
0001
1000
0001
1000
0010
1000
0010
1000
0010
1000
0100
1000
0100
0010
0100
0010
,
0100
1000
0100
1000
0010
0100
0010
0100
0010
0001
0010
0001
0010
0100
0010
0100
,
0010
1000
0100
1000
0100
0010
0001
0010
0001
0100
0001
0100
0010
0100
0010
1000
,
0100
1000
0100
1000
0100
1000
0100
0010
0001
1000
0100
1000
0100
1000
0100
1000
,
0100
1000
0010
0100
0001
0100
0001
0100
0001
0100
0001
1000
0010
0100
0001
0100
,
0001
0100
0001
0010
0100
1000
0010
1000
0010
1000
0010
1000
0001
0010
0100
1000
,
0010
1000
0010
1000
0010
0100
0010
0100
0001
0010
0001
0010
0100
0010
0100
1000
,
0100
1000
0001
0010
0001
0010
0001
0010
0100
0010
0100
0010
0100
1000
0100
1000
,
0100
0010
0100
0010
0001
0010
0001
1000
0100
1000
0100
0010
0100
0010
0100
0010
,
0001
0010
0001
0010
0100
1000
0001
0010
0100
1000
0100
1000
0100
1000
0100
0010
,
0001
1000
0100
0010
0001
1000
0100
0010
0100
1000
0001
0010
0100
1000
0010
0100
,
0010
0100
0010
1000
0100
0010
0001
0100
0010
1000
0100
0010
0001
0100
0010
0100
,
0001
0100
0010
0100
0001
0100
0010
1000
0100
0010
0100
0010
0100
1000
0100
0010
,
0100
0010
0100
0010
0001
0010
0001
0010
0100
0010
0001
0010
0001
0100
0001
0100
,
0001
0100
0001
0000
1000
0100
1000
0000
0001
0100
0001
0000
1000
0100
1000
0000
,
0001
0010
0001
0000
1000
0010
1000
0000
0001
0010
0001
0000
1000
0010
1000
0000
,
0001
0100
0001
0000
1000
0010
1000
0000
0001
0100
0001
0000
1000
0010
1000
0000
,
0001
0010
0001
0000
1000
0100
1000
0000
0001
0010
0001
0000
1000
0100
1000
0000
,
0001
0010
0100
0000
1000
0100
0010
0000
0001
0010
0100
0000
1000
0100
0010
0000
,
0001
0010
0100
0000
0010
0100
1000
0000
0001
0010
0100
0000
0010
0100
1000
0000
,
1000
0100
0010
0000
0100
0010
0001
0000
1000
0100
0010
0000
0100
0010
0001
0000
,
0001
0010
0001
0000
0001
0100
0001
0000
0001
1000
0001
0000
0001
0010
0001
0000
,
0001
1000
0100
0000
0100
1000
0010
0000
0010
1000
0100
0000
0100
1000
0010
0000
,
0010
1000
0100
0000
0010
0001
0100
0000
0100
0001
0010
0000
0010
0001
0100
0000
,
0100
0001
0010
0000
0010
0100
1000
0000
1000
0100
0010
0000
0010
0100
1000
0000
,
1000
0100
0010
0000
0010
0100
1000
0000
0001
0010
0100
0000
0100
0010
0001
0000
,
0001
0010
0100
0000
0010
0100
0010
0000
0100
0010
0100
0000
0010
0100
0010
0000
,
0010
0001
0010
0000
0001
0010
0001
0000
0010
0001
0010
0000
0001
0010
0001
0000
,
1000
0100
1000
0000
1000
0010
1000
0000
1000
0100
1000
0000
1000
0001
1000
0000
,
0001
0010
0001
0000
0001
0100
0001
0000
0001
0010
0001
0000
0100
0010
M10M
0000
,
2MM2
0MM0
0MM0
0MM0
0MM0
0MM0
0MM0
0MM0
,
3MM3
MMMM
0000
0000
0000
0000
0000
0000
;
