#TITLE:Dawn of Victory;
#SUBTITLE:;
#ARTIST:Rhapsody;
#TITLETRANSLIT:;
#SUBTITLETRANSLIT:;
#ARTISTTRANSLIT:;
#CREDIT:;
#BANNER:Ban.png;
#BACKGROUND:Background.png;
#LYRICSPATH:;
#CDTITLE:b4-cdtitle.png;
#MUSIC:Rhapsody - Dawn Of Victory.mp3;
#OFFSET:-0.111;
#SAMPLESTART:160.694;
#SAMPLELENGTH:13.204;
#SELECTABLE:YES;
#BPMS:0.000=190.000;
#STOPS:;
#BGCHANGES:;
// cache tags:
#FIRSTBEAT:16.000;
#LASTBEAT:889.000;
#SONGFILENAME:Songs/Definitive Keyboard Megapack/Dawn Of Victory  [B4-NoA]/max4e.sm;
#HASMUSIC:1;
#HASBANNER:1;
#MUSICLENGTH:287.119;
// end cache tags

//---------------dance-single - B4's Corporation's----------------
#NOTES:
     dance-single:
     B4's Corporation's:
     Hard:
     13:
     1.000,1.000,1.000,0.613,1.000,1977.000,314.000,176.000,0.000,12.000:

0000
0000
0000
0000
,
0000
0000
0000
0000
,
0000
0000
0000
0000
,
0000
0000
0000
0000
,
2001
3020
0032
0203
,
1302
0000
1003
0000
1000
0100
0010
0001
,
1001
2000
3200
0320
,
1032
0000
0000
0000
0000
0000
0000
0000
1003
0001
1000
0010
1000
0001
1000
0010
,
2001
0000
0000
3000
1000
0000
0100
0000
0002
0000
0000
0000
1003
0000
0000
0000
,
0100
0000
0001
0011
0010
0110
0100
1000
,
2100
0000
0000
3000
0020
0000
0230
0000
0320
0000
0000
0030
1001
0000
0000
0000
,
0100
0000
0000
0000
1000
0000
0000
0000
0001
0000
0000
0001
2000
0000
0000
3000
,
0200
0000
0000
0000
0000
0300
0020
0000
0002
0030
0000
0003
0200
0000
0000
0300
,
1001
0000
0000
0000
1002
0000
0000
0000
0100
0000
0000
0003
0200
0000
0001
0000
,
0010
0300
1000
0200
0010
0300
0002
0100
,
2000
0003
0100
0000
3011
0000
0101
0000
,
2000
0000
0000
3000
1000
0000
0010
0000
0002
0000
0000
0003
0100
0000
0000
0000
,
1100
0000
1000
1100
0100
0110
0010
0001
,
0012
0000
0003
0000
2000
0000
3200
0000
0020
0300
0000
0030
1000
0000
0000
0000
,
1100
0000
0000
0000
0110
0000
0000
0000
0001
0000
0000
0001
0100
0000
0000
0000
,
2001
0000
0000
3000
0000
0000
1000
0000
0010
0000
0000
0000
0100
0000
0000
0000
,
0100
0000
0002
0000
0000
0003
2000
0001
,
0020
0000
3000
0000
1000
0030
0100
0000
0001
0000
0000
0000
0200
0000
0010
0000
,
0002
0000
0300
0000
0000
0000
0000
0000
0000
0000
0000
0000
0003
0000
0100
0001
,
1010
0000
0000
0000
0001
0000
0001
0000
0001
0000
0100
0000
1000
0100
0010
0100
,
0020
0000
0000
0030
0000
0000
0001
0000
1200
0000
0000
0300
0000
0000
1000
0000
,
0021
0000
0030
1000
0010
0100
1000
0100
,
0002
0000
0000
0003
0000
0000
0010
1000
0100
0000
0000
0000
0000
0000
1000
0000
,
0102
0000
0000
0003
0000
0000
1000
0000
0010
0000
0001
0000
0010
0000
0100
0000
,
2000
3000
0011
0000
0200
1000
0311
0000
,
1001
0100
1000
0100
0010
0100
0010
0001
0010
0001
0010
0100
1000
0000
0000
0000
,
1200
0000
0000
0300
0110
0000
0000
0000
0022
0000
0000
0033
0110
0000
0000
0000
,
2110
0000
0000
0000
0000
0000
3200
0000
0002
0300
0000
0000
0000
0000
0000
0003
,
0010
0100
0010
0001
0010
0100
0001
0010
0100
1000
0100
1000
0100
0010
0001
0010
,
0100
0000
0000
0000
0000
0000
0000
0000
0000
0000
0000
0000
1000
0000
0000
0000
0000
0000
0000
0000
0000
0000
0000
0000
0001
0000
0000
0000
0000
0000
0000
0000
0000
0000
0000
0000
1000
0000
0000
0000
0000
0000
0000
0000
0000
0000
0000
0000
0100
0000
0000
0000
0000
0000
0000
0000
0000
0000
0000
0000
0010
0000
0000
0000
0000
0000
0000
0000
0000
0000
0000
0000
0100
0000
0000
0000
0000
0000
0000
0000
0000
0000
0000
0000
1000
0000
0000
0000
0000
0000
0000
0000
0000
0000
0000
0000
0100
0000
0000
0000
0000
0000
0000
0000
0000
0000
0000
0000
0010
0000
0000
0000
0000
0000
0000
0000
0000
0000
0000
0000
0001
0000
0000
0000
0000
0000
0000
0000
0000
0000
0000
0000
0010
0000
0000
0000
0000
0000
0000
0000
0000
0000
0000
0000
0100
0000
0000
0000
0000
0000
0000
0000
0000
0000
0000
0000
0010
0000
0000
0000
0000
0000
0000
0000
0000
0000
0000
0000
0100
0000
0000
0000
0000
0000
0000
0000
0000
0000
0000
0000
0010
0000
0000
0000
0000
0000
0000
0000
0000
0000
0000
0101
,
0000
0000
0000
0000
0000
0000
0000
0000
0000
0000
0000
0000
0000
0000
0000
0000
0000
0000
0000
0000
0000
0000
0000
0000
0000
0000
0000
0000
0000
0000
0010
0000
0000
0000
0000
0000
0000
0000
0000
0000
0000
0000
0000
0000
0000
0000
0000
0000
0000
0000
0000
0000
0000
0000
0000
0000
0000
0000
0000
0000
0110
0000
0000
0000
0000
0000
0000
0000
0000
0000
0000
0000
0000
0000
0000
0000
0000
0000
0000
0000
0000
0000
0000
0000
0000
0000
0000
0000
0000
0000
0000
0000
0000
0000
0000
0000
0000
0000
0000
0100
0000
0000
0000
0000
0000
0000
0000
0000
0000
0000
0000
0000
0000
0000
0000
0000
0000
0000
0000
0000
0000
0000
0000
0000
0000
0000
0000
0000
0000
0000
0000
0000
1100
0000
0000
0000
0000
0000
0000
0000
0000
0000
0000
0000
0000
0000
0000
0000
0000
0000
0000
0000
0000
0000
0000
0000
0000
0000
0000
0000
0000
0000
0000
0000
0000
0000
0000
1000
0000
0000
0000
0000
0000
0000
0000
0000
0000
0000
0000
0000
0000
0000
0000
0000
0000
0000
0000
0000
0000
0000
0000
0000
,
0110
0000
0000
0010
0000
0000
0011
0000
0020
0000
0000
0000
0000
0000
0000
0000
,
0000
0000
0000
0030
0000
0000
0000
0000
1000
0010
0100
1000
0010
0001
0010
0100
,
1000
0100
1000
0100
1000
0001
1000
0001
1000
0001
0010
0100
1000
0100
1000
0100
,
0010
0000
0000
0000
0000
0000
0000
0000
0000
0000
0000
0000
0100
0000
0000
0000
0000
0000
0000
0000
0000
0000
0000
0000
1000
0000
0000
0000
0000
0000
0000
0000
0000
0000
0000
0000
0100
0000
0000
0000
0000
0000
0000
0000
0000
0000
0000
0000
0010
0000
0000
0000
0000
0000
0000
0000
0000
0000
0000
0000
1000
0000
0000
0000
0000
0000
0000
0000
0000
0000
0000
0000
0001
0000
0000
0000
0000
0000
0000
0000
0000
0000
0000
0000
1000
0000
0000
0000
0000
0000
0000
0000
0000
0000
0101
0000
0000
0000
0000
0000
0000
0000
0000
0000
0000
0000
0000
0000
0000
0000
0000
0000
0000
0000
0000
0000
0000
0000
0000
0000
0000
0000
0000
0000
0000
0010
0000
0000
0000
0000
0000
0000
0000
0000
0000
0000
0000
0000
0000
0000
0000
0000
0000
0000
0000
0000
0000
0000
0000
0000
0000
0000
0000
0000
0000
0110
0000
0000
0000
0000
0000
0000
0000
0000
0000
0000
0000
0000
0000
0000
0000
0000
0000
0000
0000
0000
0000
0000
0000
0000
0000
0000
0000
0000
0000
0000
0000
0000
0000
0000
0000
0000
,
0000
0000
0100
0000
0000
0000
0000
0000
0000
0000
0000
0000
0000
0000
0000
0000
0000
0000
0000
0000
0000
0000
0000
0000
0000
0000
0000
0000
0000
0000
0000
0000
0000
0000
0000
1100
0000
0000
0000
0000
0000
0000
0000
0000
0000
0000
0000
0000
0000
0000
0000
0000
0000
0000
0000
0000
0000
0000
0000
0000
0000
0000
0000
0000
0000
0000
0000
0000
0000
0000
1000
0000
0000
0000
0000
0000
0000
0000
0000
0000
0000
0000
0000
0000
0000
0000
0000
0000
0000
0000
0000
0000
0000
0000
0000
0110
0000
0000
0000
0000
0000
0000
0000
0000
0000
0000
0000
0000
0000
0000
0000
0000
0000
0000
0000
0000
0000
0000
0000
0000
0000
0000
0000
0000
0000
0000
0000
0000
0000
0000
0000
0010
0000
0000
0000
0000
0000
0000
0000
0000
0000
0000
0000
0000
0000
0000
0000
0000
0000
0000
0000
0000
0000
0000
0000
0000
0000
0000
0000
0000
0000
0000
0000
0000
0000
0000
0000
0011
0000
0000
0000
0000
0000
0000
0000
0000
0000
0000
0000
0000
0000
0000
0000
0000
0000
0000
0000
0000
0000
0000
0000
0000
,
0200
0000
0000
0000
0000
0000
0000
0000
0000
0300
0000
0000
0100
0000
0000
0000
,
0100
1000
0110
0100
0001
0001
1100
0010
,
0100
1000
1001
0100
0001
0010
0101
0100
,
1100
0000
0000
0000
0000
0000
0000
0000
0000
0000
0000
0002
0000
0000
0000
0000
0000
0000
0003
0000
0000
0000
0000
0000
,
0001
0010
0001
0010
0100
0010
0100
1000
0100
0010
0001
0010
0100
1000
0001
0010
,
0001
0010
0100
0010
0001
0010
0100
0010
0100
1000
0100
1000
0010
0100
0001
0010
,
0000
1100
0000
0000
0000
0000
0000
0000
0000
0000
0000
0000
0000
0000
0000
0000
0000
0000
0000
0000
0000
0000
0000
0000
0000
0000
0000
0000
0000
0000
0000
0100
0000
0000
0000
0000
0000
0000
0000
0000
0000
0000
0000
0000
0000
0000
0000
0000
0000
0000
0000
0000
0000
0000
0000
0000
0000
0000
0000
0001
0000
0000
0000
0000
0000
0000
0000
0000
0000
0000
0000
0000
0000
0000
0000
0000
0000
0000
0000
0000
0000
0000
0000
0000
0000
0000
0000
0000
0000
0000
0000
0000
0000
0000
0000
0000
0000
0000
0000
0011
0000
0000
0000
0000
0000
0000
0000
0000
0000
0000
0000
0000
0000
0000
0000
0000
0000
0000
0000
0000
0000
0000
0000
0000
0000
0000
0000
0000
0000
0000
0010
0000
0000
0000
0000
0000
0000
0000
0000
0000
0000
0000
0000
0000
0000
0000
0000
0000
0000
0000
0000
0000
0000
0000
0000
0000
0000
0000
0000
0110
0000
0000
0000
0000
0000
0000
0000
0000
0000
0000
0000
0000
0000
0000
0000
0000
0000
0000
0000
0000
0000
0000
0000
0000
0000
0000
0000
0000
0000
0000
0000
0000
,
0000
0000
0100
0000
0000
0000
0000
0000
0000
0000
0000
0000
0000
0000
0000
0000
0000
0000
0000
0000
0000
0000
0000
0000
0000
0000
0000
0000
0000
0000
0000
0000
0000
1100
0000
0000
0000
0000
0000
0000
0000
0000
0000
0000
0000
0000
0000
0000
0000
0000
0000
0000
0000
0000
0000
0000
0000
0000
0000
0000
0000
0000
0000
0000
0000
0000
0000
0000
0000
1000
0000
0000
0000
0000
0000
0000
0000
0000
0000
0000
0000
0000
0000
0000
0000
0000
0000
0000
0000
0000
0000
0000
0000
0000
0000
0000
2000
0000
0000
0000
0000
0000
0000
0000
0000
0000
0000
0000
0000
0000
0000
0000
0000
0000
0000
0000
0000
0000
0000
0000
0000
0000
0000
0000
0000
0000
0000
0000
0000
0000
0000
0000
0000
0000
0000
0000
0000
0000
0000
0000
0000
0000
0000
0000
0000
0000
0000
0000
0000
0000
0000
0000
0000
0000
0000
0000
0000
0000
0000
0000
0000
0000
0000
0000
0000
0000
0000
0000
0000
0000
0000
0000
0000
0000
0000
0000
0000
0000
0000
0000
0000
0000
0000
0000
0000
0000
0000
0000
0000
0000
0000
0000
,
0000
0000
0000
0000
3000
0000
0101
0000
0000
0010
0001
0100
1000
0010
0100
0001
,
0010
0100
0010
0100
1000
0100
1000
0100
0010
0001
0010
1000
0100
1000
0100
0010
,
0001
0000
0000
0000
0000
0000
0000
0000
0000
0000
0000
0000
0100
0000
0000
0000
0000
0000
0000
0000
0000
0000
0000
0000
0001
0000
0000
0000
0000
0000
0000
0000
0000
0000
0000
0000
0010
0000
0000
0000
0000
0000
0000
0000
0000
0000
0000
0000
1000
0000
0000
0000
0000
0000
0000
0000
0000
0000
0000
0000
0001
0000
0000
0000
0000
0000
0000
0000
0000
0000
0000
0000
0100
0000
0000
0000
0000
0000
0000
0000
0000
0000
0000
0000
0010
0000
0000
0000
0000
0000
0000
0000
0000
0000
0000
0000
0000
0000
0000
0000
0000
0000
0000
0000
0000
0000
0000
1001
0000
0000
0000
0000
0000
0000
0000
0000
0000
0000
0000
0000
0000
0000
0000
0000
0000
0000
0000
0000
0000
0000
0000
0000
0000
0000
0000
0000
0000
0001
0000
0000
0000
0000
0000
0000
0000
0000
0000
0000
0000
0000
0000
0000
0000
0000
0000
0000
0000
0000
0000
0000
0000
0000
0000
0000
0000
0000
0000
0000
0000
0000
0100
0000
0000
0000
0000
0000
0000
0000
0000
0000
0000
0000
0000
0000
0000
0000
0000
0000
0000
0000
0000
0000
,
0000
0000
1100
0000
0000
0000
0000
0000
0000
0000
0000
0000
0000
0000
0000
0000
0000
0000
0000
0000
0000
0000
0000
0000
0000
0000
0000
0000
0000
0000
0000
0000
0000
0010
0000
0000
0000
0000
0000
0000
0000
0000
0000
0000
0000
0000
0000
0000
0000
0000
0000
0000
0000
0000
0000
0000
0000
0000
0000
0000
0000
0000
0000
0001
0000
0000
0000
0000
0000
0000
0000
0000
0000
0000
0000
0000
0000
0000
0000
0000
0000
0000
0000
0000
0000
0000
0000
0000
0000
0101
0000
0000
0000
0000
0000
0000
0000
0000
0000
0000
0000
0000
0000
0000
0000
0000
0000
0000
0000
0000
0000
0000
0000
0000
0000
0000
0000
0000
0000
0000
0000
0000
0000
0000
0000
0100
0000
0000
0000
0000
0000
0000
0000
0000
0000
0000
0000
0000
0000
0000
0000
0000
0000
0000
0000
0000
0000
0000
0000
0000
0000
0000
0000
0000
0000
0000
0000
0000
0000
1000
0000
0000
0000
0000
0000
0000
0000
0000
0000
0000
0000
0000
0000
0000
0000
0000
0000
0000
0000
0000
0000
0000
0000
0000
0000
0000
0000
0000
0000
0000
0000
0000
,
0000
0210
0000
0000
0000
0000
0000
0000
0000
0000
0000
0000
0000
0000
0000
0000
0000
0000
0000
0000
0000
0000
0000
0000
0000
0000
0000
0000
0000
0000
0000
0000
0000
0000
0000
0000
0000
0000
0000
0000
0000
0000
0000
0000
0000
0000
0000
0000
0000
0000
0000
0000
0000
0000
0000
0000
0000
0000
0000
0000
0000
0000
0000
0000
0000
0000
0000
0000
0000
0000
0000
0000
0000
0000
0000
0000
0000
0000
0000
0000
0000
0000
0000
0000
0000
0000
0000
0000
0000
0000
0000
0000
0000
0000
0000
0000
0000
0000
0000
0000
0000
0000
0000
0000
0000
0000
0000
0000
0000
0000
0000
0000
0000
0000
0000
0000
0000
0000
0000
0000
0300
0000
0000
0000
0000
0000
0000
0000
0000
0000
0000
0000
0000
0000
0000
0000
0000
0000
0000
0000
0000
0000
0000
0000
1001
0000
0000
0000
0000
0000
0000
0000
0000
0000
0000
0000
0000
0000
0000
0000
0000
0000
0000
0000
0000
0000
0000
0000
0000
0000
0000
0000
0000
0000
0000
0000
0000
0000
0000
0000
0000
0000
0000
0000
0000
0000
0000
0000
0000
0000
0000
0000
,
0001
0010
0100
1000
0010
0100
0001
0010
,
0100
1000
0001
0010
0100
1000
0100
0010
,
1001
0000
2000
0000
,
3200
0000
0320
0000
,
0031
1000
0001
0100
1010
0100
1000
0100
0010
0100
0010
0100
0011
0100
1000
0100
,
1000
0010
0001
0100
0011
0100
1000
0100
0010
0100
0001
0100
1001
0010
0100
0010
,
0001
0010
0100
1000
0101
0010
0001
0010
0100
0010
0100
1000
0110
1000
0001
0100
,
0001
0010
0100
0010
0101
1000
0100
1000
0100
0010
0100
0010
1100
0001
0010
1000
,
0011
0100
0010
0100
0011
0100
1000
0100
0010
0100
0010
1000
0101
0010
1000
0100
,
1000
0100
0010
0001
1010
0001
0010
0001
0010
0100
0010
0001
0110
1000
0100
1000
,
0100
0010
0001
0100
1010
0001
0010
0100
0010
0100
1000
0100
1010
0001
0010
0100
,
0010
0100
1000
0100
0011
0100
0010
0100
0010
0001
0010
0001
0110
0000
0000
0000
,
1011
0000
0000
1000
0100
1000
0100
0000
0000
0001
0100
0001
,
0100
0000
0000
0010
1000
0100
0001
0001
0001
0001
0001
0001
,
0001
0000
0000
0010
0001
0010
0001
0000
0000
0010
1000
0010
,
1000
0000
0000
0001
0100
0010
1000
1000
1000
1000
1000
1000
,
0101
0010
0100
1000
0101
0010
0100
1000
0100
0001
0100
0001
0110
0001
0010
0100
,
1000
0100
0010
0001
1010
0001
0100
0010
0100
1000
0100
0010
0101
1000
0100
0001
,
0010
0001
0010
0100
1010
0100
0010
0001
0010
0100
0010
0100
0011
0100
1000
0000
,
2100
0000
0000
0100
0010
0001
0010
0100
3002
0000
0010
0100
0010
0100
0010
0000
,
1023
0001
1000
0031
,
2010
0001
0010
3100
,
0102
1000
0010
0103
,
0210
1000
0001
0310
,
2010
3002
0203
2300
,
3021
0000
1030
0000
0100
0010
0001
0010
,
1200
0302
0023
2030
,
3102
0000
0203
0000
0310
0001
0100
0000
,
1200
0320
2030
3002
,
0123
0000
2030
0000
3001
1000
0100
0010
,
0201
2300
3020
0230
,
0302
0000
0000
0000
0000
0000
0003
0000
0100
1000
0100
0010
0001
0010
0100
1000
,
0101
0000
1020
0230
0320
0000
1000
0030
,
0001
0000
1000
1100
0100
0110
0010
0010
,
0011
0000
0020
0032
0023
0000
1030
0000
,
0100
0000
0000
0000
0001
0000
0000
0000
0010
0000
0000
0001
0100
0000
0000
0000
,
0102
0000
0000
0000
0003
0000
0002
0000
0010
0000
0000
2003
0000
0000
0000
3000
,
0101
0000
2000
0000
0000
3000
0100
0000
,
0002
0000
0000
0000
2003
0000
0100
0000
3020
0000
0000
0030
0001
0000
1000
0000
,
0200
0000
0000
0000
0000
0300
0000
0000
,
0010
0001
0010
0001
0010
0100
1000
0100
1000
0100
0010
0100
1000
0100
0010
0100
,
0001
1000
0001
1000
0100
0010
0001
0010
0001
0010
0100
1000
0010
0001
0010
0000
,
0000
1001
0000
0000
0000
0000
0000
0000
0000
0000
0000
0000
0000
0000
0000
0000
0000
0000
0000
0000
0000
0000
0000
0000
0000
0000
0000
0001
0000
0000
0000
0000
0000
0000
0000
0000
0000
0000
0000
0000
0000
0000
0000
0000
0000
0000
0000
0000
0000
0000
0000
0000
0000
0000
0000
0000
0000
0000
0000
0000
0000
0000
0000
0000
0000
0010
0000
0000
0000
0000
0000
0000
0000
0000
0000
0000
0000
0000
0000
0000
0000
0000
0000
0000
0000
0000
0000
0000
0000
0000
0000
0000
0000
0110
0000
0000
0000
0000
0000
0000
0000
0000
0000
0000
0000
0000
0000
0000
0000
0000
0000
0000
0000
0000
0000
0000
0000
0000
0000
0000
0000
0000
0000
0000
0000
0000
0000
0000
0000
0000
0100
0000
0000
0000
0000
0000
0000
0000
0000
0000
0000
0000
0000
0000
0000
0000
0000
0000
0000
0000
0000
0000
0000
0000
0000
0000
0000
0000
0000
0000
0000
0000
0000
0000
0000
0000
0000
0001
0000
0000
0000
0000
0000
0000
0000
0000
0000
0000
0000
0000
0000
0000
0000
0000
0000
0000
0000
0000
0000
0000
0000
1100
,
0000
0000
0000
0000
0000
0000
0000
0000
0000
0000
0000
0000
0000
0000
0000
0000
0000
0000
0000
0000
0000
0000
0000
0000
0000
0000
0000
0000
0000
0000
0000
0000
0000
0000
0000
0000
0000
0000
0000
0000
0000
0000
0000
0000
0000
1000
0000
0000
0000
0000
0000
0000
0000
0000
0000
0000
0000
0000
0000
0000
0000
0000
0000
0000
0000
0000
0000
0000
0000
0000
0001
0000
0000
0000
0000
0000
0000
0000
0000
0000
0000
0000
0000
0000
0000
0000
0000
0000
0000
0000
0000
0000
0000
0000
0000
0120
0000
0000
0000
0000
0000
0000
0000
0000
0000
0000
0000
0000
0000
0000
0000
0000
0000
0000
0000
0000
0000
0000
0000
0000
0000
0000
0000
0000
0000
0000
0000
0000
0000
0000
0000
0000
0000
0000
0000
0000
0000
0000
0000
0000
0000
0000
0000
0000
0000
0000
0000
0000
0000
0000
0000
0000
0000
0000
0000
0000
0000
0000
0000
0000
0000
0000
0000
0000
0000
0000
0000
0000
0000
0000
0000
0000
0000
0000
0000
0000
0000
0000
0000
0000
0000
0000
0000
0000
0000
0000
0000
0000
0000
0000
0000
0000
,
0030
0000
0000
0000
0001
0000
0000
0000
0100
1000
0100
1000
0100
0010
0100
0010
,
0001
0010
0001
0010
0100
1000
0100
0001
0010
1000
0100
1000
0100
0010
0100
0001
,
0010
0000
0000
0000
0000
0000
0000
0000
0000
0000
0000
0000
0100
0000
0000
0000
0000
0000
0000
0000
0000
0000
0000
0000
1000
0000
0000
0000
0000
0000
0000
0000
0000
0000
0000
0000
0100
0000
0000
0000
0000
0000
0000
0000
0000
0000
0000
0000
0010
0000
0000
0000
0000
0000
0000
0000
0000
0000
0000
0000
0001
0000
0000
0000
0000
0000
0000
0000
0000
0000
0000
0000
0010
0000
0000
0000
0000
0000
0000
0000
0000
0000
0000
0000
0000
0000
0000
0000
0000
0000
0000
0000
0000
0000
0000
1100
0000
0000
0000
0000
0000
0000
0000
0000
0000
0000
0000
0000
0000
0000
0000
0000
0000
0000
0000
0000
0000
0000
0000
0000
0000
0001
0000
0000
0000
0000
0000
0000
0000
0000
0000
0000
0000
0000
0000
0000
0000
0000
0000
0000
0000
0000
0000
0000
0000
0000
0000
0000
0000
0000
0000
0000
0000
0000
0000
0010
0000
0000
0000
0000
0000
0000
0000
0000
0000
0000
0000
0000
0000
0000
0000
0000
0000
0000
0000
0000
0000
0000
0000
0000
0000
0000
0000
0000
0000
0000
0000
0000
0000
0000
0110
0000
,
0000
0000
0000
0000
0000
0000
0000
0000
0000
0000
0000
0000
0000
0000
0000
0000
0000
0000
0000
0000
0000
0000
0000
0000
0000
0000
0000
0000
0000
0000
0000
0100
0000
0000
0000
0000
0000
0000
0000
0000
0000
0000
0000
0000
0000
0000
0000
0000
0000
0000
0000
0000
0000
0000
0000
0000
0000
0000
0000
0000
0000
0000
0000
0000
0000
0001
0000
0000
0000
0000
0000
0000
0000
0000
0000
0000
0000
0000
0000
0000
0000
0000
0000
0000
0000
0000
0000
0000
0000
0000
0000
0000
0000
0000
0000
0000
0000
0000
0000
1010
0000
0000
0000
0000
0000
0000
0000
0000
0000
0000
0000
0000
0000
0000
0000
0000
0000
0000
0000
0000
0000
0000
0000
0000
0000
0000
0000
0000
0000
0000
0001
0000
0000
0000
0000
0000
0000
0000
0000
0000
0000
0000
0000
0000
0000
0000
0000
0000
0000
0000
0000
0000
0000
0000
0000
0000
0000
0000
0000
0000
0000
0000
0000
0000
0000
0000
0000
0100
0000
0000
0000
0000
0000
0000
0000
0000
0000
0000
0000
0000
0000
0000
0000
0000
0000
0000
0000
0000
0000
0000
0000
1020
,
0000
0000
0030
1010
,
0001
0010
0100
1000
0001
0010
0100
0001
,
1000
0100
0001
1000
0100
0010
0001
0010
,
1100
0000
2000
0000
,
3200
0000
0000
0000
0320
0000
0000
0030
,
0001
0010
0100
0010
1100
0010
0100
1000
0010
1000
0001
1000
0110
0001
0100
0010
,
0100
1000
0001
0010
1100
0010
0100
1000
0100
1000
0100
0010
0101
1000
0100
0001
,
1000
0100
0001
0100
0011
0100
1000
0100
0010
0001
0100
0010
1100
0010
0001
0010
,
0001
0010
0100
0010
0101
1000
0100
0001
0010
0100
1000
0100
0011
0100
0010
0001
,
1010
0100
1000
0010
0101
1000
0100
0010
0100
0010
0001
0100
1010
0100
0001
0010
,
0001
0100
0001
0010
0101
1000
0100
1000
0100
0010
0100
0010
1100
0010
0100
1000
,
0100
0010
0100
1000
0011
0100
0010
0100
1000
0100
0010
0100
1010
0001
0010
0100
,
0010
0001
1000
0100
1010
0100
0010
0100
0001
0010
0100
0010
0101
1000
0100
0010
,
1001
0000
0000
1000
0100
1000
0100
0000
0000
0001
0010
0001
,
0010
0000
0000
1000
0001
0100
0001
0001
0001
0001
0001
0001
,
0001
0000
0000
1000
0100
1000
0100
0000
0000
0010
0100
0010
,
0100
0000
0000
0001
1000
0010
1000
1000
1000
1000
1000
1000
,
0101
0010
0001
0010
1100
0001
0010
0100
1000
0010
0100
0010
1100
0010
0100
1000
,
0001
0010
0100
1000
0101
0010
0001
0010
0100
1000
0100
0010
1100
0001
0010
0001
,
0010
0100
1000
0100
0011
0100
0010
0001
0010
0001
0010
0100
1010
0100
1000
0010
,
0001
0100
0010
0001
1100
0010
0100
1000
0100
0010
1000
0100
1010
0000
0000
0000
,
0201
1000
0310
0001
,
0120
1000
0031
0100
,
2010
0001
3010
0100
,
1200
0001
0310
1000
,
0201
0000
0000
0300
0000
0000
1000
0100
0010
0001
0010
0100
1002
0000
0000
0003
0000
0000
0100
0010
0001
1000
0100
0010
,
2001
0000
0000
3000
0000
0000
0001
0010
0100
1000
0100
0010
2001
0000
0000
3000
0000
0000
1000
0001
0010
0100
1000
0001
,
0210
0000
0000
0300
0000
0000
1000
0100
0010
0001
0010
0100
1002
0000
0000
0003
0000
0000
0001
0010
0100
1000
0100
0010
,
2002
0000
0000
3003
0000
0000
0100
1000
0001
0010
0100
1000
0022
0000
0000
0000
0000
0000
0033
0000
0000
0000
0000
0000
,
1020
0000
0000
0030
0000
0000
0001
0010
0100
1000
0100
0010
2001
0000
0000
3000
0000
0000
0010
0100
1000
0001
0010
0100
,
1002
0000
0000
0003
0000
0000
1000
0100
0010
0001
0010
0100
1002
0000
0000
0003
0000
0000
0001
1000
0100
0010
0001
1000
,
0120
0000
0000
0030
0000
0000
0001
0010
0100
1000
0100
0010
2001
0000
0000
3000
0000
0000
1000
0100
0010
0001
0010
0100
,
2002
0000
0000
3003
0000
0000
0010
0001
1000
0100
0010
0001
2200
0000
0000
0000
0000
0000
3300
0000
0000
0000
0000
0000
,
1100
0010
0100
1000
0110
1000
0100
0010
0100
1000
0100
0010
0101
1000
0100
0010
,
0001
0100
0010
0001
1010
0100
0010
0001
0010
1000
0100
0010
0101
0010
0100
0010
,
0100
0010
0001
0100
1010
0001
0010
0001
0010
0100
0010
0001
0110
1000
0100
0001
,
1000
0001
1000
0010
0101
1000
0100
0010
0100
0010
0001
0010
0101
1000
0100
1000
,
0011
0100
0010
0001
1010
0100
0010
0100
1000
0100
0010
0100
0011
0100
0010
0100
,
0010
0001
0010
0100
1010
0100
0010
0100
1000
0100
0010
0001
1100
0010
0100
0010
,
0100
1000
0100
0010
0101
1000
0100
1000
0100
0010
0100
0010
0101
1000
0100
1000
,
0000
0000
0000
1000
0100
0010
0001
0000
0000
1000
0000
0000
0100
0000
0000
0010
0000
0000
0001
0000
0000
0010
0000
0000
,
1002
0000
0000
0000
0000
0000
0000
0000
0000
0000
0000
0000
0000
0000
0000
0000
0000
0000
1003
0000
0100
0000
0010
0000
0001
0000
0000
0000
0000
0000
1000
0000
0000
0000
0000
0000
0000
0000
0000
0000
0000
0000
0001
0000
0000
0010
0000
0000
,
0001
0000
0000
0000
0100
0000
0010
0000
0000
0001
1000
0100
0000
0000
0020
0000
0000
0000
0030
0000
0000
0000
0000
0000
,
0101
0000
0000
0000
0000
0000
0000
0000
0000
0010
1000
0100
0000
0000
0000
0001
0000
0000
0000
0000
0000
0001
0000
0000
,
0001
0000
0000
0010
0000
0000
1000
0000
0000
0010
0000
0000
0200
0000
0000
0300
0000
0000
2100
0000
0000
0000
3000
0000
,
2001
0000
0000
0000
0000
0000
0000
0000
0000
0000
0000
0000
0000
0000
0000
0000
0000
0000
3001
0000
0010
0000
0100
0000
1000
0000
0000
0000
0000
0000
0001
0000
0000
0000
0000
0000
0000
0000
0000
0000
0000
0000
1000
0000
0000
0100
0000
0000
,
1000
0000
0000
0000
0010
0000
0100
0000
0000
1000
0001
0010
0000
0000
0200
0000
0000
0000
0300
0000
0000
0000
0000
0000
,
1010
0000
0000
0000
0000
0000
0000
0000
0000
0100
0001
0010
0000
0000
0000
1000
0000
0000
0000
0000
0000
1000
0000
0000
,
1000
0000
0000
0000
0000
0000
0100
0000
0000
0000
0000
0000
0001
0000
0000
0000
0000
0000
0100
0000
0000
0000
0000
0000
0020
0000
0000
0030
0000
0000
0000
0000
0000
0000
0000
0000
2100
0000
0000
0000
0000
0000
0000
0000
3000
0000
0000
0000
,
1020
0000
0000
0030
0000
0000
0001
0010
0100
1000
0100
0010
2001
0000
0000
3000
0000
0000
0010
0100
1000
0001
0010
0100
,
1002
0000
0000
0003
0000
0000
1000
0100
0010
0001
0010
0100
1002
0000
0000
0003
0000
0000
0001
1000
0100
0010
0001
1000
,
0120
0000
0000
0030
0000
0000
0001
0010
0100
1000
0100
0010
2001
0000
0000
3000
0000
0000
1000
0100
0010
0001
0010
0100
,
2002
0000
0000
3003
0000
0000
0010
0001
1000
0100
0010
0001
2200
0000
0000
0000
0000
0000
3300
0000
0000
0000
0000
0000
,
0201
0000
0000
0300
0000
0000
1000
0100
0010
0001
0010
0100
1002
0000
0000
0003
0000
0000
0100
0010
0001
1000
0100
0010
,
2001
0000
0000
3000
0000
0000
0001
0010
0100
1000
0100
0010
2001
0000
0000
3000
0000
0000
1000
0001
0010
0100
1000
0001
,
0210
0000
0000
0300
0000
0000
1000
0100
0010
0001
0010
0100
1002
0000
0000
0003
0000
0000
0001
0010
0100
1000
0100
0010
,
2002
0000
0000
3003
0000
0000
0100
1000
0001
0010
0100
1000
0022
0000
0000
0000
0000
0000
0033
0000
0000
0000
0000
0000
,
1100
0010
0001
0100
0010
1000
0110
1000
0001
0010
0100
1000
,
0011
0000
0100
0000
0010
0000
1000
0000
0001
0000
0100
0000
0012
0000
0100
0000
1000
0003
0100
0000
0010
0000
1000
0000
,
0102
0000
0000
0000
0003
0000
0000
0000
0000
2000
0000
0000
0000
3000
0000
0000
,
0101
1000
0100
0010
0101
0010
0100
1000
0100
0010
0100
0010
1100
0001
0010
1000
,
0100
0001
0010
1000
0101
1000
0100
0010
1000
0100
0001
0100
1010
0001
0010
0100
,
0010
0001
0100
0010
1100
0010
0100
0001
1000
0100
0001
0010
0101
1000
0100
0001
,
0000
1010
0000
0000
0000
0000
0000
0000
0000
0000
0000
0000
0000
0000
0000
0000
0000
0000
0000
0000
0000
0000
0000
0000
0000
0000
0000
0000
0000
0100
0000
0000
0000
0000
0000
0000
0000
0000
0000
0000
0000
0000
0000
0000
0000
0000
0000
0000
0000
0000
0000
0000
0000
0000
0000
0000
0000
0000
0001
0000
0000
0000
0000
0000
0000
0000
0000
0000
0000
0000
0000
0000
0000
0000
0000
0000
0000
0000
0000
0000
0000
0000
0000
0000
0000
0000
0000
0000
0000
1010
0000
0000
0000
0000
0000
0000
0000
0000
0000
0000
0000
0000
0000
0000
0000
0000
0000
0000
0000
0000
0000
0000
0000
0000
0000
0000
0000
0000
0000
0000
0000
0000
0000
0001
0000
0000
0000
0000
0000
0000
0000
0000
0000
0000
0000
0000
0000
0000
0000
0000
0000
0000
0000
0000
0000
0000
0000
0000
0000
0000
0000
0000
0000
0000
0000
0000
0000
0000
0000
0000
0000
0100
0000
0000
0000
0000
0000
0000
0000
0000
0000
0000
0000
0000
0000
0000
0000
0000
0000
0000
0000
0000
0000
0000
0000
0000
0000
0000
0000
0000
0000
0000
,
1100
0001
0010
0100
0011
0100
0010
1000
0100
0010
0001
0100
1010
0001
0100
0010
,
0100
1000
0100
0010
0101
1000
0100
0010
0100
0010
1000
0010
1100
0001
0010
0100
,
1000
0100
0010
0001
0110
1000
0100
1000
0100
0010
0001
0010
0101
1000
0010
0100
,
0000
0000
0000
1010
0000
0000
0000
0000
0000
0000
0000
0000
0000
0000
0000
0000
0000
0000
0000
0000
0000
0000
0000
0000
0000
0000
0000
0001
0000
0000
0000
0000
0000
0000
0000
0000
0000
0000
0000
0000
0000
0000
0000
0000
0000
0000
0000
0000
0000
0000
0000
0000
0000
0000
0000
0000
0000
0100
0000
0000
0000
0000
0000
0000
0000
0000
0000
0000
0000
0000
0000
0000
0000
0000
0000
0000
0000
0000
0000
0000
0000
0000
0000
0000
0000
0000
0000
0000
0000
0000
0000
0000
0000
1000
0000
0000
0000
0000
0000
0000
0000
0000
0000
0000
0000
0000
0000
0000
0000
0000
0000
0000
0000
0000
0000
0000
0000
0000
0000
0000
0000
0000
0000
0000
0000
0000
0000
0000
0000
0000
0000
0000
0000
0000
0000
0000
0000
0000
0000
0000
0000
0000
0000
0001
0000
0000
0000
0000
0000
0000
0000
0000
0000
0000
0000
0000
0000
0000
0000
0000
0000
0000
0000
0000
0000
0000
0000
0000
0000
0000
0000
0000
0000
0000
0000
0000
0000
0000
0000
0000
0000
0000
0000
0000
0000
0000
0000
0000
0000
0000
0000
0000
,
0101
1000
0100
0010
1100
0010
0001
0010
0100
0010
0100
1000
0011
0100
0010
0100
,
1000
0100
0010
0100
1010
0001
0010
0001
1000
0100
0010
0001
1100
0010
0100
1000
,
0001
1000
0100
0010
0101
1000
0100
0010
1000
0100
0001
0010
1100
0010
0100
1000
,
0000
0011
0000
0000
0000
0000
0000
0000
0000
0000
0000
0000
0000
0000
0000
0000
0000
0000
0000
0000
0000
0000
0000
0000
0000
0000
0000
0000
0000
1000
0000
0000
0000
0000
0000
0000
0000
0000
0000
0000
0000
0000
0000
0000
0000
0000
0000
0000
0000
0000
0000
0000
0000
0000
0000
0000
0000
0000
0000
0000
0000
0001
0000
0000
0000
0000
0000
0000
0000
0000
0000
0000
0000
0000
0000
0000
0000
0000
0000
0000
0000
0000
0000
0000
0000
0000
0000
0000
0000
0000
0000
0000
0000
1010
0000
0000
0000
0000
0000
0000
0000
0000
0000
0000
0000
0000
0000
0000
0000
0000
0000
0000
0000
0000
0000
0000
0000
0000
0000
0000
0000
0000
0000
0100
0000
0000
0000
0000
0000
0000
0000
0000
0000
0000
0000
0000
0000
0000
0000
0000
0000
0000
0000
0000
0000
0000
0000
0000
0000
0000
0000
0001
0000
0000
0000
0000
0000
0000
0000
0000
0000
0000
0000
0000
0000
0000
0000
0000
0000
0000
0000
0000
0000
0000
0000
0000
0000
0000
0000
0000
0000
0000
0000
0000
0000
0000
0000
0000
0000
0000
0000
0000
,
1100
0010
1000
0010
0101
1000
0100
0010
1000
0001
0100
0001
1010
0100
0001
0010
,
0100
1000
0100
1000
0011
0100
0010
1000
0001
0100
0010
0001
1010
0100
0010
0001
,
1000
0100
0010
1000
0101
0010
0001
0010
0100
0010
0001
0010
1100
0010
0100
1000
,
0000
0011
0000
0000
0000
0000
0000
0000
0000
0000
0000
0000
0000
0000
0000
0000
0000
0000
0000
0000
0000
0000
0000
0000
0000
0000
0000
0000
0000
1000
0000
0000
0000
0000
0000
0000
0000
0000
0000
0000
0000
0000
0000
0000
0000
0000
0000
0000
0000
0000
0000
0000
0000
0000
0000
0000
0000
0000
0000
0000
0000
0000
0000
0001
0000
0000
0000
0000
0000
0000
0000
0000
0000
0000
0000
0000
0000
0000
0000
0000
0000
0000
0000
0000
0000
0000
0000
0000
0000
0000
0000
1010
0000
0000
0000
0000
0000
0000
0000
0000
0000
0000
0000
0000
0000
0000
0000
0000
0000
0000
0000
0000
0000
0000
0000
0000
0000
0000
0000
0000
0000
0000
0000
0000
0000
0000
0000
0000
0000
0000
0000
0000
0000
0000
0000
0000
0000
0000
0000
0000
0000
0000
0000
0000
0000
0000
0000
0000
0000
0000
0000
0000
0000
0000
0000
0000
0000
0000
0000
0000
0000
0000
0000
0000
0000
0000
0000
0000
0000
0000
0000
0000
0000
0000
0000
0000
0000
0000
0000
0000
0000
0000
0000
0000
0000
0000
0000
0000
0000
0000
0000
0000
,
0001
0010
0100
0010
0001
1000
0001
1000
,
0100
0010
0001
0100
0010
1000
0100
0010
,
1001
0000
2000
0000
,
3200
0000
0320
0000
,
0031
0100
0010
0100
1010
0001
0010
0100
1000
0100
1000
0010
0101
1000
0100
1000
,
0100
0010
0001
0010
0101
1000
0010
1000
0100
1000
0010
0100
0011
0100
1000
0100
,
1000
0100
0010
0100
1001
0100
0010
0001
0100
1000
0001
0100
1010
0001
0100
0010
,
0001
1000
0100
1000
0001
0010
1000
0001
0010
0001
0100
0010
1100
0010
0001
0100
,
1010
0001
0100
0010
0101
1000
0100
1000
0010
1000
0100
0001
1010
0001
0100
0010
,
1000
0001
0100
1000
0110
1000
0100
1000
0010
1000
0100
0001
1010
0100
0001
0010
,
1000
0010
0100
1000
0101
0010
1000
0100
0001
0010
0100
0010
1001
0100
0010
1000
,
0100
0010
0001
0010
0101
1000
0001
0010
0100
0001
0010
0100
1010
0100
0001
1000
,
0011
0000
0000
1000
1000
1000
1000
0000
0000
0001
0001
0001
,
0001
0000
0000
0001
0001
0100
1000
1000
1000
1000
1000
1000
,
1000
0000
0000
0010
0010
0001
0001
0000
0000
0100
0100
0010
,
0010
0000
0000
1000
1000
0100
0001
0001
0001
0001
0001
0001
,
0101
0010
0100
0001
1100
0010
0100
0001
0010
1000
0100
0010
0101
1000
0100
0010
,
1000
0010
1000
0001
0110
1000
0100
1000
0010
0001
0100
0010
1001
0100
0010
1000
,
0100
0010
0100
0010
1100
0001
0010
0100
0001
0010
1000
0010
0101
0000
0000
0000
,
0020
0000
0000
0030
0200
0000
0000
0300
,
2010
0001
0010
3100
,
0201
0000
0010
0000
1000
0000
0010
0300
,
0012
0000
0100
0000
0010
0000
1000
0003
,
1200
0000
0010
0000
1000
0000
0010
0300
,
0101
0000
0000
1100
0011
1100
0011
0000
0000
0011
1100
0011
,
1100
0000
0000
1100
1100
1001
0110
0110
0110
0110
0110
0110
,
0110
0000
0000
0110
1001
0110
1001
0000
0000
1001
0110
1001
,
0110
0000
0000
0011
0011
0110
1001
1001
1001
1001
1001
1001
,
1001
0100
0010
0100
1010
0001
0010
0001
0100
1000
0001
0100
0011
1000
0100
0010
,
0100
0010
0100
0010
1100
0001
0010
0001
1000
0100
0001
0010
0101
1000
0100
0010
,
1000
0100
0010
0001
1010
0100
0001
0010
1000
0100
0010
1000
0110
0001
0010
0000
,
2000
0000
0000
0000
3000
0020
0000
0000
0000
0000
0000
0030
,
0201
0000
0000
0000
,
0000
0000
0000
0000
0000
0000
0000
0000
0000
0000
0000
0000
0000
0000
0000
0300
,
1020
0000
0000
0000
,
0000
0000
0000
0000
0000
0000
0000
0000
0000
0000
0000
0000
0030
2101
0000
0000
,
0000
0000
0000
0000
,
0000
0000
0000
0000
0000
0000
0000
0000
0000
0000
0000
3000
0000
0201
0000
0000
,
0000
0000
0000
0000
,
0000
0000
0000
0000
0000
0000
0000
0000
0000
0000
0000
0300
0000
0000
0000
0000
,
1021
0000
0000
0000
,
0000
0000
0000
0000
,
0000
0000
0000
0000
,
0000
0000
0000
0000
,
0000
0000
0000
0000
0000
0000
0000
0030
0010
0000
0000
0000
0000
0000
0000
0000
0000
0000
0000
0000
0000
0000
0000
0000
0000
0000
0000
0000
0000
0000
0000
0000
;
