#TITLE:Undertale;
#SUBTITLE:Undertale OST\;
#ARTIST:Toby Fox;
#TITLETRANSLIT:;
#SUBTITLETRANSLIT:;
#ARTISTTRANSLIT:;
#CREDIT:owenviau1;
#BANNER:;
#BACKGROUND:;
#LYRICSPATH:;
#CDTITLE:;
#MUSIC:Undertale.mp3;
#OFFSET:-0.078;
#SAMPLESTART:21.214;
#SAMPLELENGTH:29.999;
#SELECTABLE:YES;
#BPMS:0.000=101.904,288.000=50.952,320.000=203.808,832.000=101.904;
#STOPS:;
#BGCHANGES:;
// cache tags:
#FIRSTBEAT:0.000;
#LASTBEAT:867.250;
#SONGFILENAME:Songs/owenviau1 (2016) (Pad & Index)/Undertale - [owenviau1] v1.0.6/Undertale.sm;
#HASMUSIC:1;
#HASBANNER:0;
#MUSICLENGTH:381.649;
// end cache tags

//---------------dance-single - 17.20 (17) (owenviau----------------
#NOTES:
     dance-single:
     17.20 (17) (owenviau:
     Challenge:
     17:
     1.000,0.937,0.066,0.938,1.000,2767.000,25.000,358.000,89.000,0.000:
1000
0000
0200
0000
0310
0000
0002
0000
1003
0000
0010
0100
0001
0000
2000
0000
,
0000
0000
0000
0000
0000
0000
3200
0000
0000
0000
0000
0000
0310
0000
0000
0000
0000
0000
0002
0000
0000
0000
0000
0000
1003
0000
0000
0000
0000
0000
0010
0000
0000
0200
0000
0000
0000
0000
0300
0000
0000
0000
0002
0000
0000
0000
0000
0000
,
1003
0000
0200
0000
1300
0000
0020
0000
0130
0000
0001
1000
0001
0000
0020
0000
,
0000
0000
0230
0000
1300
0000
0002
0000
0103
0000
0010
1000
0001
0000
0020
0000
,
0130
0000
2000
0000
3010
0000
0200
0000
0301
0000
1000
0100
0010
0000
0002
0000
,
0000
0000
2003
0000
3010
0000
0200
0000
0301
0000
1000
0010
0100
0000
0002
0000
,
1003
0000
0000
0000
0200
0000
0000
0000
0310
0000
0000
0000
0002
0000
0000
0000
1003
0000
0000
0000
0010
0000
0200
0000
0000
0000
0000
0300
0002
0000
0000
0000
,
0000
0000
0023
0000
0130
0000
2000
0000
3001
0000
0100
0010
1000
0000
0002
0000
,
2003
0000
3100
0000
0020
0000
0031
0000
2000
0000
3010
0100
0002
0000
2003
0000
,
3200
0000
0320
0000
0032
0000
1003
0000
0020
0000
0130
0001
2000
0000
3020
0000
,
0230
0000
0301
0000
2000
0000
3010
0000
0200
0000
0301
1000
0002
0000
0023
0000
,
0230
0000
1300
0000
0020
0000
0130
0000
0002
0000
0013
0100
2000
0000
3010
0000
,
0200
0000
0301
0000
0020
0000
0130
0000
2000
0000
3010
0100
0020
0000
2030
0000
,
3002
0000
2003
0000
3020
0000
0130
0000
0002
0000
1003
0010
0200
0000
0301
0000
,
2000
0000
3100
0000
0020
0000
0031
0000
2000
0000
3010
0100
0002
0000
2003
0000
,
3400
0000
0320
0000
0034
0000
1003
0000
0004
0000
0103
0010
0400
0000
0301
0000
,
2000
0000
3100
0000
0020
0000
0031
0000
2000
0000
3010
0100
0002
0000
2003
0000
,
3200
0000
0320
0000
0032
0000
1003
0000
0020
0000
0130
0001
2000
0000
3020
0000
,
0230
0000
0301
0000
2000
0000
3010
0000
0200
0000
0301
1000
0002
0000
0023
0000
,
0230
0000
1300
0000
0020
0000
0130
0000
0002
0000
0013
0100
2000
0000
3010
0000
,
0200
0000
0301
0000
0020
0000
0130
0000
2000
0000
3010
0100
0020
0000
2030
0000
,
3002
0000
2003
0000
3020
0000
0130
0000
0002
0000
1003
0010
0200
0000
0301
0000
,
2000
0000
3100
0000
0020
0000
0031
0000
2000
0000
3010
0100
0002
0000
2003
0000
,
3400
0000
0320
0000
0034
0000
1003
0000
0040
0000
1030
0001
0400
0000
0301
0000
,
2000
0000
3100
0000
0020
0000
0031
0000
2000
0000
3010
0100
0002
0000
2003
0000
,
3200
0000
0320
0000
0032
0000
1003
0000
0020
0000
0130
0001
2000
0000
3020
0000
,
0230
0000
0301
0000
2000
0000
3010
0000
0200
0000
0301
1000
0002
0000
0023
0000
,
0230
0000
1300
0000
0020
0000
0130
0000
0002
0000
0013
0100
2000
0000
3010
0000
,
0200
0000
0301
0000
0020
0000
0130
0000
2000
0000
3010
0100
0020
0000
2030
0000
,
3002
0000
2003
0000
3020
0000
0130
0000
0002
0000
1003
0010
0200
0000
0301
0000
,
2000
0000
3100
0000
0020
0000
0031
0000
2000
0000
3010
0100
0002
0000
2003
0000
,
3400
0000
0320
0000
0034
0000
1003
0000
0004
0000
0103
0010
0400
0000
0301
0000
,
2000
0000
3010
0000
0200
0000
0301
0000
2000
0000
3100
0010
0002
0000
2003
0000
,
3002
0000
0023
0000
0230
0000
1300
0000
0020
0000
0130
0001
2000
0000
3020
0000
,
0230
0000
0301
0000
2000
0000
3010
0000
0200
0000
0301
1000
0002
0000
0023
0000
,
0230
0000
1300
0000
0020
0000
0130
0000
0002
0000
0013
0100
2000
0000
3010
0000
,
0200
0000
0301
0000
0020
0000
0130
0000
2000
0000
3010
0100
0020
0000
2030
0000
,
3002
0000
2003
0000
3020
0000
0130
0000
0002
0000
1003
0010
0200
0000
0301
0000
,
2000
0000
3100
0000
0020
0000
0031
0000
2000
0000
3010
0100
0002
0000
2003
0000
,
3400
0000
0310
0001
1000
0000
0010
0000
0100
0000
0001
0000
1000
0000
0010
0000
,
2000
0000
3100
0000
0020
0000
0031
0000
2000
0000
3010
0100
0002
0000
2003
0000
,
3200
0000
0320
0000
0032
0000
1003
0000
0020
0000
0130
0001
2000
0000
3020
0000
,
0230
0000
0301
0000
2000
0000
3010
0000
0200
0000
0301
1000
0002
0000
0023
0000
,
0230
0000
1300
0000
0020
0000
0130
0000
0002
0000
0013
0100
2000
0000
3010
0000
,
0200
0000
0301
0000
0020
0000
0130
0000
2000
0000
3010
0100
0020
0000
2030
0000
,
3002
0000
2003
0000
3020
0000
0130
0000
0002
0000
1003
0010
0200
0000
0301
0000
,
2000
0000
3100
0000
0020
0000
0031
0000
2000
0000
3010
0100
0002
0000
2003
0000
,
3400
0000
0320
0000
0034
0000
1003
0000
0004
0000
0103
0010
0400
0000
0301
0000
,
2000
0000
3100
0000
0020
0000
0031
0000
2000
0000
3010
0100
0002
0000
2003
0000
,
3200
0000
0320
0000
0032
0000
1003
0000
0020
0000
0130
0001
2000
0000
3020
0000
,
0230
0000
0301
0000
2000
0000
3010
0000
0200
0000
0301
1000
0002
0000
0023
0000
,
0230
0000
1300
0000
0020
0000
0130
0000
0002
0000
0013
0100
2000
0000
3010
0000
,
0200
0000
0301
0000
0020
0000
0130
0000
2000
0000
3010
0100
0020
0000
2030
0000
,
3002
0000
2003
0000
3020
0000
0130
0000
0002
0000
1003
0010
0200
0000
0301
0000
,
2000
0000
3100
0000
0020
0000
0031
0000
2000
0000
3010
0100
0002
0000
2003
0000
,
3400
0000
0320
0000
0034
0000
1003
0000
0004
0000
0103
0010
0400
0000
0301
0000
,
2MMM
00MM
31MM
000M
MM2M
0000
0031
0000
2000
0000
3010
0100
0002
0000
2003
0000
,
3200
0000
0320
0000
0032
0000
1003
0000
0020
0000
0130
0001
2000
0000
3020
0000
,
M23M
M000
M3M1
00M0
2MMM
0000
3010
0000
0200
0000
0301
1000
0002
0000
0023
0000
,
0230
0000
1300
0000
0020
0000
0130
0000
0002
0000
0013
0100
2000
0000
3010
0000
,
M2MM
M0M0
M3M1
M000
MM2M
0000
0130
0000
2000
0000
3010
0100
0020
0000
2030
0000
,
3002
0000
2003
0000
3020
0000
0130
0000
0002
0000
1003
0010
0200
0000
0301
0000
,
2MMM
00MM
31MM
000M
MM2M
0000
0031
0000
2000
0000
3010
0100
0002
0000
2003
0000
,
3400
0000
0320
0000
0034
0000
1003
0000
0040
0000
1030
0001
0400
0000
0301
0000
,
2MMM
00MM
31MM
000M
MM2M
0000
0031
0000
2000
0000
3010
0100
0002
0000
2003
0000
,
3200
0000
0320
0000
0032
0000
1003
0000
0020
0000
0130
0001
2000
0000
3020
0000
,
M23M
M000
M3M1
00M0
2MMM
0000
3010
0000
0200
0000
0301
1000
0002
0000
0023
0000
,
0230
0000
1300
0000
0020
0000
0130
0000
0002
0000
0013
0100
2000
0000
3010
0000
,
M2MM
M0M0
M3M1
M000
MM2M
0000
0130
0000
2000
0000
3010
0100
0020
0000
2030
0000
,
3002
0000
2003
0000
3020
0000
0130
0000
0002
0000
1003
0010
0200
0000
0301
0000
,
2MMM
00MM
31MM
000M
MM2M
0000
0031
0000
2000
0000
3010
0100
0002
0000
2003
0000
,
3100
0000
0010
0001
1000
0000
0010
0000
0100
0000
0010
0000
1000
0000
0001
0000
,
0200
0000
0320
2030
3002
0023
0230
2300
,
3020
0000
0000
0000
0000
0000
0000
0000
0230
0000
0000
0000
0000
0000
0301
1000
0002
0000
0000
0000
0000
0000
0000
0000
0000
0000
0000
0000
0000
0000
0000
0000
,
2003
0000
3200
0320
0032
2003
3020
0230
,
0320
0000
2030
0000
3002
0023
0230
2300
,
3020
0000
0230
0302
2003
3200
2300
3020
,
0230
0000
0000
0000
0000
0000
0000
0000
0302
0000
0000
0000
0000
0000
0013
0100
2000
0000
0000
0000
0000
0000
0000
0000
0000
0000
0000
0000
3000
0000
0000
0000
,
0020
0000
0230
0302
2003
3200
0320
0032
,
0203
0000
0320
0000
2030
3002
0023
0230
,
1300
0010
0100
0001
1000
0100
1000
0010
0100
0010
1000
0001
0010
0100
1000
0010
,
0100
0001
1000
0100
1000
0010
0100
0010
1000
0001
0100
0001
0010
0100
1000
0010
,
0100
0001
1000
0100
0010
0001
0100
0010
0100
0001
1000
0010
0100
0010
1000
0001
,
0010
0001
0100
0010
1000
0001
0010
0100
1000
0010
0100
0001
0100
0010
1000
0100
,
1000
0001
0010
0001
1000
0010
0100
0010
1000
0001
0010
0001
0100
0010
1000
0001
,
0010
0100
1000
0010
0100
0001
1000
0100
1000
0010
0100
0010
1000
0001
0100
0001
,
0010
0100
1000
0010
0100
0001
1000
0100
1000
0001
0010
0001
0100
0010
1000
0001
,
0010
0100
1000
0010
0100
0001
0100
0010
1000
0100
1000
0001
0010
0001
0100
0010
,
1000
0001
0010
0100
1000
0010
1000
0001
0100
0010
0100
0001
1000
0010
0100
0010
,
1000
0001
0010
0001
0100
0010
1000
0001
0010
0100
1000
0010
0100
0001
1000
0100
,
1000
0010
0100
0010
1000
0001
0100
0001
0010
0100
1000
0010
0100
0001
1000
0100
,
0010
0001
1000
0010
0100
0010
1000
0001
0010
0001
0100
0010
1000
0001
0010
0100
,
1000
0010
0100
0001
0100
0010
1000
0001
1000
0100
0010
0001
0100
0010
0100
0001
,
1000
0010
0100
0010
1000
0001
0100
0001
0010
0100
1000
0010
0100
0001
1000
0100
,
1000
0010
0100
0001
1000
0010
0100
0001
1000
0100
1000
0010
0100
0010
1000
0001
,
0010
0100
1000
0010
0100
0001
1000
0100
1000
0010
0100
0010
1000
0001
0100
0001
,
0010
0100
1000
0010
0100
0001
1000
0100
0010
0001
0100
0010
0100
0001
1000
0010
,
0100
0010
1000
0001
0010
0001
0100
0010
1000
0001
0010
0100
1000
0010
0100
0001
,
0100
0010
1000
0100
1000
0001
0010
0001
1000
0010
0100
0010
1000
0001
0010
0001
,
0100
0010
1000
0001
0010
0100
1000
0010
0100
0001
1000
0100
1000
0010
0100
0010
,
1000
0001
0100
0001
0010
0100
1000
0010
0100
0001
1000
0100
1000
0001
0010
0001
,
0100
0010
1000
0001
0010
0100
1000
0010
0100
0001
0100
0010
1000
0100
1000
0001
,
0010
0001
0100
0010
1000
0001
0010
0100
1000
0010
1000
0001
0100
0010
0100
0001
,
1000
0010
0100
0010
1000
0001
0010
0001
0100
0010
1000
0001
0010
0100
1000
0010
,
0100
0001
1000
0100
1000
0010
0100
0010
1000
0001
0100
0001
0010
0100
1000
0010
,
0100
0001
1000
0100
0010
0001
1000
0010
0100
0010
1000
0001
0010
0001
0100
0010
,
1000
0001
0010
0100
1000
0010
0100
0001
0100
0010
1000
0001
1000
0100
0010
0001
,
0100
0010
0100
0001
1000
0010
0100
0010
1000
0001
0100
0001
0010
0100
1000
0010
,
0100
0001
1000
0100
1000
0010
0100
0001
1000
0010
0100
0001
1000
0100
1000
0010
,
0100
0010
1000
0001
0010
0100
1000
0010
0100
0001
1000
0100
1000
0010
0100
0010
,
1000
0001
0100
0001
0010
0100
1000
0010
0100
0001
1000
0100
0010
0001
0100
0010
,
0100
0001
1000
0010
0100
0010
1000
0001
0010
0001
0100
0010
1000
0001
0010
0100
,
1000
0010
0100
0001
0100
0010
1000
0100
1000
0001
0010
0001
1000
0010
0100
0010
,
1000
0001
0010
0001
0100
0010
1000
0001
0010
0100
1000
0010
0100
0001
1000
0100
,
1000
0010
0100
0010
1000
0001
0100
0001
0010
0100
1000
0010
0100
0001
1000
0100
,
1000
0001
0010
0001
0100
0010
1000
0001
0010
0100
1000
0010
0100
0001
0100
0010
,
1000
0100
1000
0001
0010
0001
0100
0010
1000
0001
0010
0100
1000
0010
1000
0001
,
0100
0010
0100
0001
1000
0010
0100
0010
1000
0001
0010
0001
0100
0010
1000
0001
,
0010
0100
1000
0010
0100
0001
1000
0100
1000
0010
0100
0010
1000
0001
0100
0001
,
0010
0100
1000
0010
0100
0001
1000
0100
0010
0001
1000
0010
0100
0010
1000
0001
,
0010
0001
0100
0010
1000
0001
0010
0100
1000
0010
0100
0001
0100
0010
1000
0001
,
1000
0100
0010
0001
0100
0010
0100
0001
1000
0010
0100
0010
1000
0001
0100
0001
,
0010
0100
1000
0010
0100
0001
1000
0100
1000
0010
0100
0001
1000
0010
0100
0001
,
1000
0100
1000
0010
0100
0010
1000
0001
0010
0100
1000
0010
0100
0001
1000
0100
,
1000
0010
0100
0010
1000
0001
0100
0001
0010
0100
1000
0010
0100
0001
1000
0100
,
0010
0001
0100
0010
0100
0001
1000
0010
0100
0010
1000
0001
0010
0001
0100
0010
,
1000
0001
0010
0100
1000
0010
0100
0001
0100
0010
1000
0100
1000
0001
0010
0001
,
1000
0010
0100
0010
1000
0001
0010
0001
0100
0010
1000
0001
0010
0100
1000
0010
,
0100
0001
1000
0100
1000
0010
0100
0010
1000
0001
0100
0001
0010
0100
1000
0010
,
0100
0001
1000
0100
1000
0001
0010
0001
0100
0010
1000
0001
0010
0100
1000
0010
,
0100
0001
0100
0010
1000
0100
1000
0001
0010
0001
0100
0010
1000
0001
0010
0100
,
1000
0010
1000
0001
0100
0010
0100
0001
1000
0010
0100
0010
1000
0001
0010
0001
,
0100
0010
1000
0001
0010
0100
1000
0010
0100
0001
1000
0100
1000
0010
0100
0010
,
1000
0001
0100
0001
0010
0100
1000
0010
0100
0001
1000
0100
0010
0001
1000
0010
,
0100
0010
1000
0001
0010
0001
0100
0010
1000
0001
0010
0100
1000
0010
0100
0001
,
0100
0010
1000
0001
1000
0100
0010
0001
0100
0010
0100
0001
1000
0010
0100
0010
,
1000
0001
0100
0001
0010
0100
1000
0010
0100
0001
1000
0100
1000
0010
0100
0001
,
1000
0010
0100
0001
1000
0100
1000
0010
0100
0010
1000
0001
0010
0100
1000
0010
,
0100
0001
1000
0100
1000
0010
0100
0010
1000
0001
0100
0001
0010
0100
1000
0010
,
0100
0001
1000
0100
0010
0001
0100
0010
0100
0001
1000
0010
0100
0010
1000
0001
,
0010
0001
0100
0010
1000
0001
0010
0100
1000
0010
0100
0001
0100
0010
1000
0100
,
1000
0001
0010
0001
1000
0010
0100
0010
1000
0001
0010
0001
0100
0010
1000
0001
,
0010
0100
1000
0010
0100
0001
1000
0100
1000
0010
0100
0010
1000
0001
0100
0001
,
0010
0100
1000
0010
0100
0001
1000
0100
1000
0001
0010
0001
0100
0010
1000
0001
,
0010
0100
1000
0010
0100
0001
0100
0010
1000
0100
1000
0001
0010
0001
0100
0010
,
1000
0001
0010
0100
1000
0010
1000
0001
0100
0010
0100
0001
1000
0010
0100
0010
,
1000
0001
0010
0001
0100
0010
1000
0001
0010
0100
1000
0010
0100
0001
1000
0100
,
1000
0010
0100
0010
1000
0001
0100
0001
0010
0100
1000
0010
0100
0001
1000
0100
,
0010
0001
1000
0010
0100
0010
1000
0001
0010
0001
0100
0010
1000
0001
0010
0100
,
1000
0010
0100
0001
0100
0010
1000
0001
1000
0100
0010
0001
0100
0010
0100
0001
,
1000
0010
0100
0010
1000
0001
0100
0001
0010
0100
1000
0010
0100
0001
1000
0100
,
1000
0010
0100
0001
1000
0010
0100
0001
1000
0100
1000
0010
0100
0010
1000
0001
,
0010
0100
1000
0010
0100
0001
1000
0100
1000
0010
0100
0010
1000
0001
0100
0001
,
0010
0100
1000
0010
0100
0001
1000
0100
0010
0001
0100
0010
0100
0001
1000
0010
,
0100
0010
1000
0001
0010
0001
0100
0010
1000
0001
0010
0100
1000
0010
0100
0001
,
0100
0010
1000
0100
1000
0001
0010
0001
1000
0010
0100
0010
1000
0001
0010
0001
,
0100
0010
1000
0001
0010
0100
1000
0010
0100
0001
1000
0100
1000
0010
0100
0010
,
1000
0001
0100
0001
0010
0100
1000
0010
0100
0001
1000
0100
1000
0001
0010
0001
,
0100
0010
1000
0001
0010
0100
1000
0010
0100
0001
0100
0010
1000
0100
1000
0001
,
0010
0001
0100
0010
1000
0001
0010
0100
1000
0010
1000
0001
0100
0010
0100
0001
,
1000
0010
0100
0010
1000
0001
0010
0001
0100
0010
1000
0001
0010
0100
1000
0010
,
0100
0001
1000
0100
1000
0010
0100
0010
1000
0001
0100
0001
0010
0100
1000
0010
,
0100
0001
1000
0100
0010
0001
1000
0010
0100
0010
1000
0001
0010
0001
0100
0010
,
1000
0001
0010
0100
1000
0010
0100
0001
0100
0010
1000
0001
1000
0100
0010
0001
,
0100
0010
0100
0001
1000
0010
0100
0010
1000
0001
0100
0001
0010
0100
1000
0010
,
0100
0001
1000
0100
1000
0010
0100
0001
1000
0010
0100
0001
1000
0100
1000
0010
,
0100
0010
1000
0001
0010
0100
1000
0010
0100
0001
1000
0100
1000
0010
0100
0010
,
1000
0001
0100
0001
0010
0100
1000
0010
0100
0001
1000
0100
0010
0001
0100
0010
,
0100
0001
1000
0010
0100
0010
1000
0001
0010
0001
0100
0010
1000
0001
0010
0100
,
1000
0010
0100
0001
1000
0010
0100
0001
1000
0100
1000
0010
0100
0010
1000
0001
,
0010
0100
1000
0010
0100
0001
1000
0100
1000
0010
0100
0010
1000
0001
0100
0001
,
0010
0100
1000
0010
0100
0001
1000
0100
0010
0001
0100
0010
0100
0001
1000
0010
,
0100
0010
1000
0001
0010
0001
0100
0010
1000
0001
0010
0100
1000
0010
0100
0001
,
0100
0010
1000
0100
1000
0001
0010
0001
1000
0010
0100
0010
1000
0001
0010
0001
,
0100
0010
1000
0001
0010
0100
1000
0010
0100
0001
1000
0100
1000
0010
0100
0010
,
1000
0001
0100
0001
0010
0100
1000
0010
0100
0001
1000
0100
1000
0001
0010
0001
,
0100
0010
1000
0001
0010
0100
1000
0010
0100
0001
0100
0010
1000
0100
1000
0001
,
0010
0001
0100
0010
1000
0001
0010
0100
1000
0010
1000
0001
0100
0010
0100
0001
,
1000
0010
0100
0010
1000
0001
0010
0001
0100
0010
1000
0001
0010
0100
1000
0010
,
0100
0001
1000
0100
1000
0010
0100
0010
1000
0001
0100
0001
0010
0100
1000
0010
,
0100
0001
1000
0100
0010
0001
1000
0010
0100
0010
1000
0001
0010
0001
0100
0010
,
1000
0001
0010
0100
1000
0010
0100
0001
0100
0010
1000
0001
1000
0100
0010
0001
,
0100
0010
0100
0001
1000
0010
0100
0010
1000
0001
0100
0001
0010
0100
1000
0010
,
0100
0001
1000
0100
1000
0010
0100
0001
1000
0010
0100
0001
1000
0100
1000
0010
,
0100
0010
1000
0001
0010
0100
1000
0010
0100
0001
1000
0100
1000
0010
0100
0010
,
1000
0001
0100
0001
0010
0100
1000
0010
0100
0001
1000
0100
0010
0001
0100
0010
,
0100
0001
1000
0010
0100
0010
1000
0001
0010
0001
0100
0010
1000
0001
0010
0100
,
1000
0010
0100
0001
0100
0010
1000
0100
1000
0001
0010
0001
1000
0010
0100
0010
,
1000
0001
0010
0001
0100
0010
1000
0001
0010
0100
1000
0010
0100
0001
1000
0100
,
1000
0010
0100
0010
1000
0001
0100
0001
0010
0100
1000
0010
0100
0001
1000
0100
,
1000
0001
0010
0001
0100
0010
1000
0001
0010
0100
1000
0010
0100
0001
0100
0010
,
1000
0100
1000
0001
0010
0001
0100
0010
1000
0001
0010
0100
1000
0010
1000
0001
,
0100
0010
0100
0001
1000
0010
0100
0010
1000
0001
0010
0001
0100
0010
1000
0001
,
0010
0100
1000
0010
0100
0001
1000
0100
1000
0010
0100
0010
1000
0001
0100
0001
,
0010
0100
1000
0010
0100
0001
1000
0100
0010
0001
1000
0010
0100
0010
1000
0001
,
0010
0001
0100
0010
1000
0001
0010
0100
1000
0010
0100
0001
0100
0010
1000
0001
,
1000
0100
0010
0001
0100
0010
0100
0001
1000
0010
0100
0010
1000
0001
0100
0001
,
0010
0100
1000
0010
0100
0001
1000
0100
1000
0010
0100
0001
1000
0010
0100
0001
,
1000
0100
1000
0010
0100
0010
1000
0001
0010
0100
1000
0010
0100
0001
1000
0100
,
1000
0010
0100
0010
1000
0001
0100
0001
0010
0100
1000
0010
0100
0001
1000
0100
,
0010
0001
0100
0010
0100
0001
1000
0010
0100
0010
1000
0001
0010
0001
0100
0010
,
1000
0001
0010
0100
1000
0010
0100
0001
0100
0010
1000
0100
1000
0001
0010
0001
,
1000
0010
0100
0010
1000
0001
0010
0001
0100
0010
1000
0001
0010
0100
1000
0010
,
0100
0001
1000
0100
1000
0010
0100
0010
1000
0001
0100
0001
0010
0100
1000
0010
,
0100
0001
1000
0100
1000
0001
0010
0001
0100
0010
1000
0001
0010
0100
1000
0010
,
0100
0001
0100
0010
1000
0100
1000
0001
0010
0001
0100
0010
1000
0001
0010
0100
,
1000
0010
1000
0001
0100
0010
0100
0001
1000
0010
0100
0010
1000
0001
0010
0001
,
0100
0010
1000
0001
0010
0100
1000
0010
0100
0001
1000
0100
1000
0001
0100
0010
,
1000
0000
0100
0000
0010
0000
0001
0000
1000
0000
0000
1000
0000
0000
0001
0000
,
0000
0000
0010
0000
0100
0000
1000
0000
0010
0000
0000
0010
0000
0000
0100
0000
,
0001
0000
1000
0000
0100
0000
1000
0000
0001
0000
0000
0001
0000
0000
0010
0000
,
0000
0000
0100
0000
1000
0000
0010
0000
0100
0000
0000
0001
0000
0000
1000
0000
,
0100
0000
1000
0000
0001
0000
0010
0000
0100
0000
0000
0100
0000
0000
1000
0000
,
0000
0000
0010
0000
0100
0000
0001
0000
1000
0000
0000
1000
0000
0000
0100
0000
,
0010
0000
0001
0000
1000
0000
0010
0000
0100
0000
0000
0100
0000
0000
0001
0000
,
0000
0000
1000
0000
0100
0000
0010
0000
0001
0000
0000
1000
0000
0000
1000
0000
,
0000
M000
0000
0000
M000
0000
0000
M000
0000
0000
M000
0000
0000
M000
0000
0000
,
0000
0000
0000
0000
,
0000
0000
0000
0000
;
