#TITLE:Bat Country;
#SUBTITLE:(spread);
#ARTIST:Avenged Sevenfold;
#TITLETRANSLIT:;
#SUBTITLETRANSLIT:;
#ARTISTTRANSLIT:;
#CREDIT:Arch0wl;
#BANNER:batcountry-bn.png;
#BACKGROUND:batcountry-bg.png;
#LYRICSPATH:;
#CDTITLE:!arch0wltitle.png;
#MUSIC:batcountry.ogg;
#OFFSET:-5.796;
#SAMPLESTART:38.436;
#SAMPLELENGTH:30.000;
#SELECTABLE:YES;
#BPMS:0.000=125.000;
#STOPS:;
#BGCHANGES:0.000=batcountry-bg.png=1.000=0=0=1,
99999=-nosongbg-=1.000=0=0=0 // don't automatically add -songbackground-
;
// cache tags:
#FIRSTBEAT:3.250;
#LASTBEAT:628.000;
#SONGFILENAME:Songs/Archmage and Dark0wl Hammer of Thor UltraHyperMegaPack/Bat Country/batcountry.sm;
#HASMUSIC:1;
#HASBANNER:1;
#MUSICLENGTH:105.000;
// end cache tags

//---------------dance-single - Arch0wl----------------
#NOTES:
     dance-single:
     Arch0wl:
     Edit:
     25:
     1.000,1.000,1.000,1.000,1.000,2289.000,1519.000,367.000,0.000,937.000:
0000
0000
0000
0000
0000
0000
0000
0000
0000
0000
0000
0000
0000
0001
1110
0000
,
0001
0000
1110
0000
0000
1001
0110
0000
1000
1000
0101
0010
0000
1000
0101
0000
,
0000
1000
0101
0000
1000
0101
0010
0000
1001
1001
0110
0110
1001
0101
1001
0101
,
1001
0000
0110
0000
0000
0001
0110
0000
1001
1001
0110
0110
0000
0001
1110
0000
,
1000
0111
1111
0000
0001
1110
1111
0000
1001
1001
0101
0101
1001
1010
1001
1010
,
1001
0000
1010
1010
1010
1010
1001
0000
1010
1010
1010
1010
1001
0110
1001
0000
,
0001
0000
0001
0000
0001
0000
0001
0000
0001
0000
0001
0000
0101
0000
0000
0000
0001
0010
0100
0000
0001
0000
0001
0010
0100
0000
0001
0000
0001
0000
0001
0000
,
1000
1000
1000
1000
0111
1011
0100
0100
1011
0111
0010
0010
0010
0010
1000
1000
,
0111
1011
0001
0001
1000
1000
1000
1000
0111
1011
0100
0100
1011
1011
1011
1011
,
0110
0000
1001
0000
0110
0000
1001
0000
0110
0110
1001
0110
0000
0001
0110
0010
,
1000
1000
1000
1000
1000
1000
1000
1000
1000
1000
1000
1000
1000
1000
1000
1000
,
1001
0000
1010
0000
1001
0000
1010
0000
0001
0001
0110
0001
0000
0001
0110
0110
,
1000
1000
1000
1000
1000
1000
1000
1000
1000
1000
1000
1000
1000
1000
1000
1000
,
1001
0000
0101
0000
1001
0100
1001
0000
1001
1001
0110
1001
0000
1001
0110
1001
,
0001
0001
0001
0001
0001
0001
0001
0001
1000
1000
1000
1000
1000
1000
1000
1000
,
1010
0001
1010
0001
1010
0001
1010
0001
1010
0001
1010
0001
1010
0001
1010
0001
,
2010
0001
0100
0010
0001
0100
0010
0001
0100
0010
0001
0100
0010
0001
0100
0010
0001
0100
0010
0001
0100
0010
0001
3100
,
1100
0000
0000
0000
0000
0000
0010
0000
0001
0000
0010
0000
1101
0000
0000
0000
0000
0000
0010
0000
0001
0000
0010
0000
1101
0000
0000
0000
0000
0000
1001
0000
0000
1001
0000
0000
0110
0000
0000
0110
0000
0000
0011
0000
0000
0011
0000
0000
,
1011
0000
0100
0000
0100
0000
1011
0000
0100
0000
1001
0000
0010
1001
0010
0000
,
1001
0000
0100
1001
0100
0000
1010
0000
1001
0000
1010
0000
0001
0000
1010
0000
,
0202
1010
1313
0202
1010
1313
1011
1110
,
1000
0000
0000
0000
0000
0000
0010
0000
0001
0000
0010
0000
1101
0000
0000
0000
0000
0000
0010
0000
0001
0000
0010
0000
1101
0000
0000
0000
0000
0000
1001
0000
0000
1001
0000
0000
0110
0000
0000
0110
0000
0000
0011
0000
0000
0011
0000
0000
,
1011
0000
0100
0000
0100
0000
1011
0000
0100
0000
1001
0000
0010
1001
0010
0000
,
1001
0000
0100
1001
0100
0000
1010
0000
1001
0000
1010
0000
1001
0000
1010
0000
,
0220
1001
1331
0220
1001
1331
1011
1110
,
1001
0001
0101
0001
1001
0001
0101
0001
1010
0010
0210
0010
0310
0010
1010
0010
,
1111
0011
0111
0011
1111
0011
0111
0011
1111
0011
2211
0011
3311
0011
0111
0011
,
1001
1001
1001
1001
1001
1001
1001
1001
0110
0110
0110
0110
0110
0110
0110
0110
,
1011
1011
1011
1011
1011
1011
1011
1011
1011
1011
1011
1011
1011
1011
1011
1011
,
1011
0000
0110
0000
1000
0100
0111
0000
1000
0100
0111
1110
0000
1001
1111
0000
,
1111
1111
1111
1111
1111
1111
1111
1111
1111
1111
1111
1111
1111
1111
1111
1111
,
1010
1000
1001
1000
1010
1000
1001
1000
0110
0100
0102
0100
0103
0100
0100
0100
,
1111
1110
1111
1110
1111
1110
1111
1110
1111
1111
1110
1111
1111
1111
1111
1111
,
1112
0010
0010
0010
0023
0001
0001
0001
0230
1000
1000
1000
2300
0100
0100
0100
,
3100
0100
0111
1000
1000
1000
0111
1000
0122
0100
0100
0100
0100
0100
0100
0133
,
1101
1110
1101
1110
1101
1110
1101
1110
1101
1110
1101
1110
1101
1110
1101
1110
,
1110
0010
0001
1110
0010
0001
1110
0010
0001
1110
0010
0001
1110
0010
0001
1110
0010
0001
1110
0010
0001
1110
0010
0001
,
1100
0000
0000
0000
0000
0000
0010
0000
0001
0000
0010
0000
1101
0000
0000
0000
0000
0000
0010
0000
0001
0000
0010
0000
1101
0000
0000
0000
0000
0000
1001
0000
0000
1001
0000
0000
0110
0000
0000
0110
0000
0000
0011
0000
0000
0011
0000
0000
,
1011
0000
0100
0000
0100
0000
1011
0000
0100
0000
1001
0000
0010
1001
0010
0000
,
1001
0000
0100
1001
0100
0000
1101
0000
1110
0000
1101
0000
1110
0000
1101
0000
,
2002
0000
0110
0000
3113
0000
2002
0000
0110
0000
3113
0000
1001
0001
0110
0010
,
1100
0000
0000
0000
0000
0000
0010
0000
0001
0000
0010
0000
1101
0000
0000
0000
0000
0000
0010
0000
0001
0000
0010
0000
1101
0000
0000
0000
0000
0000
1001
0000
0000
1001
0000
0000
0110
0000
0000
0110
0000
0000
0011
0000
0000
0011
0000
0000
,
1011
0000
0100
0000
0100
0000
1011
0000
0100
0000
1001
0000
0010
1001
0010
0000
,
1001
0000
0100
1001
0100
0000
1101
0000
0111
0000
1101
0000
0111
0000
1101
0000
,
0202
0000
1010
0000
1313
0000
0202
0000
1010
0010
1313
1000
1001
1001
1001
1001
,
1102
1100
0110
1100
1113
0000
0001
0010
,
2011
0011
0110
0011
3111
0000
1002
0113
,
2012
3113
1011
0111
1001
0000
1101
1011
,
1111
0111
0111
1110
1111
0110
1101
0110
,
1110
0110
1110
0110
0111
0110
0111
0110
,
1011
0110
1101
0110
0112
1100
0110
1100
,
1113
1101
0110
1001
1111
0000
0101
1010
,
1011
1011
0111
1011
1111
0011
1111
0110
,
1011
1011
0110
1011
1111
0110
1110
0111
,
2110
3211
1321
1132
1123
0101
0131
1110
,
1011
1011
0110
1011
1111
0110
1011
1011
,
0111
0111
0111
0111
0111
0111
2110
3111
,
1201
1311
2110
3111
1201
1311
1210
1311
,
1120
1131
2011
3111
1012
1113
0211
1311
,
1111
1111
1111
1111
1111
1111
1111
1111
,
1111
0010
1111
0010
1111
0010
1111
0010
1111
0010
1111
0010
1111
0010
1111
0010
,
1111
0000
0011
0011
0011
0011
2200
0000
3311
0011
0011
0011
0011
0011
2200
0000
,
3311
0000
0011
0000
0011
0000
0011
0000
0011
0000
0011
0000
2200
0000
0000
0000
3301
0001
0010
0000
0001
0000
0001
0001
0010
0000
0001
0000
0001
0000
0001
0000
,
1010
1010
1010
1010
1010
1010
1010
1010
1011
1011
0110
0110
0110
0110
0110
0110
,
1110
1110
1010
1010
1010
1010
1010
1010
1011
1011
0110
0110
0110
0110
0110
0110
,
1111
0000
0000
0000
1010
0000
1010
0000
1010
0000
1010
0000
0101
0000
0000
0000
0010
0010
0001
0000
0010
0000
0010
0010
0001
0000
0011
0000
0011
0000
0000
0000
,
0010
0010
0001
0000
0010
0000
0010
0010
0001
0000
0011
0000
0011
0000
0000
0000
1010
1010
0101
0000
0010
0000
1010
1010
0101
0000
1001
0000
1001
0000
1001
0000
,
1010
0101
1010
0101
1010
0101
1010
0101
1111
1111
1001
0110
1001
0110
1001
0110
,
1111
1111
1010
0101
1010
0101
1010
0101
1111
1111
1010
0101
1010
0101
1010
0101
,
1022
0003
2231
3000
1322
0003
2231
3000
1322
0003
2231
3000
1322
0003
2231
3000
,
1322
0000
0000
0003
0000
0000
2231
0000
0000
3000
0000
0000
3322
0000
0000
0003
0000
0000
1031
0000
1001
0000
0111
0000
0111
0000
0111
0000
1011
0000
1011
0000
1011
0000
0111
0000
0111
0000
0222
0000
0000
0000
0000
0000
0000
0000
0000
0000
,
1333
0000
0000
0110
1010
0101
1001
0110
1010
0101
0000
0000
1001
0101
1010
0110
1001
0101
1010
0110
1001
0101
0000
0000
,
1010
0110
1001
0101
1010
0110
1001
0101
1010
0200
0000
0000
0000
0000
0000
0000
0000
0000
0000
0000
0000
0000
0000
0000
,
1312
1000
1100
1000
1010
1010
1123
1000
1132
1100
0110
1100
0100
1100
0110
0100
,
1113
1110
1101
1110
1100
1110
1101
1100
1120
1132
1103
1122
1133
1122
1133
1100
,
1102
1000
1123
1000
1132
1010
1123
1100
1132
0110
2113
0100
0101
0110
0100
3100
,
1121
0000
0000
1101
0000
0000
1101
0000
0000
1101
0000
0000
1100
0000
0000
1131
0000
0000
1111
0000
0000
1100
0000
0000
1111
0000
0010
1101
0010
0000
1111
0000
0000
1102
0010
0000
1123
0000
0000
1102
0000
0000
1103
0000
0000
1130
0000
0000
,
1002
1000
1000
1000
1000
1023
1230
1320
0132
0100
0100
0100
0100
0103
0100
0100
,
1111
0000
0000
1100
0011
0000
1100
0000
0011
1100
0000
0000
1111
0000
0000
1100
0011
0000
1100
0000
0011
1100
0000
0000
1102
0000
0000
1100
0000
0000
1123
0000
0000
1100
0000
0000
1100
0000
0000
1100
0000
0000
1100
0000
0000
1130
0000
0000
,
0012
0000
0123
0000
2130
0000
3110
0110
0011
0011
0110
0110
1100
1100
0220
1001
,
1001
1001
1001
1001
1001
1001
1001
1331
1111
1111
1001
1221
1331
1221
1331
1001
,
2110
0111
0111
3111
2110
0111
0111
3111
2110
0111
0111
3111
2110
0111
0111
3111
,
1012
2113
3112
1213
1312
2113
3112
1213
2322
0100
0100
3133
2202
0010
0010
3313
,
2100
0010
0001
0100
0010
3001
2100
0010
0001
0100
0010
3001
1200
0010
0001
1000
0010
0301
1200
0010
0001
1000
0010
0301
,
0110
0110
0101
0110
0110
0101
0110
0110
0101
0110
0110
0101
1010
1010
1001
1010
1010
1001
1010
1010
1001
1010
1010
1001
,
2100
3210
0312
0213
2301
3021
1032
2103
3012
0123
2130
3120
1032
1203
2301
3021
,
2130
3210
0312
0213
2301
3021
1032
2103
3012
0123
2130
3120
1032
1203
2301
3021
,
1131
1101
1110
1110
2111
0001
3112
1000
1123
0100
1231
1000
2311
0001
3200
0000
,
1312
1010
1010
1010
2203
0000
0000
0000
3322
1030
0223
0031
2320
0031
3022
1030
,
1013
1010
1010
1010
0202
0000
0313
0000
0202
0310
2203
0310
3202
0310
2203
0310
,
3112
0110
0110
0113
1201
0000
0000
0300
1102
1100
1100
1103
2022
0000
0000
3030
,
2113
0110
0110
3110
0222
1000
2300
0100
3233
0010
0320
0001
0032
1000
2003
0000
,
3112
0110
0110
0110
2200
0000
0003
0000
3320
0001
0032
0010
0023
0100
0230
1000
,
2311
0011
0011
0011
3220
0000
0000
0000
1332
0010
1023
0100
0231
0010
1320
0100
,
2131
0101
0101
3101
2022
0000
0000
0033
3211
0011
0011
0311
2202
0000
0000
3303
,
1000
0010
0100
0001
0000
0000
0000
0000
0000
0000
0000
0000
0000
0000
0000
0000
0001
0100
0010
1000
0000
0000
0000
0000
0000
0000
0000
0000
0001
0000
0100
0000
1011
0000
0000
0000
0000
0000
0000
0000
1111
0000
0000
0000
0000
0000
0000
0000
1111
0000
0000
0000
0000
0000
0000
0000
0000
0000
0000
0000
0000
0000
0000
0000
,
1000
0010
0100
0001
0000
0000
0000
0000
0000
0000
0000
0000
0000
0000
0000
0000
0001
0100
0010
1000
0000
0000
0000
0000
0000
0000
0000
0000
0001
0000
0100
0000
1011
0000
0000
0000
0000
0000
0000
0000
1111
0000
0000
0000
0000
0000
0000
0000
1111
0000
0000
0000
0000
0000
0000
0000
0000
0000
0000
0000
0000
0000
0000
0000
,
1102
0000
0110
0000
0110
0000
0110
0000
1123
0000
0101
0000
0101
0000
0101
0000
1231
0000
0011
0000
0011
0000
0011
0000
2311
0000
0110
0000
0110
0000
0110
0001
,
3121
1001
1001
1001
1231
1010
1010
1010
1312
1110
1110
1110
1123
1101
1101
1131
,
1001
0001
0101
0001
0001
1001
0101
0001
1010
1010
0110
1010
0010
1010
0110
0010
,
1101
1011
1101
1011
1101
1011
1101
1011
1101
1011
1101
1011
1101
1011
1101
1011
,
1001
1000
1010
1000
1000
1001
1010
1000
0101
0101
0110
0101
0100
0101
0110
0100
,
0111
1110
0111
1110
0111
1110
0111
1110
0111
1110
0111
1110
0111
1110
0111
1110
,
1101
1101
1110
1110
1110
1101
1110
1110
1011
1011
0111
1011
1011
0111
1011
1011
,
1021
1231
1321
1231
1321
1231
1321
1231
1321
1231
1321
1231
1321
1231
1321
1131
,
1101
1102
1110
1110
1123
1132
1110
1213
1011
2311
0111
0111
3211
2311
0111
3111
,
1111
1111
1111
1111
1111
1111
1111
1111
1111
1111
1111
1111
1111
1111
1111
1111
1111
1111
2112
0000
0000
3223
0000
0000
,
1330
0000
0000
0000
0100
0000
0000
0000
0010
0001
0010
0001
0010
0001
0010
0001
1000
0100
1000
0100
1000
0100
1000
0100
0010
0001
0010
0001
0010
0001
0010
0001
,
1000
0010
1000
0010
1000
0010
1000
0010
0100
0001
0100
0001
1000
0010
1000
0010
1000
0010
1000
0010
0100
0001
0100
1000
0100
0001
0100
1000
0010
0001
0010
1000
,
0010
0001
0010
0100
1000
0010
0001
0010
1000
0010
0001
0010
1000
0010
0001
0010
1101
0000
0000
0000
0101
0000
0101
0000
0101
0000
0101
0000
1011
0000
0000
0000
,
0000
0000
0000
0000
0000
0000
0000
0000
1011
1011
1011
1011
1011
1011
1110
0000
,
1011
0000
0000
0000
0100
0000
0000
0000
0001
1000
0010
0100
0001
1000
0010
0100
0001
0100
0010
1000
0001
0100
0010
1000
0001
1000
0010
0100
0001
1000
0010
0100
,
0001
0100
0010
1000
0001
0100
0010
1000
0001
1000
0010
0100
0001
0100
0010
1000
0001
0100
0010
1000
0001
0100
0010
1000
0001
1000
0010
0100
0001
1000
0010
0100
,
0011
0100
0011
0100
0011
0100
0011
0100
0011
0100
0011
0100
0011
0100
0011
0100
1001
0010
1001
0010
1001
0010
1001
0010
1001
0010
1001
0010
1001
0010
1001
0010
,
1100
0001
1100
0001
1100
0001
1100
0001
1100
0001
1100
0001
1100
0001
1100
0001
1100
0001
1100
0001
1100
0001
1100
0001
1000
0001
1000
0001
1000
0001
1000
0001
,
1010
0101
1010
0101
1010
0101
1010
0101
1010
0101
1010
0101
1010
0101
1010
0101
1010
0101
1010
0101
1010
0101
1010
0101
1010
0101
1010
0101
1010
0101
1010
0101
,
1010
1010
0101
1010
0101
1010
1010
1010
1111
1111
1111
1111
1111
1111
1111
1111
,
2201
0000
0000
0000
0000
0000
3310
0000
0001
0000
0010
0000
2201
0000
0000
0000
0000
0000
3310
0000
0001
0000
0010
0000
2201
0000
0000
3300
0000
0000
1001
0000
0000
1001
0000
0000
0110
0000
0000
0110
0000
0000
0011
0000
0000
0011
0000
0000
,
2022
0000
3133
0000
0100
0000
2022
0000
3133
0000
2002
0000
3013
2002
0010
3003
,
2002
0000
3103
2002
0100
3003
1010
0000
1001
0000
1010
0000
0001
0000
1010
0000
,
0202
0000
1010
0000
1313
0000
0202
0000
1010
0000
1313
0000
1011
0001
1110
0010
,
2201
0000
0000
0000
0000
0000
3310
0000
0001
0000
0010
0000
2201
0000
0000
0000
0000
0000
3310
0000
0001
0000
0010
0000
2201
0000
0000
3300
0000
0000
1001
0000
0000
1001
0000
0000
0110
0000
0000
0110
0000
0000
0011
0000
0000
0011
0000
0000
,
2022
0000
3133
0000
0100
0000
2022
0000
3133
0000
2002
0000
3013
2002
0010
3003
,
2002
0000
3103
2002
0100
3003
1010
0000
1001
0000
1010
0000
1001
0000
1010
0000
,
0220
0000
1001
0000
1331
0000
0220
0000
1001
0001
1331
1000
1011
0010
1110
1100
,
0121
0000
1000
0000
0101
0000
1000
0000
1001
0000
0100
0000
0101
0000
1000
0000
1131
0000
0000
0000
1000
0001
1000
0001
0110
0000
0000
0000
1000
0000
0000
0000
,
1210
0000
0001
0000
1010
0000
0001
0000
1001
0000
0010
0000
1010
0000
0001
0000
1311
0000
0000
0000
1000
0001
1000
0001
0120
0000
0100
0000
1031
0000
0000
0000
,
1220
0000
1000
0000
1331
0000
0000
0000
1110
0000
0001
0000
1011
0000
0100
0000
0110
0000
0000
0000
0010
0100
0001
1000
0111
0000
0001
0000
1110
0000
1000
0000
,
1111
0100
1011
0100
1011
0100
1101
0010
1111
0010
1011
0010
0111
0100
1011
0010
,
1101
0100
1001
1000
1101
0100
1001
1000
1011
0010
1001
1000
1011
0010
1001
1000
,
1110
0100
1001
1000
0111
0010
1001
1000
1021
1000
0101
0100
1001
1000
0101
0100
,
1131
0000
1000
0000
0111
0000
0001
0000
1001
0000
1000
0000
0110
0000
1001
0000
1111
0000
0000
0000
0010
1000
0010
1000
0011
0000
0000
0000
1100
0000
0000
0000
,
1110
0001
1110
0001
1011
0100
1110
0001
1111
0001
1010
0001
1111
0010
1001
0100
,
0111
1000
0111
1000
1001
0010
0111
1000
1111
0100
1001
0010
1011
0010
1101
0100
,
1021
1000
2131
0001
3112
0100
1213
0001
1312
0010
1100
0010
1103
0010
1011
1000
,
0111
1000
0111
1000
1001
0010
0111
1000
1111
0100
1001
0010
0111
1000
0111
1000
,
1101
0010
1101
0010
1101
0010
1101
0010
1101
0010
1101
0010
1021
1000
1131
0000
,
2110
0010
3111
0000
1021
1000
1131
0000
2110
0010
3111
0000
2011
0010
3111
0000
,
1012
1000
1113
0000
0121
0001
1131
0000
0211
0001
1311
0000
2101
0001
3111
0000
,
1111
0010
1111
0010
1111
0010
1111
0010
1111
0010
1111
0010
1111
0010
1111
0010
,
1111
0110
1111
0110
1111
0110
1111
0110
1111
0111
1111
0111
1111
1111
1111
1111
,
0111
1100
0111
1100
1001
0011
0111
1001
1111
1100
1001
1010
1011
0011
1101
0101
,
1021
1001
2131
0101
3112
0110
2113
0110
3121
0101
1101
0101
1230
0311
1021
0131
,
0111
1100
0111
1100
1001
0011
0111
1001
1111
1100
1001
0011
0111
1010
0111
1100
,
1102
0113
1201
1301
2101
3110
1201
1301
1102
0113
1201
1301
1021
1000
1131
1000
,
2110
0010
3111
0010
1021
1000
1131
1000
2110
0010
3111
0010
2011
0010
3111
1000
,
1012
1000
1113
1000
0121
0001
1131
0001
0211
0001
1311
0001
2101
0001
3111
0001
,
1011
1100
1011
1100
1011
1100
1011
1100
1011
1100
1011
1100
1011
1100
1011
1100
,
1011
0000
0100
0100
0100
0100
1011
0100
1011
0100
1010
1010
0101
0101
0011
0011
,
1001
0001
1010
0000
0101
0000
0110
0000
1001
1000
0101
0000
1010
0000
0110
0000
1001
0001
1010
0000
0101
0000
0110
0000
1001
1000
0101
0000
1010
0000
0110
0000
,
1012
0010
1103
0000
0011
0000
0101
0000
0211
0001
1310
0000
0101
0000
1100
0000
2011
0010
3101
0000
1010
0000
1100
0000
0211
0001
1310
0000
0101
0000
1100
0000
,
1101
0001
1010
0000
0101
0000
0110
0000
1011
1000
0101
0000
1010
0000
0110
0000
1101
0001
1010
0000
0101
0000
0110
0000
1011
1000
0101
0000
1010
0000
0110
0000
,
1012
0010
1103
0000
0011
0000
0101
0000
0121
0001
1130
0000
0011
0000
1010
0000
1012
0010
1103
0000
0011
0000
0101
0000
1011
0011
1100
0000
0011
0000
1100
0000
,
1101
1100
0011
0000
1100
0000
0011
0000
1011
1010
0101
0000
1010
0000
0101
0000
1101
0101
1010
0000
0101
0000
1010
0000
1111
0110
1001
0000
0110
0000
1001
0000
,
1111
1001
0110
0000
1001
0000
0110
0000
1011
1011
0111
0100
1011
0000
1110
0000
1101
1101
1110
0010
1101
0000
0111
0000
1101
1100
1011
0011
1101
1100
1011
0011
,
2222
0000
0000
0000
,
0000
0000
0000
0000
,
3333
0000
0000
0000
;
