#TITLE:Welcome To Rainbow;
#SUBTITLE:;
#ARTIST:Basshunter;
#TITLETRANSLIT:;
#SUBTITLETRANSLIT:;
#ARTISTTRANSLIT:;
#CREDIT:DeSire;
#BANNER:Welcome To Rainbow-bn.png;
#BACKGROUND:Welcome To Rainbow-bg.PNG;
#LYRICSPATH:;
#CDTITLE:;
#MUSIC:Welcome to Rainbow (Hardstyle Remix).ogg;
#OFFSET:-0.030;
#SAMPLESTART:74.980;
#SAMPLELENGTH:15.000;
#SELECTABLE:YES;
#BPMS:0.000=150.000;
#STOPS:;
#BGCHANGES:;
// cache tags:
#FIRSTBEAT:0.000;
#LASTBEAT:817.500;
#SONGFILENAME:Songs/lvsb tourney pack/Welcome To Rainbow-ITGREADY/Welcome to Rainbow (Hardstyle Remix).sm;
#HASMUSIC:1;
#HASBANNER:0;
#MUSICLENGTH:105.000;
// end cache tags

//---------------dance-double - Blank----------------
#NOTES:
     dance-double:
     Blank:
     Challenge:
     12:
     0.135,0.229,0.000,0.038,0.000,95.000,0.000,4.000,0.000,0.000:




















00000000
00000000
00000000
00000000
,
00000000
00000000
00000000
00000000
,
00000000
00000000
00000000
00000000
,
00000000
00000000
00000000
00000000
,
00000000
00000000
00000000
00000000
,
00000000
00000000
00000000
00000000
,
00000000
00000000
00000000
00000000
,
00000000
00000000
00000000
00000000
,
00000000
00000000
00000000
00000000
,
00000000
00000000
00000000
00000000
,
00000000
00000000
00000000
00000000
,
00000000
00000000
00000000
00000000
,
00000000
00000000
00000000
00000000
,
00000000
00000000
00000000
00000000
,
00000000
00000000
00000000
00000000
,
10000000
00010000
10000000
00010000
10000000
00010000
10000000
00010000
,
10000000
00010000
10000000
00010000
10000000
00010000
20000000
30010000
,
10000000
00010000
10000000
00010000
10000000
00010000
10000000
00010000
,
01000000
00001000
01000000
00001000
01000000
00001000
01000000
00001000
,
01000000
00001000
01000000
00001000
01000000
00001000
02000000
03001000
,
01000000
00001000
01000000
00001000
01000000
00001000
01000000
00001000
,
01000000
00001000
01000000
00001000
01000000
00001000
01000000
00001000
,
00100000
00000100
00100000
00000100
00100000
00000100
00200000
00300100
,
00100000
00000100
00100000
00000100
00100000
00000100
00100000
00000100
,
00100000
00000100
00100000
00000100
00100000
00000100
00100000
00000100
,
00100000
00000100
00100000
00000100
00100000
00000100
00200000
00300100
,
00010000
00000010
00010000
00000010
00010000
00000010
00010000
00000000
;

//---------------dance-single - Z Matrix----------------
#NOTES:
     dance-single:
     Z Matrix:
     Challenge:
     12:
     1.000,1.000,1.000,0.552,1.000,2007.000,124.000,58.000,225.000,58.000:


0M00
0000
0000
0000
0000
0000
0000
0000
0000
0000
0000
0000
40M0
0000
0000
0000
0000
0000
0M00
0000
0000
0000
0000
0000
00M4
0000
0000
0000
0M00
0000
0000
0000
00M0
0000
0000
0000
0M00
0000
0000
00M0
0M00
0000
00M0
0000
0M00
0000
00M0
0000
,
0M00
00M0
0M00
00M0
0M00
00M0
0M00
00M0
0M00
00M0
0M00
00M0
0M00
00M0
0M00
00M0
0M00
00M0
0M00
00M0
0000
0M00
0MM0
0000
,
0M00
0000
0000
00M0
0000
0000
0M00
0000
0000
00M0
0000
0000
0M00
0000
0000
00M0
0000
0000
0000
0000
0M00
0000
0000
0000
00M0
0000
0000
0000
0M00
0000
0000
0000
00M0
0000
0000
0000
0M00
0000
0000
0000
00M0
0000
0000
0000
0000
0000
0000
0000
,
0M00
00M0
0M00
00M0
0M00
00M0
0M00
0000
,
00M0
0000
0M00
0000
00M0
3003
0000
0000
,
0000
0000
0000
0000
,
0000
0000
0000
0000
0000
0000
1000
0001
,
0100
0001
0010
0001
0100
0001
1000
0010
,
0100
0010
1000
0100
0010
1000
0010
0001
,
0010
0001
0100
0001
0100
0001
1000
0001
,
0100
0001
1010
1001
0011
1001
1000
0001
,
0100
0010
1000
0100
0010
0001
1000
0001
,
0100
0010
1000
0100
0010
0001
0010
0001
,
0100
0001
1000
0010
1000
0100
0010
0001
,
0010
0000
0001
0000
1000
0001
1000
0000
0001
0000
0100
0000
0001
0000
0100
0000
,
0001
0011
0001
0100
0010
1010
1000
0010
,
0100
0110
0010
1000
0100
1100
0010
0001
,
0010
0011
0001
0100
0001
0101
0001
1000
,
0001
0042
0000
0000
0000
0033
0001
0010
,
0001
0101
0001
0100
0010
1010
1000
0010
,
0100
0110
0010
1000
0010
1010
0010
0100
,
0010
1100
1000
0100
0010
0001
0010
0001
,
0010
0000
0001
0000
0100
0001
1000
0010
0100
0000
0000
0000
1000
0M00
000M
M0M0
,
0100
M000
0000
000M
0M10
M000
0000
MM00
0001
0000
00M0
0000
1000
0000
0100
0000
,
0010
0000
0001
0000
1000
0000
0001
0000
0024
0000
0000
0000
0000
0030
0103
0000
,
0010
1000
0100
0010
0001
1000
0001
0100
,
0001
0100
0001
0001
0402
0000
0003
0301
,
1000
0010
0010
0000
0100
0000
0001
0010
,
0001
0000
1000
0000
0001
0000
0100
0000
4020
0000
0000
0000
3000
0030
0100
0000
,
0010
1000
0100
0010
0001
1000
0001
0100
,
0010
0000
1000
0000
0100
0000
1000
0000
2400
0000
0000
0000
0300
3000
0001
0000
,
1000
0001
1000
0001
1000
0001
1000
0000
,
MMMM
0000
0000
0000
0100
0000
0010
0000
1000
0000
0010
0000
0100
0010
1000
0010
,
1000
0000
0100
0000
1000
0000
0001
0000
0010
0001
0010
0001
0010
0000
0001
0000
,
0100
0000
0001
0000
1000
0001
1000
0001
1000
0000
0010
0000
0100
0010
1000
0010
,
2000
0000
0000
0000
0000
3000
0100
0000
0010
0001
0010
0001
0010
0000
0100
0000
,
0010
0000
0001
0000
1000
0000
0001
0000
0100
0000
0001
0000
1000
0001
1000
0001
,
2000
0000
0000
0000
0000
3000
0010
0000
0100
0010
0100
0010
0100
0000
0010
0000
,
1000
0000
0100
0000
0010
0001
0010
0001
0010
0000
0001
0000
1000
0001
1000
0001
,
1000
0000
0000
0000
0001
0000
0100
0000
0010
0000
1000
0000
0010
0100
0010
1000
,
0010
1000
0000
0100
1000
0000
0000
0100
0000
0000
0000
0000
0010
0000
0000
0001
,
0000
0000
0000
0000
0100
0000
0000
0000
0001
0000
0000
0000
1000
0001
1000
0001
,
0100
0010
0100
0000
0010
1000
0010
1000
0100
1000
0100
0000
1000
0001
1000
0001
,
0100
0001
0100
0000
0001
0100
0010
0100
0010
0100
0010
0000
1000
0010
1000
0100
,
1000
0100
0010
0000
0001
0010
0100
1000
0001
0100
0010
0000
0100
0001
1000
0010
,
0100
0001
1000
0000
0001
1000
0010
0100
0001
1000
0001
0000
1000
0100
1000
0001
,
1000
0001
1000
0000
0001
0100
0001
0100
0010
0100
0010
0000
1000
0010
1000
0010
,
1000
0010
1000
0000
0100
1000
0001
0010
0100
1000
0001
0000
0100
0001
0100
0010
,
1000
0001
1000
0000
0001
0100
0001
1000
0010
1000
0000
0000
0001
1000
0001
0100
,
0010
1000
0001
0000
1000
0100
0010
0001
0010
0100
1000
0000
0010
0100
0010
1000
,
0100
1000
0001
0000
1000
0001
1000
0001
1000
0001
1000
0000
0001
0100
0001
0100
,
0001
0100
0001
0000
0010
1000
0010
1000
0010
1000
0010
0000
1000
0100
1000
0100
,
1000
0100
1000
0000
0001
0010
0100
1000
0001
0100
0001
0000
0010
0001
0010
0001
,
0010
0001
0010
0000
0001
1000
0100
0010
0001
1000
0001
0000
0100
0001
0100
0010
,
1000
0001
1000
0000
0001
1000
0100
1000
0001
0010
0001
0000
0001
0100
1000
0100
,
0010
1000
0010
0000
1000
0100
0010
0001
0010
0001
0010
0000
0000
0000
0001
0000
,
1000
0000
0001
0000
0100
0000
0001
0100
0010
1000
0010
0000
1000
0010
1000
0010
,
0100
0010
1000
0000
0100
1000
0001
1000
0100
0010
0001
0000
1000
0001
0100
0010
,
0100
0001
1000
0000
0010
1000
0001
0100
0001
0100
0001
0000
1000
0001
0100
0010
,
0100
0001
1000
0000
0001
1000
0100
1000
0001
1000
0001
0000
0010
0001
1000
0001
,
0100
0010
0100
0000
0010
1000
0100
1000
0001
0010
0001
0000
1000
0001
0100
0001
,
0010
0001
0010
0000
0001
0010
0001
0010
0100
1000
0001
0000
1000
0001
0100
0010
,
1000
0001
1000
0000
0001
1000
0100
1000
0001
0010
0100
0000
0010
0001
0010
0100
,
1000
0001
1000
0000
0001
1000
0001
0100
0001
0100
0001
0000
0000
0000
0100
0000
,
0010
0000
1000
0000
0100
0000
0010
0001
0010
0100
1000
0000
0001
0100
0010
1000
,
0100
1000
0100
1000
0001
0010
0100
1000
0001
0100
0010
1000
0100
1000
0010
1000
,
0100
1000
0100
0010
0001
0010
0100
1000
0001
0100
0001
1000
0001
1000
0001
0100
,
0001
0100
0001
0100
0010
0100
0010
0100
0010
1000
0010
1000
0100
1000
0100
1000
,
0100
1000
0010
1000
0100
1000
0001
0010
0100
1000
0001
0010
0100
1000
0001
0100
,
0010
1000
0100
0010
0001
0100
0001
0100
0001
1000
0010
0100
0001
1000
0001
0010
,
0100
1000
0010
0100
0010
1000
0100
0010
0001
0010
0100
1000
0001
0100
0010
1000
,
0001
0010
0100
1000
0001
0100
0010
0100
0001
1000
0001
1000
0001
1000
0010
0100
,
0001
1000
0100
1000
0100
0010
0001
0010
0001
1000
0001
1000
0001
1000
0001
1000
,
0001
0000
0000
0010
1000
0100
1000
0010
0100
0001
0010
0001
,
0010
0001
0100
0001
1000
0001
0100
0010
1000
0010
1000
0100
,
1000
0100
0010
0001
1000
0001
0100
1000
0100
0010
1000
0100
,
1000
0001
0010
1000
0010
0001
0010
0001
1000
0001
0100
0001
,
0100
0010
1000
0100
1000
0100
0010
0001
0010
0100
1000
0001
,
0100
0001
0100
0010
0100
0010
1000
0010
1000
0100
1000
0100
,
0010
0001
0010
0001
0010
0001
1000
0001
0100
0010
1000
0001
,
1000
0100
1000
0001
0010
0001
1000
0001
0100
0010
1000
0001
,
0100
0010
1000
0001
0100
0001
1000
0001
1001
0001
0100
0001
,
0010
0001
0100
0001
0100
0010
1000
0010
0100
0010
1000
0100
,
1000
0100
0010
0001
1000
0001
0100
1000
0100
0010
1000
0010
,
1000
0100
0010
0100
0001
0100
0010
0100
1000
0001
0100
1000
,
0100
0010
1000
0010
0100
0001
1000
0001
1001
0001
0100
0001
,
0010
0001
0010
0001
0010
1000
0010
0001
0010
0001
0100
1000
,
0100
0001
0010
1000
0010
0001
1000
0001
0100
0010
1000
0010
,
1000
0100
1000
0100
0010
0100
0001
0100
0010
0001
1000
0001
,
0100
0010
1000
0001
0100
0010
1000
0004
4000
0000
0000
0000
,
0000
0000
0000
3003
0000
0000
1000
0100
,
1000
1100
1000
0001
0100
0101
0001
0010
,
0001
0011
0001
1000
0010
1010
1000
0010
,
0100
1100
0100
0010
0001
1001
0001
1000
,
0001
0000
0204
0000
0000
0000
0000
0000
0000
0000
0013
0300
1000
0000
0100
0000
,
1000
1100
0100
0010
0001
1001
0001
0100
,
0010
1010
0010
0100
0010
1010
1000
0100
,
0010
0011
0001
1000
0001
1010
1000
0100
,
1000
0000
0001
0000
0001
1000
0010
0100
0001
1000
0001
1000
0001
0000
0100
0000
,
0010
0000
0000
0000
1000
0000
0000
0000
0100
0000
0000
0000
2000
0000
0M0M
00M0
,
0000
00M0
000M
0M0M
0000
00M0
0000
0M0M
0000
0MM0
0000
000M
0000
0MMM
0000
0M00
,
000M
00M0
0M00
000M
0000
00MM
0000
0M0M
0000
0000
00MM
0000
0M02
00M0
0000
0000
,
0M00
0000
0000
3000
0020
M003
0000
000M
0000
0M00
0032
0000
0200
0000
M0M0
0000
,
0003
00M0
000M
0000
0020
0000
M00M
0000
0300
0000
2030
000M
0200
0000
00M0
0000
,
000M
0000
00M0
300M
0320
0000
M000
0000
0M00
0030
010M
M000
0020
0000
0M00
0000
,
000M
M000
0000
0000
0M02
0000
0000
M030
0M00
0000
02M3
0000
002M
0000
M000
000M
,
M000
0000
0000
030M
0230
M000
0000
000M
M000
0000
0320
0000
2000
0M00
000M
0000
,
0000
0M00
0030
000M
0200
00M0
000M
0000
0000
0000
3020
0300
M002
0000
0M00
0M00
,
0M00
0000
0000
M003
0200
0000
000M
0000
M000
0330
002M
000M
020M
0000
M000
M00M
,
M000
0000
000M
0030
2000
00M0
0000
000M
0000
0300
0020
300M
0200
0000
000M
0000
,
0000
M000
0030
M000
0002
0000
M000
00M0
00M0
0300
2003
0000
0020
0M00
000M
0M00
,
000M
0M00
000M
0000
3200
0000
M030
0000
0000
000M
M020
0300
200M
0000
0000
0M00
,
0000
0000
0030
0000
02M0
0000
000M
3000
0000
0000
0320
0000
M002
0000
M000
0000
,
0M00
0M00
0M00
0030
M023
0000
0000
000M
M000
0000
0031
0000
0200
M0M0
0000
M000
,
00MM
0000
M000
M000
0020
0000
M000
000M
0300
0000
2030
000M
0200
000M
0000
00M0
,
0000
000M
0000
3000
0020
030M
0000
M000
0000
0000
0M31
0000
0200
M00M
0000
0000
,
00M0
M000
M0M0
0000
M002
M000
00M0
0000
0000
03M0
2003
0000
02M0
0000
000M
000M
,
00M0
000M
0000
0000
302M
0000
0300
M000
0000
0000
0M32
0000
0020
0M03
M000
0000
,
0M02
0030
M000
0000
0M23
0000
2000
3000
0031
0000
0000
0000
0100
0000
0000
0000
,
0001
1000
0001
1110
,
1011
1110
1101
1011
,
1101
1011
1101
1011
,
1011
0111
1011
1101
,
1011
1101
0111
0111
,
1011
1110
1101
0111
,
1101
0111
1110
1011
,
1110
1011
1110
1011
,
1101
1110
1011
1101
,
1011
1101
1011
1110
,
1101
0111
1101
0111
,
1110
1110
1011
1101
,
0111
0000
1101
0000
1011
0000
1100
1100
,
0101
0101
1010
1010
0011
0011
1100
1100
,
1001
0000
0110
0000
1001
0000
0110
0000
1001
0000
1001
0000
1000
0100
0010
0001
,
0010
0000
0000
0100
0000
0000
1000
0000
0000
0001
0000
0000
0100
0000
0000
0010
0000
0000
1000
0000
0000
0001
0000
0000
0100
0000
0000
0010
0000
0000
1000
0000
0000
0100
0000
0000
1000
0000
0000
0000
0000
0000
0001
0000
0100
0000
0001
0000
,
0100
0000
0000
1000
0100
1000
0100
0000
0000
0001
1000
0001
1000
0000
0000
0001
0100
0004
0400
0000
0000
0000
0000
0000
,
0000
0000
0000
0000
0000
0303
0000
0000
,
0000
0000
0000
0000
0000
0000
0000
0000
0000
0000
0000
0000
1000
0001
1000
0100
,
0010
0001
1000
0100
0010
0001
1000
0010
0100
0010
1000
0100
1000
0001
0010
0001
,
1000
0001
0100
0010
0100
0001
1000
0100
1000
0001
0010
0100
1000
0001
0010
0100
,
1000
0001
0100
0010
1000
0001
1000
0100
1000
0010
1000
0100
1000
0001
0010
0001
,
1000
0001
0100
0010
1000
0001
0100
0010
1000
0001
0100
0010
1000
0001
1000
0100
,
0010
0001
1000
0100
0010
0001
1000
0010
1000
0100
0010
0001
0100
0001
0010
0001
,
0100
0001
0010
0100
1000
0010
0100
0001
0010
0100
1000
0010
0100
0010
1000
0100
,
1000
0001
0010
0100
1000
0001
0010
0100
1000
0001
0100
0010
1000
0001
0100
0010
,
1000
0001
0010
0100
0010
0001
1000
0001
0010
0100
1000
0001
0010
0100
1000
0001
,
1000
0001
1000
0100
0010
0001
1000
0100
0010
0001
1000
0010
0100
0001
1000
0010
,
0100
0001
1000
0010
1000
0010
1000
0100
1000
0010
1000
0001
0100
0010
1000
0001
,
0100
0010
1000
0010
1000
0100
1000
0001
0010
0100
1000
0001
0010
0100
1000
0001
,
0100
0010
1000
0001
0010
0100
1000
0001
0100
0010
0100
0010
1000
0100
1000
0100
,
0010
0100
0010
0001
0010
0001
0010
0100
0010
0100
0010
0001
0010
0100
1000
0010
,
0100
0001
1000
0010
0100
0001
1000
0100
0010
0100
0010
0001
1000
0001
0100
0010
,
1000
0100
0010
0001
0100
0010
1000
0100
1000
0010
0100
0001
0010
0001
1000
0010
,
0100
0001
0010
0001
1000
0010
0100
0010
0100
0001
0100
0010
1000
0100
0010
0001
,
0010
0100
1000
0100
0010
0001
1000
0100
0010
0001
0010
0100
1000
0001
1000
0001
,
0100
0010
1000
0100
0010
0001
1000
0010
0100
0010
1000
0100
0010
0001
0100
0010
,
1000
0001
0010
0100
0010
0100
1000
0010
0100
0001
0010
0001
1000
0010
0100
0001
,
1000
0100
0010
0001
0100
0010
1000
0100
0010
0001
0100
0010
1000
0100
0010
0001
,
1000
0001
1000
0010
0100
0001
1000
0100
0010
0001
0100
0010
1000
0100
0010
0001
,
0010
0001
1000
0010
0100
0010
1000
0100
1000
0010
0100
0010
1000
0010
1000
0100
,
1000
0010
0100
0010
1000
0100
0010
0001
0010
0100
1000
0001
0100
0010
1000
0001
,
0010
0100
0010
0001
1000
0001
0100
0001
1000
0001
1000
0010
0100
0001
1000
0010
,
0100
0001
1000
0010
1000
0001
0010
0100
0010
0001
1000
0100
0010
0001
1000
0001
,
0100
0010
1000
0001
0100
0010
1000
0100
1000
0100
0010
0001
1000
0001
1000
0010
,
1000
0010
1000
0001
1000
0001
1000
0100
1000
0100
1000
0100
0010
0100
0010
0100
,
0010
0001
0010
0001
0010
0100
0010
0100
0010
0100
1000
0100
1000
0010
1000
0010
,
0100
0001
1000
0010
0100
0001
1000
0010
0100
0001
1000
0100
1000
0100
0010
0001
,
0010
0001
1000
0100
0010
0001
0010
0100
1000
0010
0100
0001
1000
0000
0000
0000
,
0111
1011
1110
1011
,
1101
0000
1110
0000
1110
0000
1000
1000
,
0100
0100
0010
0010
0001
0001
0100
0100
,
0010
0000
0010
0000
1000
0000
1000
0000
1000
0000
1000
0000
0001
0010
0100
1000
,
0001
0100
0010
1000
0100
1000
0010
1000
0100
1000
0001
0010
0100
1000
0001
0100
,
0010
1000
0100
1000
0001
0010
0100
1000
0001
0100
0010
1000
0100
1000
0100
0010
,
0001
0100
0001
0010
0100
1000
0010
0100
0001
0010
0100
1000
0001
1000
0001
1000
,
0001
0010
0100
1000
0001
0100
0010
1000
0100
1000
0001
0010
0100
1000
0001
0100
,
0010
1000
0100
1000
0100
1000
0001
0010
0100
1000
0001
0100
0010
1000
0100
0010
,
0001
1000
0001
1000
0001
0010
0001
0010
0100
1000
0010
0100
0010
1000
0100
1000
,
0001
0010
0100
1000
0001
0100
0010
1000
0001
0010
0100
0010
0001
1000
0100
0010
,
0001
1000
0001
0100
0010
1000
0001
0100
0010
1000
0001
0100
0010
1000
0001
1000
,
0001
1000
0001
1000
0010
0100
0001
1000
0010
0100
0001
1000
0010
0100
0001
1000
,
0001
1000
0001
1000
0010
0100
0001
1000
0001
1000
0100
1000
0100
0010
0001
1000
,
0001
1000
0001
1000
0100
0010
0001
1000
0100
0010
0001
1000
0100
0010
0001
1000
,
0001
1000
0001
1000
0001
0010
0100
1000
0001
1000
0001
1000
0001
0100
0001
0100
,
0010
0100
0010
0100
0010
1000
0010
1000
0100
1000
0100
1000
0100
1000
0001
0010
,
0001
1000
0010
0100
0001
1000
0001
1000
0001
1000
0001
1000
0100
1000
0100
1000
,
0100
0010
0100
0010
0001
0010
0100
0010
0100
1000
0001
0100
0010
1000
0001
0100
,
0010
1000
0100
0010
0100
1000
1100
0000
,
1001
0000
0101
0000
0011
0001
1000
0001
,
1000
0010
0100
0010
1000
0100
0100
0010
,
0010
0001
0001
0100
0010
1000
0001
0100
,
0001
1000
0100
1000
0001
0010
0001
1000
,
0010
0100
0010
0001
0010
1000
0100
1000
,
0100
0010
0001
0010
0001
0100
0001
0100
,
0010
1000
0010
1000
1010
0010
1000
0100
,
0011
0010
0001
1000
0001
0100
0010
0100
,
0010
1000
0010
0000
1000
0000
0100
0000
,
0010
0001
0100
0001
,
1000
0010
0100
0010
,
1000
1100
0101
1010
,
0011
1001
1001
1001
,
0110
1100
0011
1001
,
1100
0000
0000
0000
0001
1000
0001
0000
1000
0001
1000
0000
0001
0100
0001
0000
,
0100
0010
0100
0000
0010
1000
0001
0100
0001
1000
0010
0100
0001
1000
0100
1000
,
0001
1000
0001
1000
0001
0000
0100
0000
0000
0000
0000
0000
0000
0000
0000
0000
;

//---------------dance-single - DeSire----------------
#NOTES:
     dance-single:
     DeSire:
     Medium:
     13:
     1.000,1.000,1.000,0.676,1.000,2183.000,176.000,71.000,373.000,0.000:

0000
0000
0000
0000
0001
0000
0000
0000
0001
0000
1000
0000
0001
1000
0001
1000
,
0001
1000
0001
1000
0001
1000
0001
1000
0001
1000
0001
1000
0001
1000
0001
1000
,
0001
1000
0001
1000
0001
1000
0001
1000
0001
1000
0001
1000
0001
1000
0001
1000
,
0001
1000
0001
0100
0001
0100
0001
1000
0001
0100
0001
1000
0001
0100
0001
0100
,
0001
1000
0001
0100
0001
0100
0001
0010
0001
0100
0001
0100
0020
M000
0M00
000M
,
0M00
M000
0M00
000M
0M00
M000
0M00
000M
0M00
M000
0M00
000M
0M00
M000
0M00
000M
,
0M00
M000
0M00
003M
M400
0000
0000
0000
0000
0000
0000
0300
1010
0000
1100
0000
,
1000
0100
1000
0000
0110
0000
0101
0000
0100
0001
0100
0000
0110
0000
1010
0000
,
1000
0010
1000
0000
1100
0000
0110
0000
0010
0001
0010
0000
0011
0000
0110
0000
,
0100
0010
0100
0000
1100
0000
1001
0000
0001
1000
0001
0000
1100
0000
0101
0000
,
0001
0100
0001
0000
0001
0000
0100
0000
1000
0000
0100
0000
0001
0100
0001
0000
,
0100
0010
0100
0000
0010
1000
0010
0000
0100
0010
0100
0000
0001
0100
0001
0000
,
1000
0100
1000
0000
0010
0100
0010
0000
1000
0100
1000
0000
0010
1000
0010
0000
,
0100
0001
0100
0000
0001
0010
0001
0000
0100
0001
0100
0000
0010
1000
0010
0000
,
0100
0010
0100
0000
1000
0100
0010
0100
M0M2
0000
M0M0
0003
0M10
0000
0100
1000
,
0100
0000
0011
0000
0001
0000
0010
0100
1000
0000
1001
0000
0100
0000
0010
1000
,
0010
0000
0110
0000
1000
0000
0001
0100
0001
0000
1010
0000
0001
0000
1000
0010
,
0100
0000
0101
0000
0001
0000
0010
0100
1000
0000
0110
0000
0010
0000
1000
0001
,
1000
0000
0004
4000
0000
0000
0000
0003
3010
0000
0100
0000
0101
0000
0001
0100
,
0001
0000
0101
0000
0100
0000
0010
0100
0010
0000
0110
0000
0010
0000
1000
0010
,
1000
0000
1010
0000
1000
0000
0001
1000
0001
0000
1001
0000
0010
0000
0001
0010
,
0001
0000
0011
0000
0010
0000
0100
0010
0100
0000
0110
0000
1000
0000
0100
1000
,
0100
0000
1100
0000
1000
0010
0100
0010
4000
0000
0M00
3000
004M
0000
0M00
0030
,
M004
0000
00M0
0003
M400
0000
00M0
0300
400M
0000
0M00
3000
0100
0000
1000
0000
,
0000
0000
0100
0010
0001
0000
0010
0000
0400
0000
0000
0300
1000
0000
0010
0000
,
0000
0000
0100
0001
0100
0000
0001
0000
1000
0100
1000
0000
0010
0000
0100
0000
,
0000
0000
0100
0010
1000
0000
0001
0000
0040
0000
0000
0030
0001
0000
0010
0100
,
1000
0000
0004
0000
0000
0000
0100
0000
0000
0000
1003
0000
0100
0010
0001
0000
,
1001
0000
0100
0000
0001
0100
0010
0000
4020
0000
0000
0030
3010
0000
0100
0001
,
0100
0000
1010
0000
1000
0000
0010
0100
0001
0000
1010
0000
1000
0000
0001
1000
,
0001
0000
2004
0000
0000
0003
0010
3000
0402
0000
0000
0300
0013
0000
0100
1000
,
0100
0000
0010
0000
0011
0000
0110
0000
1100
0000
1001
0000
0200
0000
0000
0300
,
0010
0000
1000
0000
0010
0000
1000
0000
0010
0000
1000
0000
0010
0000
0000
0000
0000
0000
0100
0000
0000
0001
0000
0000
0100
0000
0000
0000
0000
0000
0010
0000
0000
0000
0000
0000
1000
0000
0000
0001
0000
0000
1000
0000
0000
0000
0000
0000
,
0204
0000
0000
0300
0103
0010
1000
0000
0010
1000
0001
0000
0010
0100
1000
0000
,
0001
1000
0001
0000
0100
0001
0100
0000
0001
1000
0010
0000
1000
0010
1000
0000
,
4020
0000
0000
0030
3010
0100
0010
0000
1000
0010
4000
0040
0000
0000
0000
0000
,
0000
0000
0000
3030
0100
0000
0010
1000
0001
0000
0010
0000
0100
1000
0100
0000
,
0040
0000
0000
0030
0001
0010
0001
0000
1000
0010
1000
0000
0010
0100
0010
0000
,
1000
0001
1000
0000
0100
0010
0100
0000
1000
0010
1000
0000
0004
00M0
M000
0003
,
0101
0000
0000
0000
0010
1000
0001
0000
0010
0100
4000
0000
0001
0000
0100
0000
,
3010
0000
1001
0000
0110
0000
0000
0101
0000
0000
1010
0M0M
01M0
1000
0010
1000
,
0001
0100
0010
0000
1000
0001
0100
0001
0010
0100
1000
0000
0010
0100
0001
0010
,
0100
1000
0001
0000
0010
0100
0010
0001
0100
0010
1000
0000
0010
0100
0010
0100
,
0001
1000
0001
0000
0010
0100
0010
0100
1000
0001
1000
0000
0010
0100
0010
0100
,
0001
1000
0001
0000
0010
0100
0010
0100
1000
0001
1000
0000
0010
0100
0010
0100
,
0001
1000
0001
0000
0010
0100
0010
0100
1000
0001
1000
0000
0010
0100
0010
0100
,
0001
1000
0001
0000
0010
0100
0010
0100
1000
0001
1000
0000
0010
0100
0010
0100
,
0001
1000
0001
0000
0010
0100
0010
0100
1000
0001
1000
0000
0010
0100
0010
0100
,
0001
0000
1000
0000
0001
0000
1000
0000
0004
4000
0000
0000
0000
0000
0000
0000
0000
0000
0000
0000
3003
0000
0000
0000
1010
0000
0010
0000
0100
0000
0010
0000
,
1000
0001
1000
0000
1001
0001
0010
0100
1000
0001
0010
0000
0011
0010
0001
1000
,
0010
0100
0010
0000
1010
1000
0010
0100
0001
1000
0100
0000
0110
0100
1000
0001
,
0100
0010
1000
0000
1010
0010
0100
0001
1000
0100
0010
0000
0011
0001
0010
0100
,
1000
0001
1000
0000
1010
0010
1000
0001
0010
0001
1000
0000
1010
1000
0010
0100
,
0001
0010
0100
0000
0110
0100
1000
0010
0100
0001
1000
0000
1010
1000
0010
0100
,
0001
0010
0100
0000
0110
0010
0001
0100
0010
1000
0001
0000
1001
1000
0010
0100
,
0001
1000
0100
0000
1100
0100
1000
0010
0100
0001
1000
0000
0001
0000
0101
0000
,
0000
0000
0000
0000
1010
0000
0000
0000
1000
0000
0000
0000
0100
1000
0100
1000
0100
0000
0000
0000
0010
0001
0010
0001
0010
0000
0001
0000
0010
0000
0100
0000
,
1000
0001
1000
0000
0010
0100
0010
0100
0010
1000
0010
0000
0100
0010
0100
0010
,
1000
0001
1000
0000
0100
0010
0001
0010
0100
0010
0001
0000
0100
0010
0100
0010
,
1000
0001
0010
0000
0100
1000
0100
1000
0010
0100
0010
0000
1000
0001
1000
0001
,
0010
0100
0010
0000
0100
1000
0100
1000
0010
0100
0010
0000
1000
0010
1000
0010
,
1000
0010
0100
0000
0001
1000
0001
1000
0001
1000
0100
0000
0010
0100
1000
0100
,
0010
0001
1000
0000
0010
1000
0010
0100
0010
0100
0001
0000
1000
0100
0010
0001
,
1000
0010
0100
0000
0010
1000
0100
0010
0001
0010
0100
0000
1000
0100
0010
0100
,
1000
0001
0100
0000
0001
1000
0010
0100
0004
0000
0000
0003
0001
0100
0001
0100
,
0001
1000
0001
0100
0001
0010
0001
0100
0001
1000
0001
0100
0001
0010
0001
1000
,
0100
1000
0100
0010
0001
0010
0100
1000
0001
0100
0001
1000
0001
1000
0001
0100
,
0001
0100
0001
0100
0010
0100
0010
0100
0010
1000
0010
1000
0100
1000
0100
1000
,
0100
1000
0010
1000
0100
1000
0001
0010
0100
1000
0001
0010
0100
1000
0001
0100
,
0010
1000
0100
0010
0001
0100
0001
0100
0001
1000
0010
0100
0001
1000
0001
0010
,
0100
1000
0010
0100
0010
1000
0100
0010
0001
0010
0100
1000
0001
0100
0010
1000
,
0001
0010
0100
1000
0001
0100
0010
0100
0001
1000
0001
1000
0001
1000
0010
0100
,
0001
1000
0100
1000
0100
0010
0001
0010
0001
1000
0001
1000
0001
1000
0001
1000
,
0001
0000
0000
0000
0000
0000
0100
0000
0001
0000
1000
0000
0100
0000
0010
0000
0001
0000
0010
0001
0010
0000
0100
0000
,
1000
0000
0010
0000
0100
0000
0001
0100
0001
0000
1000
0000
0100
0000
0010
0000
0001
0000
0010
0100
1000
0000
0001
0000
,
0100
0000
0010
0000
1000
0000
0010
0100
0001
0000
1000
0000
0100
0000
0010
0000
0001
0000
0010
0001
0010
0000
0100
0000
,
1000
0000
0001
0000
0100
0000
0010
1000
0010
0000
0100
0000
0001
0000
1000
0000
0100
0000
0010
0100
0010
0000
0100
0000
,
1000
0000
0100
0000
1000
0000
0010
1000
0010
0000
0100
0000
0001
0100
0001
0000
1000
0000
0100
1000
0100
0000
0010
0000
,
0001
0000
1000
0000
0010
0000
0100
0001
0100
0000
0010
0000
1000
0000
0001
0000
1000
0000
0100
1000
0100
0000
0010
0000
,
0001
0000
0100
0000
0001
0000
1000
0001
1000
0000
0010
0000
0100
0000
0001
0000
1000
0000
0100
1000
0100
0000
0010
0000
,
0001
0000
1000
0000
0010
0000
0100
0010
0100
0000
0010
0000
1000
0000
0001
0000
0010
0000
0100
1000
0100
0000
1000
0000
,
0010
0000
0100
0000
0001
0000
1000
0001
1000
0000
0100
0000
0010
0001
0010
0000
0100
0000
1000
0100
1000
0000
0010
0000
,
0100
0000
0010
0000
1000
0000
0100
1000
0100
0000
1000
0000
0100
0000
0010
0000
0001
0000
0010
0100
0010
0000
0100
0000
,
1000
0000
0001
0000
0100
0000
0010
0100
0010
0000
1000
0000
0010
0000
0100
0000
0001
0000
1000
0001
1000
0000
0100
0000
,
0010
0000
0001
0000
1000
0000
0010
1000
0010
0000
0100
0000
0001
0000
1000
0000
0010
0000
0100
0010
0100
0000
0010
0000
,
1000
0000
0100
0000
0010
0000
0001
0010
0001
0000
1000
0000
0010
1000
0010
0000
0100
0000
0001
0100
0001
0000
1000
0000
,
0100
0000
0010
0000
0001
0000
0010
0001
0010
0000
0100
0000
1000
0000
0001
0000
0100
0000
0010
1000
0010
0000
0100
0000
,
0001
0000
1000
0000
0100
0000
0010
0100
1000
0000
0010
0000
0100
0000
0010
0000
1000
0000
0100
0010
0001
0000
0010
0000
,
0100
0000
0010
0000
0001
0000
0100
0010
1000
0000
0010
0000
1000
0000
0001
0000
1000
0000
1100
0000
0100
0000
1000
0000
,
1001
0001
0100
0101
0100
0010
1010
0010
1000
2004
0000
0000
,
4002
0000
0000
0000
0000
0000
0000
0000
0000
0000
0000
0000
0000
0000
0000
0000
0000
0000
0000
0000
0000
0000
0000
0000
0000
0000
0000
0000
0000
0000
0000
0000
0000
0000
0000
0000
0003
0000
0000
0000
0000
0000
0000
0000
0000
0000
0000
3000
2004
0000
0000
0000
0000
0000
0000
0000
0000
0000
0000
0000
0000
0000
0000
0000
0000
0000
0000
0000
0000
0000
0000
0000
0000
0000
0000
0000
0000
0000
0000
0000
0000
0000
0000
0000
0000
0000
0000
0000
0000
0000
0000
0000
0000
0000
0000
3003
4002
0000
0000
0000
0000
0000
0000
0000
0000
0000
0000
0000
0000
0000
0000
0000
0000
0000
0000
0000
0000
0000
0000
0000
0000
0000
0000
0000
0000
0000
0000
0000
0000
0000
0000
0000
0003
0000
0000
0000
0000
0000
0000
0000
0000
0000
0000
0000
3001
0000
0000
0000
0000
0000
0000
0000
0000
0000
0000
0000
0010
0000
0000
0000
0000
0000
0000
0000
0000
0000
0000
0000
0100
0000
0000
0000
0000
0000
0000
0000
0000
0000
0000
0000
1000
0000
0000
0000
0000
0000
0000
0000
0000
0000
0000
0000
,
0001
0010
0100
1000
0001
1000
0100
0010
0001
1000
0100
0010
0001
1000
0001
1000
,
0001
0010
0100
1000
0001
1000
0001
1000
0001
0010
0100
1000
0100
1000
0100
1000
,
0100
0010
0001
1000
0100
1000
0100
1000
0100
0010
0001
1000
0100
1000
0100
1000
,
0100
1000
0010
0100
0001
0010
0100
1000
0010
1000
0100
0010
0001
0100
0001
0100
,
0001
0100
0010
1000
0001
0100
0001
0100
0001
0100
0010
1000
0001
0100
0001
0100
,
0001
0100
0010
1000
0100
1000
0100
1000
0100
0010
0001
1000
0100
1000
0100
1000
,
0100
0010
0100
1000
0001
1000
0001
1000
0001
0100
0010
1000
0001
1000
0001
1000
,
0001
0000
0000
0010
0000
0000
0100
0000
0000
1000
0000
0000
0100
0000
0000
0010
0000
0000
0100
0000
0000
0001
0000
0000
0100
0000
0000
0010
0000
0000
0100
0000
0000
1000
0000
0000
0001
0000
0100
0000
0001
0000
0000
0000
0100
0000
0000
0000
,
0010
1000
0010
0000
0100
0000
0001
1000
0001
0000
1000
0000
0100
0010
0100
0000
1000
0000
0001
1000
0001
0000
1000
0000
,
000M
0M00
00M0
M000
000M
00M0
0M00
M000
00M0
0M00
000M
M000
,
00M0
M000
000M
0M00
00M0
M000
000M
0000
0000
2002
0000
0000
,
0000
0000
0000
0003
0200
0000
0000
0000
0000
0300
0010
3000
0220
0000
0000
0000
,
0000
0000
0000
0330
2020
0000
0000
0000
0000
0030
0001
3000
2002
0000
0000
0000
,
0000
0000
0000
3000
0020
0000
0000
0000
0000
0030
0100
0003
2020
0000
0000
0000
,
0000
0000
0000
3030
2200
0000
0000
0000
0000
0300
0001
3000
2002
0000
0000
0000
,
0000
0000
0000
3003
0202
0000
0000
0000
0000
0003
0010
0300
0220
0000
0000
0000
,
0000
0000
0000
0330
2020
0000
0000
0000
0000
0030
0100
3000
0220
0000
0000
0000
,
0000
0000
0000
0330
0022
0000
0000
0000
0000
0030
1000
0003
2002
0000
0000
0000
,
0000
0000
0000
0003
0020
0000
0000
3000
0200
0030
0001
0300
0220
0000
0000
0000
,
0000
0000
0000
0330
2020
0000
0000
0030
0002
3000
0010
0003
0022
0000
0000
0000
,
0000
0000
0000
0003
0200
0030
2000
0300
0002
3000
0200
0003
0020
0000
0000
0000
,
0000
0000
0000
0300
0200
0000
0000
0000
0000
0030
0001
0300
2002
0000
0000
0000
,
0000
0000
0000
0003
0200
0000
0000
0000
0000
0300
0010
3000
0220
0000
0000
0000
,
0000
0000
0000
0300
2000
0000
0000
0000
0000
0030
0001
3000
2002
0000
0000
0000
,
0000
0000
0000
3003
2200
0000
0000
0000
0000
0300
0010
3000
0202
0000
0000
0000
,
0000
0000
0000
0300
2000
0000
0000
0000
0000
0003
0010
3000
2020
0000
0000
0000
,
0000
0000
0000
3000
0200
0000
0000
0000
0000
0030
0001
0300
0101
0000
0000
0000
,
1100
0000
0000
0000
0000
0000
0000
0000
1001
0000
0000
0000
0000
0000
0000
0000
0110
0000
0000
0000
0000
0000
0000
0000
1001
0000
0000
0000
1000
0100
1000
0100
,
1000
0000
0000
0000
0001
0100
0001
0100
0001
0000
0000
0000
1000
0010
1000
0010
1000
0000
0000
0000
0001
1000
0001
1000
0001
0000
0000
0000
0000
0000
0000
0000
,
M1MM
MMMM
1MMM
MMMM
M1MM
MMMM
MMM1
MMMM
,
MM1M
MMMM
1MMM
MMMM
MM1M
MMMM
MMM1
MMMM
,
1MMM
MMMM
MM1M
MMMM
M1MM
MMMM
MMM1
MMMM
,
1MMM
MMMM
M1MM
MMMM
MM1M
MMMM
M1MM
MMMM
,
1MMM
MMMM
MMM1
MMMM
MM1M
MMMM
M1MM
MMMM
,
1MMM
MMMM
M1MM
MMMM
MMM1
MMMM
MM1M
MMMM
,
1MMM
MMMM
MM1M
MMMM
MMM1
MMMM
1MMM
MMMM
,
MM1M
MMMM
M1MM
MMMM
MMM1
MMMM
1MM1
MMMM
,
1M1M
MMMM
M1M1
MMMM
1MM1
MMMM
MM11
MMMM
,
11MM
MMMM
1M1M
MMMM
M1M1
MMMM
1M1M
MMMM
,
1MM1
MMMM
M11M
MMMM
M1M1
MMMM
MM11
MMMM
,
1MM1
0000
0000
MMMM
0000
0000
M11M
0000
0000
MMMM
0000
0000
1MM1
0000
0000
0001
1000
0100
1000
0000
0000
1000
0000
0000
,
0100
0100
0001
0001
0010
0010
1000
1000
,
0100
0000
0100
0000
0001
0000
0001
0000
0100
0000
0100
0000
1000
0100
1000
0100
,
1000
0000
0010
0000
1000
0000
0010
0000
0100
0000
0001
0000
0100
0000
0001
0000
1000
0000
0001
0000
1000
0000
0001
0000
1000
0000
0MM0
0000
0001
0100
0001
0100
,
0001
0000
0000
0000
1000
0010
1000
0010
1000
0000
0000
0000
0001
1000
0001
1000
0001
0000
0000
0000
0100
0001
0100
0004
0400
0000
0000
0000
0000
0000
0000
0000
,
0000
0000
0000
0303
,
0000
0000
0000
0000
0000
0000
0000
0000
1000
0001
1000
0100
1000
0001
1000
0100
,
0010
0001
1000
0100
0010
0001
1000
0010
0100
0010
1000
0100
1000
0001
0010
0001
,
1000
0001
0100
0010
0100
0001
1000
0100
1000
0001
0010
0100
1000
0001
0010
0100
,
1000
0001
0100
0010
1000
0001
1000
0100
1000
0010
1000
0100
1000
0001
0010
0001
,
1000
0001
0100
0010
1000
0001
0100
0010
1000
0001
0100
0010
1000
0001
1000
0100
,
0010
0001
1000
0100
0010
0001
1000
0010
1000
0100
0010
0001
0100
0001
0010
0001
,
0100
0001
0010
0100
1000
0010
0100
0001
0010
0100
1000
0010
0100
0010
1000
0100
,
1000
0001
0010
0100
1000
0001
0010
0100
1000
0001
0100
0010
1000
0001
0100
0010
,
1000
0001
0010
0100
0010
0001
1000
0001
0010
0100
1000
0001
0010
0100
1000
0001
,
1000
0001
1000
0100
0010
0001
1000
0100
0010
0001
1000
0010
0100
0001
1000
0010
,
0100
0001
1000
0010
1000
0010
1000
0100
1000
0010
1000
0001
0100
0010
1000
0001
,
0100
0010
1000
0010
1000
0100
1000
0001
0010
0100
1000
0001
0010
0100
1000
0001
,
0100
0010
1000
0001
0010
0100
1000
0001
0100
0010
0100
0010
1000
0100
1000
0100
,
0010
0100
0010
0001
0010
0001
0010
0100
0010
0100
0010
0001
0010
0100
1000
0010
,
0100
0001
1000
0010
0100
0001
1000
0100
0010
0100
0010
0001
1000
0001
0100
0010
,
1000
0100
0010
0001
0100
0010
1000
0100
1000
0010
0100
0001
0010
0001
1000
0010
,
0100
0001
0010
0001
1000
0010
0100
0010
0100
0001
0100
0010
1000
0100
0010
0001
,
0010
0100
1000
0100
0010
0001
1000
0100
0010
0001
0010
0100
1000
0001
1000
0001
,
0100
0010
1000
0100
0010
0001
1000
0010
0100
0010
1000
0100
0010
0001
0100
0010
,
1000
0001
0010
0100
0010
0100
1000
0010
0100
0001
0010
0001
1000
0010
0100
0001
,
1000
0100
0010
0001
0100
0010
1000
0100
0010
0001
0100
0010
1000
0100
0010
0001
,
1000
0001
1000
0010
0100
0001
1000
0100
0010
0001
0100
0010
1000
0100
0010
0001
,
0010
0001
1000
0010
0100
0010
1000
0100
1000
0010
0100
0010
1000
0010
1000
0100
,
1000
0010
0100
0010
1000
0100
0010
0001
0010
0100
1000
0001
0100
0010
1000
0001
,
0010
0100
0010
0001
1000
0001
0100
0001
1000
0001
1000
0010
0100
0001
1000
0010
,
0100
0001
1000
0010
1000
0001
0010
0100
0010
0001
1000
0100
0010
0001
1000
0001
,
0100
0010
1000
0001
0100
0010
1000
0100
1000
0100
0010
0001
1000
0001
1000
0010
,
1000
0010
1000
0001
1000
0001
1000
0100
1000
0100
1000
0100
0010
0100
0010
0100
,
0010
0001
0010
0001
0010
0100
0010
0100
0010
0100
1000
0100
1000
0010
1000
0010
,
0100
0001
1000
0010
0100
0001
1000
0010
0100
0001
1000
0100
1000
0100
0010
0001
,
0010
0001
1000
0100
0010
0001
0010
0100
1000
0010
0100
0001
1000
0000
0100
0000
,
0000
0010
0000
0001
0000
0100
0000
0010
,
0000
0000
1000
0000
0000
0000
0100
0000
0000
0000
1000
0000
0001
0000
0100
0001
,
0100
0000
0010
1000
0010
0000
1000
0001
1000
0000
0001
1000
0001
1000
0001
1000
,
0001
0000
0000
1000
0000
0000
0001
0000
0100
0000
0001
0000
0100
0000
0010
0000
1000
0000
0010
0000
1000
0000
0001
0000
0100
0000
0001
0000
0100
0000
0001
0000
1000
0000
0001
0000
1000
0000
0000
0000
0000
0000
1001
0000
0000
0000
0000
0000
,
0100
0101
0010
1010
1000
0101
0001
1001
,
1000
1100
0100
0110
0001
0011
0010
0110
,
0100
1100
1000
1001
0001
0101
0100
0010
,
1010
0000
1000
0000
1001
0000
0101
0000
0100
0000
0010
0100
1001
0000
1000
0000
,
1100
0100
0110
0010
0011
0001
0101
0100
,
0110
0010
1010
1000
1001
0001
0101
0100
,
0110
0010
1010
1000
1001
0001
1001
1000
,
1001
0000
1010
0000
0010
1000
0001
1000
0100
0010
0001
1000
0001
0000
0101
0000
,
0100
0000
0010
1000
0010
0000
1010
0000
1000
0000
0001
1000
0001
0000
0101
0000
,
0100
0000
0010
1000
0010
0000
1000
0000
1010
0000
1000
0001
1000
0000
0100
0000
,
0110
0000
0100
1000
0100
0000
1000
0000
1001
0000
0001
0100
0001
0000
1000
0000
,
1001
0000
0001
0100
0001
1000
0001
0010
0001
1000
0010
0100
0004
0000
0010
0003
,
0001
0000
0010
0001
0010
0000
0011
0000
0100
0000
1000
0100
1000
0000
1100
0000
,
0010
0000
0001
0010
0001
0000
0011
0000
0100
0000
1000
0001
0100
0000
0110
0000
,
0010
0000
1000
0010
1000
0000
1010
0000
0010
0000
0100
0010
0100
0000
0101
0000
,
0001
0000
0100
0001
1000
0000
1001
0000
1000
0000
0100
1000
0400
0000
0000
0000
,
1300
0000
0101
1000
0011
0001
1000
0001
,
1000
0010
0100
0010
1000
0100
0100
0010
,
0010
0001
0001
0100
0010
1000
0001
0100
,
0001
1000
0100
1000
0001
0010
0001
1000
,
0010
0000
0100
0010
0100
0000
1000
0000
0100
0000
0001
0000
0010
0000
0001
0000
,
0010
0100
1000
0100
1000
0010
1000
0010
,
0100
0001
0100
0001
0101
0100
0001
0010
,
1100
0100
1000
0001
1000
0010
0100
0010
,
0100
0001
0100
0000
0001
0000
0010
0000
,
0100
1000
0010
1000
,
0001
0100
0010
0100
,
0001
0011
1010
0101
,
1100
1001
1001
1001
,
0110
0011
1100
1001
,
0101
0000
0001
1000
0001
1000
0001
0100
,
0010
1000
0010
0000
0100
0001
0100
0000
0001
1000
0001
0000
1000
0100
0010
0001
,
1000
0001
0101
1001
0000
0000
0000
0000
;
