#TITLE:tablets;
#SUBTITLE:;
#ARTIST:sampling masters MEGA;
#TITLETRANSLIT:;
#SUBTITLETRANSLIT:;
#ARTISTTRANSLIT:;
#CREDIT:;
#BANNER:tablets.png;
#BACKGROUND:tablets-bg.png;
#LYRICSPATH:;
#CDTITLE:Jimbo.png;
#MUSIC:tablets.mp3;
#OFFSET:-0.380;
#SAMPLESTART:59.020;
#SAMPLELENGTH:15.000;
#SELECTABLE:YES;
#BPMS:0.000=179.960;
#STOPS:253.500=1.667
;
#BGCHANGES:;
// cache tags:
#FIRSTBEAT:0.000;
#LASTBEAT:263.000;
#SONGFILENAME:Songs/Fabulously Fresh Flock of Fantastic Files F5/(Jimbo) tablets/tablets.sm;
#HASMUSIC:1;
#HASBANNER:1;
#MUSICLENGTH:93.077;
// end cache tags

//---------------dance-single - ----------------
#NOTES:
     dance-single:
     :
     Hard:
     11:
     1.000,1.000,1.000,0.623,0.419,547.000,216.000,58.000,0.000,0.000:

2000
0000
0000
3200
0000
0000
0302
0000
,
0203
2300
0000
3020
0032
0000
1003
0100
,
2002
0000
0000
0000
0000
3003
2020
0000
0000
0000
0000
3030
0202
0000
0000
0303
,
2000
3200
0300
1000
1001
0010
1010
0101
,
1001
0010
1000
0101
0010
0100
1001
0010
,
1010
1010
0100
0011
0011
0100
1100
0001
,
0101
0100
0100
1001
0100
0100
1001
0100
,
0101
0000
0101
0000
0010
0000
1100
0000
2010
0000
0000
0000
3200
0000
0000
0300
,
1010
0000
1000
0000
0110
0000
1001
0000
0100
0000
0010
1000
0001
1000
0010
0000
,
1010
0000
0001
0000
0100
0000
0100
0000
1010
0000
1001
0000
0100
0010
0100
0010
,
1001
0000
0100
0000
0011
0000
1001
0000
0001
0000
0100
0010
1000
0001
0100
0010
,
0100
0000
0010
0000
0100
0000
0101
0000
1001
0000
1001
0000
0200
0000
0000
0300
,
1010
0000
0100
0000
1010
0000
1010
0000
0100
0000
0001
0100
0001
0010
0100
0000
,
1010
0000
0001
0000
0100
0000
0101
0000
1010
0000
0110
0000
1000
0001
1000
0100
,
1001
0000
0110
0000
0101
0000
0011
0000
0000
0000
1000
0000
0011
0000
0100
0010
,
1001
0000
2000
0000
0000
0000
3001
0000
0210
0000
0000
0000
0302
0000
0000
0003
,
1001
0000
1010
0000
0100
0000
0001
0000
1000
0000
0001
0000
0100
0001
0100
0010
,
1001
0000
0101
0000
0000
0000
1000
0000
0101
0000
1000
0000
0010
0001
0100
0100
,
1010
0000
0110
0000
0001
0000
1000
0000
0100
0000
0010
0000
1000
0001
0100
0010
,
1001
0000
0000
0000
0101
0000
0000
0000
0000
0000
0000
0000
0010
0000
0000
0000
1001
0000
0000
0000
0100
0000
0000
0000
0010
1000
0100
0000
0010
0001
1000
0000
,
0100
0000
1010
0000
0110
0000
1001
0000
0100
0000
1100
0000
0010
0100
0001
0000
,
1010
0000
0010
0000
0110
0000
1001
0000
0010
0000
0101
0000
1000
0100
0010
0000
,
1001
0000
1010
0000
0110
0000
1001
0000
0100
0000
0110
0000
0001
1000
0010
0000
,
0001
0000
0000
0000
0100
0000
0000
0000
1010
0000
0000
0000
0110
0000
0000
0000
0100
0000
0000
0000
1001
0000
0000
0000
1000
0010
1000
0000
0001
0000
0100
0000
,
1001
0000
1010
0000
0101
0000
1001
0000
0010
0000
0110
0000
0001
0100
1000
0000
,
0010
0000
0100
0000
0110
0000
1001
0000
0001
0000
1001
0000
1000
0100
0010
0000
,
2002
0000
0000
0000
0000
3003
0202
0000
0000
0000
0000
0303
2020
0000
0000
3030
,
0110
0000
0001
0000
1100
0000
0000
0000
0000
0000
0000
0000
1010
0000
0000
0000
0101
0000
0100
0000
0001
0000
0000
0000
1000
0010
0100
0001
1000
0000
0010
0000
,
1100
0010
0001
0110
1000
0001
1010
0100
,
0010
0000
1010
0000
0100
0000
0010
0000
0011
0000
0101
0000
0010
1000
0100
0010
,
1001
0000
0001
0000
1001
0000
0110
0000
0010
0000
0101
0000
1000
0010
1000
0010
,
0100
0000
0011
0000
0100
0000
1010
0000
0110
0000
0101
0000
0100
0010
0100
0010
,
1001
0000
0000
0000
0110
0000
2020
0000
0000
3030
0011
0000
0202
0000
0303
0000
,
0010
0000
1001
0000
0100
0000
0010
0000
0101
0000
2002
0000
0000
3003
0101
0000
,
2200
0000
0000
3300
1010
0000
2020
0000
3030
0000
0110
0000
0202
0000
0000
0303
,
0100
0000
0011
0000
0100
0000
0110
0000
1001
0000
0101
0000
0001
0000
1100
0100
,
1100
0000
0001
0000
0100
0000
1001
0000
0000
0000
0101
0000
1000
0010
1000
0010
,
1100
0000
0001
0000
1010
0000
0001
0100
0010
0100
0001
0000
1000
0100
0010
0000
,
0110
0000
0001
0000
1000
0000
0101
0000
0000
0000
0011
0000
1000
0100
0001
0100
,
1000
0000
0010
0000
0101
0000
1000
0001
0100
0010
1001
0000
0001
1000
0100
0000
,
1010
0000
0010
0000
0010
0000
0101
0000
0000
0000
0010
0000
1000
0100
0010
0001
,
1100
0000
0001
0000
0101
0000
0010
0001
1100
0010
0100
0000
0001
0000
1000
0000
,
0110
0000
0100
1100
0000
0001
0100
0010
,
1001
0000
0000
0000
0010
0000
2010
0000
0000
0000
0000
0000
0000
0000
3001
0001
,
1001
0000
0010
0000
0100
0000
1001
0000
0010
0000
0100
0000
2020
0000
0000
3030
,
0100
0000
0202
0000
0000
0303
0010
0000
1010
0000
0110
0000
0001
0000
0100
0000
,
1001
0000
1000
0000
1000
0000
1010
0000
1000
0000
1000
0000
2002
0000
0000
3003
,
1000
0000
2020
0000
0000
3030
0010
0000
0100
0000
1000
0000
0001
0000
0100
0000
,
1010
0000
1000
0000
0110
0000
1001
0000
1001
0000
0010
0000
0001
0100
0001
0100
,
1010
0000
0001
0000
0100
0000
0110
0000
1010
0000
1001
0000
0100
0010
0100
0010
,
1001
0000
0001
0000
0110
0000
1010
0000
0101
0000
1000
0010
1000
0001
1000
0010
,
0101
0000
0010
0000
0100
0000
0101
0000
1010
0000
0110
0000
2002
0000
0000
3003
,
0110
0000
1000
0000
1010
0000
0100
0000
0110
0000
0001
1000
0010
0100
0010
0100
,
0001
0000
1000
0000
0110
0000
0001
0000
0101
0000
0110
0000
1000
0001
1000
0001
,
0110
0000
1010
0000
0101
0000
0110
0000
1001
0000
1010
0000
0101
0000
1000
0001
,
2000
0000
0200
0000
3300
0000
0001
0000
1002
0000
0000
0000
0203
0000
0000
0300
,
1010
0000
0010
0000
0101
0000
1000
0000
0110
0000
0001
0100
0001
0000
0100
0000
,
0110
0000
1010
0000
0101
0000
1000
0000
1100
0000
0001
0000
1000
0100
0010
0000
,
1010
0000
0001
0000
0101
0000
0010
0000
1000
0000
0100
0000
1000
0001
1000
0000
,
0110
0000
0001
0000
0101
0000
0010
0000
0110
0000
1000
0000
0001
0100
0001
0100
,
0101
0000
0101
0000
1010
0000
0110
0000
0101
0000
1010
0000
0001
0100
0001
0000
,
1001
0000
0110
0000
0101
0000
1010
0000
0110
0000
0101
0000
1000
0001
0100
0000
,
1010
1000
0100
0011
0001
0100
1010
0010
,
1001
0000
0100
0000
0010
0000
2002
3003
0110
0000
0000
0000
1010
0000
0100
0000
,
0010
1001
0100
0010
1010
0100
0101
0010
,
0100
2002
0000
0000
0000
0000
3003
0000
;
