#TITLE:Setsugekka;
#SUBTITLE:;
#ARTIST:Ryu*;
#TITLETRANSLIT:;
#SUBTITLETRANSLIT:;
#ARTISTTRANSLIT:;
#CREDIT:;
#BANNER:Setsugekka-BN.jpg;
#BACKGROUND:Setsugekka-BG.jpg;
#LYRICSPATH:;
#CDTITLE:!cattitle.png;
#MUSIC:Setsugekka.mp3;
#OFFSET:-1.978;
#SAMPLESTART:67.000;
#SAMPLELENGTH:12.000;
#SELECTABLE:YES;
#BPMS:0.000=151.000,164.000=75.500,180.000=151.000;
#STOPS:;
#BGCHANGES:;
// cache tags:
#FIRSTBEAT:0.000;
#LASTBEAT:259.500;
#SONGFILENAME:Songs/Community Keyboard Megapack - Volume 3/(Cat[S]) Setsugekka/Setsugekka.sm;
#HASMUSIC:1;
#HASBANNER:1;
#MUSICLENGTH:115.777;
// end cache tags

//---------------dance-single - ----------------
#NOTES:
     dance-single:
     :
     Hard:
     11:
     0.838,0.981,0.415,0.294,0.907,597.000,48.000,34.000,0.000,6.000:  // measure 1
0001
0100
0010
1000
0001
0100
0010
1000
,  // measure 2
0001
0100
0010
1000
0001
0100
0010
1000
,  // measure 3
1000
0010
0100
0001
1000
0010
0100
0001
,  // measure 4
1000
0010
0100
0001
1000
0010
0100
0001
,  // measure 5
0001
0010
0100
1000
0001
0010
0100
1000
,  // measure 6
0001
0010
0100
1000
0001
0010
0100
1000
,  // measure 7
1000
0100
0010
0001
1000
0100
0010
0001
,  // measure 8
1000
0100
0010
0001
1000
0100
0010
0002
,  // measure 9
0000
0000
0000
0000
0000
0000
0000
0003
,  // measure 10
1000
0010
0100
0000
0010
0000
1000
0010
0000
0100
0000
0010
0000
0001
0100
0010
,  // measure 11
1000
0010
0100
0000
1000
0000
0001
0100
0000
0010
0000
0100
0000
0010
1000
0010
,  // measure 12
0100
1000
0001
0000
0100
0000
0010
1000
0000
0001
0000
0010
0000
0100
0001
1000
,  // measure 13
0010
0100
0001
0000
1000
0000
0001
0100
0010
1000
0001
0100
0010
1000
0001
1000
,  // measure 14
0010
1000
0001
0000
0100
0000
0010
1000
0000
0001
0000
0010
0000
0100
0001
1000
,  // measure 15
0010
0100
0001
0000
1000
0000
0010
0100
0000
0010
0000
1000
0000
0001
0100
0010
,  // measure 16
1000
0001
0100
0000
0010
0000
1000
0010
0000
0100
0000
0001
0000
1000
0010
0100
,  // measure 17
0010
1000
0001
0100
0010
1000
0001
0100
0010
0100
0001
1000
0010
0100
0001
1000
,  // measure 18
0010
0100
0001
0000
1000
0000
0001
0100
0000
0010
0000
0100
0000
0001
0100
0010
,  // measure 19
0100
0001
0010
0000
0100
0000
0001
0010
0000
0100
0000
1000
0000
0010
1000
0100
,  // measure 20
0010
1000
0010
0000
1000
0000
0100
0010
0000
1000
0000
0100
0000
0010
1000
0001
,  // measure 21
0100
0010
1000
0000
0100
0000
0001
0010
0100
1000
0010
0100
0001
1000
0010
0100
,  // measure 22
0001
1000
0100
0000
1000
0000
0010
0100
0000
1000
0000
0001
0000
0100
0010
1000
,  // measure 23
0100
1000
0010
0000
0100
0000
1000
0010
0000
0100
0000
0001
0000
1000
0010
1000
,  // measure 24
0100
1000
0010
0000
0100
0000
1000
0001
0000
0100
0000
0001
0000
0100
0001
0100
,  // measure 25
0001
0010
0200
1300
0001
0010
0200
1300
0010
0100
0001
1000
0010
0100
0001
0010
,  // measure 26
1001
0000
0000
0100
0010
0000
1000
0000
0010
0000
0000
0100
0010
0000
1000
0000
,  // measure 27
0010
0000
0000
0100
0010
0000
0001
0000
0100
0000
0000
0010
0100
0000
0001
0000
,  // measure 28
1001
0000
0000
1010
0000
0000
1010
0000
0101
0000
0000
1001
0000
0000
1010
0000
,  // measure 29
1001
0000
0000
0101
0000
0000
1001
0000
0011
0000
0000
0110
0000
0000
1001
0000
,  // measure 30
0110
0000
0000
1010
0000
0000
0101
0000
1010
0000
0000
0101
0000
0000
1001
0000
,  // measure 31
0110
0000
0000
1010
0000
0000
0101
0000
1001
0000
0000
1010
0000
0000
0101
0000
,  // measure 32
1000
0001
1000
0001
1000
0001
1000
0000
0001
1000
0001
1000
0001
1000
0001
0000
,  // measure 33
0100
0020
0130
0020
0130
0100
0010
0101
,  // measure 34
1000
0100
0010
0001
1000
0100
0010
0001
,  // measure 35
1000
0100
0010
0001
1000
0100
0010
0001
,  // measure 36
0001
0100
0010
1000
0001
0100
0010
1000
,  // measure 37
0001
0100
0010
1000
0001
0100
0010
1000
,  // measure 38
1000
0010
0100
0001
1000
0010
0100
0001
,  // measure 39
1000
0010
0100
0001
1000
0010
0100
0001
,  // measure 40
0001
0010
0100
1000
0001
0010
0100
1000
,  // measure 41
0001
0010
0100
1000
0002
0010
0103
1000
,  // measure 42
1000
0020
0000
0000
0000
0000
0000
0000
0000
0000
0000
0030
0002
0203
0320
2030
,  // measure 43
3001
0200
0000
0000
0000
0000
0000
0000
0000
0000
0000
0300
2000
0020
3200
0032
,  // measure 44
1300
0023
0000
0000
0000
0000
0000
0000
0000
0000
0000
0030
2000
0002
3200
0023
,  // measure 45
0302
0030
0000
0000
0000
0000
0000
0000
2003
0000
0000
0000
0020
3030
0110
0000
,  // measure 46
1000
0001
1000
0001
1000
0001
1000
0001
2000
3001
1000
0002
1003
0001
2000
3001
,  // measure 47
0110
0000
1000
0001
0110
0000
1000
0001
0110
0000
1000
0001
0110
1000
0001
1000
,  // measure 48
0110
1000
0010
1000
0100
1000
0010
1000
0100
1000
0010
0100
0001
0000
0110
0000
,  // measure 49
1001
0000
1000
0010
0000
0100
0001
1000
0000
0010
0000
0100
0000
0010
1000
0001
,  // measure 50
0100
0000
0000
1000
0100
0000
0010
0000
0001
0000
0100
0000
0010
0000
1000
0000
,  // measure 51
0010
0000
0100
0010
0000
1000
0010
1000
0000
0001
0000
0010
0000
0100
1000
0010
,  // measure 52
0100
0000
0000
0100
0010
0000
1000
0000
0001
1000
0000
0010
0000
0100
0000
0010
,  // measure 53
1000
0000
0010
0100
0000
1000
0010
1000
0000
0001
0000
0100
0000
0010
1000
0010
,  // measure 54
0100
0000
0000
0010
1000
0000
0010
0000
0100
0000
0001
0000
0010
0000
0100
0000
,  // measure 55
1000
0000
0100
0001
0000
1000
0010
0100
0000
0001
0000
1000
0000
0100
1000
0010
,  // measure 56
0100
0000
0002
0000
0203
0300
0002
0000
0003
0000
1000
0010
0100
0000
0110
0000
,  // measure 57
1001
0000
1000
0010
0000
0100
0001
0010
0000
1000
0000
0010
0000
1000
0010
0100
,  // measure 58
0001
0000
0000
0010
1000
0000
0010
0000
0100
0000
0001
0000
0010
0000
0100
0000
,  // measure 59
1000
0000
0010
0100
0000
1000
0010
0100
0000
0001
0000
0010
0000
1000
0010
0100
,  // measure 60
0001
0000
0000
1000
0010
0000
0100
0000
0001
0010
0000
0100
0000
1000
0000
0001
,  // measure 61
0100
0000
1000
0010
0000
0100
0001
1000
0010
0000
0100
0000
0001
0000
1000
0010
,  // measure 62
0100
0000
0000
1000
0100
0000
0010
0000
0001
0000
0010
0000
0100
0000
1001
0000
,  // measure 63
0110
1001
0220
0330
1001
0110
1010
0101
,  // measure 64
1100
0000
0000
0101
0000
1000
0101
0000
0000
1000
0010
0000
0100
0000
2002
0000
,  // measure 65
0000
0000
0000
0000
0000
0000
0000
3003
;
