#TITLE:Coldscream;
#SUBTITLE:;
#ARTIST:Pory;
#TITLETRANSLIT:;
#SUBTITLETRANSLIT:;
#ARTISTTRANSLIT:;
#CREDIT:;
#BANNER:coldscream-bn.png;
#BACKGROUND:coldscream-bg.png;
#LYRICSPATH:;
#CDTITLE:!Dan23!.png;
#MUSIC:Coldscream.mp3;
#OFFSET:-0.100;
#SAMPLESTART:110.500;
#SAMPLELENGTH:11.920;
#SELECTABLE:YES;
#BPMS:0.000=159.000,132.000=39.760,140.000=79.500,204.000=159.000;
#STOPS:;
#BGCHANGES:;
// cache tags:
#FIRSTBEAT:12.000;
#LASTBEAT:275.000;
#SONGFILENAME:Songs/StepmaniaFreak's Favorites/(Dan23) Cold Scream/Coldscream.sm;
#HASMUSIC:1;
#HASBANNER:1;
#MUSICLENGTH:138.764;
// end cache tags

//---------------dance-single - ----------------
#NOTES:
     dance-single:
     :
     Hard:
     11:
     0.952,1.000,0.958,0.123,1.000,775.000,133.000,17.000,0.000,0.000:
0000
0000
0000
0000
,
0000
0000
0000
0000
,
0000
0000
0000
0000
,
1000
0100
0010
0001
0100
0100
0010
0010
,
0100
0001
1000
0010
0100
0100
0001
0001
,
1100
0010
0100
0010
0101
1000
0001
1000
,
0110
1000
0100
0010
1001
0001
0010
0100
,
0011
0100
0010
1000
1010
0001
0100
0010
,
1001
0000
1000
0000
0010
0000
0100
0000
1001
0100
0001
0000
1000
0000
0001
0000
,
1100
0000
0010
0100
0001
0010
0100
0000
1000
0001
0100
0010
0000
1000
0001
0000
,
0110
0000
1000
0010
0100
0001
0010
0000
0100
1000
0010
0100
0000
0001
1000
0000
,
0110
0000
1000
0010
0100
0001
1000
0000
0001
0010
0100
1000
0000
0001
1000
0000
,
0110
0000
1000
0100
0010
0000
0011
0000
1000
0100
1000
0000
0101
0000
1100
0000
,
1001
0000
0001
0100
0010
0100
0001
0000
1000
0100
1000
0010
0000
0100
0001
0000
,
1001
0000
1000
0010
0100
0001
0010
0000
0100
1000
0010
0100
0000
0100
0001
0000
,
1100
0000
0101
0000
1000
0001
1000
0000
1010
0000
0101
0000
0010
0010
0010
0000
,
1010
0000
0000
0000
0101
0000
0000
0000
1000
0000
0010
0000
0100
0000
0000
0000
0001
0000
0001
0000
0100
0000
0000
0000
1000
0000
0001
0000
1000
0010
0100
0001
,
1000
0000
0010
0100
0001
0000
1100
0000
0001
0010
0100
1000
0001
0000
0110
0000
,
1100
0000
0010
0100
0001
0000
1001
0000
0001
1000
0001
0000
0010
0010
0010
0000
,
1001
0000
1000
0010
0100
0000
0100
0001
0010
0100
1000
0001
0100
0010
0000
1000
,
0010
0100
0000
0100
0001
0000
1000
0010
0100
0000
0001
0010
0100
1000
0010
0100
,
1001
0000
0100
0010
1000
0000
0101
0000
1000
0100
0010
0001
1000
0000
1010
0000
,
0101
0000
1000
0010
0100
0000
1001
0000
0001
0010
0001
0000
1000
1000
1000
0000
,
1001
0001
0100
0000
1010
0000
0001
0010
0100
0000
1100
0000
1001
0000
0100
0010
,
1000
0000
0000
0000
1010
0000
0000
0000
0110
0000
0001
0000
1000
0000
0000
0000
0010
0000
0100
0000
0010
0000
0000
0000
1001
0000
0000
0000
0001
0010
0100
1000
,
0001
0000
0100
0010
1000
0000
0101
0000
1000
0100
0010
0001
1100
0000
1001
0000
,
0110
0000
1000
0010
0100
0000
0011
0000
1000
0100
0010
0000
0001
0001
0001
0000
,
1100
0000
0100
0010
1000
0000
0011
0000
1000
0100
0010
0001
1000
0000
0110
0000
,
1001
0001
0000
0100
0010
0000
1000
0010
0100
0000
0101
0000
1000
0100
0010
0100
,
1000
0000
0001
0100
0010
0000
1010
0000
0001
0010
0100
1000
0001
0000
0110
0000
,
1001
0000
1000
0001
1000
0000
0110
0000
1000
0010
1000
0000
0001
0001
0001
0000
,
1100
0010
0000
0100
0001
0000
1000
0010
0100
0000
0101
0000
1000
0100
0010
0000
,
0011
0000
0000
0000
1000
0000
0100
0000
0010
0000
0000
0000
0101
0000
0000
0000
1000
0000
0010
0000
0100
0000
0001
0000
1000
0010
0100
0001
0010
0100
1000
0001
,
1100
0000
0010
0100
0001
0000
1000
1100
0000
0001
0101
0000
1000
0000
0010
0100
1001
0000
1001
0000
0010
0000
0100
0001
0000
1000
0100
0000
0010
0001
0010
0000
,
1100
0000
1001
0000
1010
0000
0001
0101
0000
0010
1010
0000
1000
0010
0100
0001
1100
0000
1100
0000
0101
0000
1000
0010
0000
0010
0100
0000
0001
0010
0100
1000
,
1001
0000
0001
0100
0010
0000
0010
1000
0100
0000
0010
0000
0001
0000
1100
0000
0001
0000
0101
0000
0010
0000
1000
0001
1000
0000
0010
0000
0100
0000
0001
0000
,
1100
0000
0010
0100
0001
0000
0001
0010
0100
0000
1000
0000
0010
0000
0101
0000
0010
0000
1100
0000
0001
0000
1000
0001
1000
0000
0100
0000
0010
0000
0001
0000
,
1001
0000
0100
0010
1000
0000
1000
0010
0100
0000
0010
0000
1000
0000
0110
0000
0001
0000
1100
0000
0001
0000
0100
0010
1000
0000
0001
0000
0010
0000
0100
0000
,
1001
0000
0100
0010
1000
0000
0001
0010
0100
0000
1000
0000
0001
0000
1001
0000
0100
0000
1010
0000
0001
0000
1000
0010
0100
0001
0010
0100
1000
0100
0010
0001
,
2000
0000
0000
0000
0000
0000
0010
3100
0000
0000
0000
0000
0000
0000
0000
0001
,
0012
0000
0000
0000
0000
0000
0000
0000
0000
0000
0000
0000
1003
0000
0100
0000
0010
0000
0000
0010
0000
0000
0010
0000
0001
0000
0000
0001
0000
0000
0001
0000
,
2000
0000
0000
0000
0000
0000
0000
0000
0000
0000
0000
0000
3010
0000
0000
0000
0000
0000
0000
0000
0000
0000
0000
0000
0000
0000
0000
0000
0000
0000
0010
1000
,
0002
0000
0000
0000
0000
0000
0000
0000
2003
0000
0000
0000
0000
0000
0000
0000
3001
0100
0001
0000
0010
1000
0010
0000
0202
0000
0000
0000
0000
0000
0303
0000
,
1000
0100
0010
0001
1000
0100
0010
0001
0100
0010
1000
0001
0100
0010
1000
0001
,
1000
0000
0010
0000
0100
0000
0001
0000
1000
0000
0010
0000
0100
0000
0001
0000
0010
0000
0100
0000
1000
0000
0001
0000
0010
0100
1000
0000
0001
0000
0010
0000
,
0110
1000
0010
0100
1001
0100
0010
1000
0101
1000
0100
0010
0011
0100
0010
1000
,
0101
0000
1000
0000
0010
0000
0100
0000
1010
0000
0001
0000
0010
0000
0100
0000
1100
0000
0001
0000
0100
0000
0010
0000
0110
0001
1000
0000
0010
0000
1000
0000
,
0102
0000
0000
0000
0000
0000
0100
0013
0000
0000
0000
0000
0000
0000
0000
1000
,
1020
0000
0000
0000
0000
0000
0000
0000
0000
0000
0000
0000
0130
0000
0001
0000
1000
0000
0000
1000
0000
0000
1000
0000
0010
0000
0000
0010
0000
0000
0010
0000
,
0200
0000
0000
0000
0000
0000
0000
0000
0000
0000
0000
0000
0301
0000
0000
0000
0000
0000
0000
0000
0000
0000
0000
0000
0000
0000
0000
0000
0000
0000
1000
0100
,
0020
0000
0000
0000
0000
0000
0000
0000
0032
0000
0000
0000
0000
0000
0000
0000
1003
0100
0010
0000
0001
0010
0100
0000
2002
0000
0000
0000
0000
0000
3003
0000
,
0002
0000
0000
0000
0000
0000
0000
0000
1003
0000
0010
0000
0100
0000
0001
0000
1000
0100
0010
0001
0010
0100
1000
0100
0010
0000
0001
0000
0010
0000
0100
0000
,
1001
0000
0100
0010
1000
0000
0101
0000
1000
0100
0010
0001
1000
0000
0101
0000
,
1001
0000
0100
0010
0100
0000
0101
0000
1000
0100
0010
0000
0001
0001
0001
0000
,
0110
0000
0010
0100
0010
0000
0010
0001
0010
0100
1000
0001
0010
0100
0000
1000
,
0100
0010
0000
0001
1000
0000
1000
0010
0100
0000
0001
0010
0100
1000
0010
0100
,
1001
0000
0001
0010
0100
0000
1100
0000
0001
0100
0010
1000
0001
0000
0101
0000
,
1001
0000
0100
0010
1000
0000
0101
0000
1000
0010
0100
0000
0001
0001
0001
0000
,
1001
0001
0100
0000
1010
0000
0010
0100
0001
0000
1001
0000
0101
0000
1000
0010
,
0100
0000
0000
0000
1001
0000
0000
0000
0110
0000
0001
0000
1000
0000
0000
0000
1100
0000
0000
0000
0010
0000
0000
0000
0100
0001
0010
0100
1000
0010
0100
0001
,
1000
0000
0010
0100
0001
0000
1100
0000
0001
0010
0100
1000
0011
0000
1100
0000
,
1001
0000
1000
0001
0100
0000
0110
0000
1000
0001
0100
0000
0010
0010
0010
0000
,
1100
0000
0010
0100
0001
0000
1100
0000
0001
0010
0100
1000
0001
0000
1100
0000
,
1001
0001
0000
1000
0010
0000
0001
1000
0001
0000
0110
0000
1000
0010
0100
0010
,
1000
0000
0001
1000
0001
0000
1100
0000
0001
0100
0010
1000
0001
0000
0110
0000
,
0010
0000
0010
0100
1001
0000
1100
0000
0011
0000
1000
0010
0000
0010
1000
0000
,
0101
0000
0001
0100
0010
0000
0100
0010
0100
0000
0010
0000
1100
0000
0010
0000
,
1001
0000
0100
0010
0000
0100
0010
0000
0001
0000
0001
0010
0100
1000
0001
0010
,
2002
0000
0000
3003
;
