#TITLE:Flight of the Bumblebee;
#SUBTITLE:;
#ARTIST:Itzhak Perlman;
#TITLETRANSLIT:;
#SUBTITLETRANSLIT:;
#ARTISTTRANSLIT:;
#CREDIT:;
#BANNER:FotB-bn.png;
#BACKGROUND:FotB-bg.png;
#LYRICSPATH:;
#CDTITLE:;
#MUSIC:Flight of the Bumblebee.mp3;
#OFFSET:0.000;
#SAMPLESTART:45.760;
#SAMPLELENGTH:12.000;
#SELECTABLE:YES;
#BPMS:0.000=390.001,200.000=370.001,227.000=390.001,448.000=370.001;
#STOPS:;
#BGCHANGES:;
// cache tags:
#FIRSTBEAT:0.000;
#LASTBEAT:454.000;
#SONGFILENAME:Songs/dragon force/bumble 2/Flight of the Bumblebee.sm;
#HASMUSIC:1;
#HASBANNER:1;
#MUSICLENGTH:77.008;
// end cache tags

//---------------pump-double - ----------------
#NOTES:
     pump-double:
     :
     Challenge:
     15:
     1.000,1.000,0.143,0.039,0.000,864.000,11.000,3.000,0.000,5.000:
0100000000
0010000000
0100000000
0010000000
0001000000
0010000000
0001000000
0010000000
,
0000100000
0010000000
0000100000
0010000000
0000010000
0001000000
0000010000
0001000000
,
0000001000
0000000100
0000001000
0000000100
0000100000
0000001000
0000100000
0000001000
,
0000010000
0001000000
0000010000
0001000000
0010000000
1000000000
0010000000
1000000000
,
1000000000
0100000000
0010000000
1000000000
0001000000
0000100000
0010000000
0001000000
,
0000100000
0001000000
0010000000
0000100000
1000000000
0001000000
0010000000
0100000000
,
1000000000
0001000000
0010000000
0000100000
0100000000
0010000000
0001000000
0000100000
,
0001000000
0000010000
0000000100
0000001000
0000000010
0000000001
0000000100
0000001000
,
0000000001
0000000010
0000000100
0000001000
0000010000
0000000010
0000000100
0000001000
,
0000100000
0001000000
0010000000
0100000000
1000000000
0010000000
0001000000
0000100000
,
0000010000
0000001000
0000000100
0000001000
0000010000
0000100000
0001000000
0010000000
,
0001000000
0100000000
1000000000
0000100000
0001000000
0000001000
0000010000
0000000010
,
0000000100
0000000010
0000000001
0000001000
0000010000
0000000001
0000000010
0000000100
,
0000000010
0000010000
0000000010
0000001000
0000000001
0000000100
0000000010
0000010000
,
0000100000
1000000000
0010000000
1000000000
0000100000
0010000000
0000100000
0000010000
,
0000000100
0000000001
0000010000
0000000001
0000000010
0000000100
0000001000
0000010000
,
0001000000
0010000000
0100000000
0001000000
1000000000
0001000000
0100000000
0010000000
,
0001000000
0000010000
0000000100
0000001000
0000000010
0000000100
0000000010
0000010000
,
0001000000
0010000000
0100000000
1000000000
0001000000
0010000000
0100000000
0000100000
,
0000001000
0000000100
0000000010
0000010000
0000001000
0000000100
0000010000
0000000010
,
0000000001
0000000010
0000000100
0000001000
0000010000
0000001000
0000000100
0000000010
,
0000000001
0000000010
0000001000
0000010000
0001000000
1000000000
0100000000
0000100000
,
0001000000
0010000000
1000000000
0010000000
0100000000
0000100000
0001000000
0010000000
,
1000000000
0100000000
0001000000
0000100000
1000000000
0100000000
0001000000
0000100000
,
0001000000
0010000000
1000000000
0010000000
0100000000
0010000000
0000100000
0010000000
,
0000010000
0000000100
0000000010
0000000100
0000000001
0000000100
0000001000
0000000100
,
1000000000
0010000000
0100000000
0010000000
0001000000
0010000000
0000100000
0010000000
,
0000010000
0000000100
0000001000
0000000100
0000000010
0000000100
0000000001
0000000100
,
0001000000
0010000000
0001000000
0010000000
0000010000
0000001000
0000010000
0000001000
,
0000000010
0000000100
0000010000
0000100000
0010000000
0001000000
0000100000
0000010000
,
0000000001
0000000100
0000001000
0000010000
0000000010
0000000001
0000000100
0000001000
,
0000010000
0000000010
0000000100
0000000001
0000001000
0000000100
0000010000
0000000010
,
0000001000
0000000100
0000001000
0000000001
0000000010
0000000100
0000000010
0000001000
,
0001000000
0010000000
1000000000
0000100000
0010000000
0100000000
0001000000
1000000000
,
0000001000
0000010000
0000000010
0000000100
0000000001
0000001000
0000010000
0000000010
,
0001000000
1000000000
0000100000
0010000000
0100000000
0000100000
1000000000
0001000000
,
0100000000
1010000000
0000100000
0000001000
0001000000
0000000100
0000000010
0000010000
,
0000001000
0000010000
0001000000
0000100000
0000001000
0000000100
0001000000
0010000000
,
1000000000
0100000000
0010000000
0001000000
0000110000
0000001000
0000000100
0000000010
,
0000000001
0000000010
0000000100
0000001000
0000110000
0001000000
0010000000
0100000000
,
1000000000
0010000000
0000100000
0001000000
0010000000
1000000000
0001000000
0100000000
,
0000100000
0000001000
0000000001
0000000010
0000000100
0000001000
0000010000
0000000001
,
0001000000
0000100000
1000000000
0001000000
0010000000
0100000000
0000100000
0001000000
,
0000001000
0000010000
0000000010
0000000100
0000000001
0000001000
0000010000
0000000010
,
0000100000
0001000000
0000001000
0000010000
0001000000
0010000000
0000000100
0000001000
,
1000000000
0100000000
0010000000
0000100000
0000100000
0010000000
0100000000
0000100000
,
1000000000
0100000000
0000100000
0001000000
0010000000
1000000000
0100000000
0001000000
,
0001000000
0010000000
0000010000
0000000100
0000001000
0000000010
0000010000
0000000001
,
0000000100
0000010000
0000100000
0001000000
0010000000
0000010000
0000001000
0000000100
,
0001000000
0000010000
0000100000
0000000100
0000001000
0000100000
0001000000
0010000000
,
2010000000
0001000000
0010000000
0000100000
,
3002000000
0000000000
1000000000
0010000000
,
0100000000
0010000000
0000100000
0000010000
,
0003020100
0000000010
0000100000
0010000000
,
1000000000
0100000000
1000000000
0000100000
,
1000031000
0100000000
0010000000
0001000000
,
0000100000
0000000000
0000001000
0000000000
0000000100
0000000000
0000000010
0000000100
,
0000010000
0000000010
0000001000
0000000010
0000000100
0000000001
0000001000
0000000010
,
0000001000
0000000010
0000000100
0000001000
0000000010
0000000001
0000001000
0000010000
,
0001000000
0010000000
1000000000
0000100000
0100000000
0010000000
0001000000
0000100000
,
0000001000
0000010000
0000000010
0000000001
0000000010
0000000100
0000001000
0000010000
,
0001000000
0010000000
1000000000
0100000000
0000100000
0010000000
0001000000
1000000000
,
0010000000
0100000000
0010000000
1000000000
0000100000
0010000000
0001000000
0000100000
,
0000001000
0000000000
0000010000
0000000010
0000000001
0000000100
0000001000
0000010000
,
0000001000
0000100000
0001000000
0000010000
0000000100
0000100000
0010000000
0000010000
,
0000001000
0000000010
0000010000
0001000000
1000000000
0100000000
0000100000
0000000100
,
0000100000
0001000000
0000001000
0000010000
0000100000
0001000000
0000001000
0000010000
,
0000100000
0001000000
0010000000
0000001000
0000000100
0000000010
0000010000
0010000000
,
0000010000
0001000000
0000001000
0000000100
0000001000
0001000000
0010000000
0000010000
,
0000100000
0001000000
0000001000
0000000100
0000100000
0001000000
0010000000
0100000000
,
1000000000
0100000000
0010000000
0001000000
0000100000
0001000000
0010000000
0100000000
,
0010000000
0100000000
0000100000
1000000000
0001000000
0010000000
0100000000
0000100000
,
0001000000
0000100000
0010000000
1000000000
0100000000
1000000000
0010000000
0001000000
,
0001000000
1000000000
0010000000
0100000000
0000100000
0001000000
0000001000
0001000000
,
0000001000
0001000000
0000001000
0001000000
0000010000
0000100000
0000001000
0001000000
,
0000000100
0000010000
0010000000
0001000000
0000010000
0000000100
0001000000
0010000000
,
0000100000
0001000000
0010000000
0000000100
0000001000
0000010000
0000000010
0001000000
,
1000000000
0100000000
0010000000
0001000000
0000100000
0000010000
0000001000
0000000100
,
0000000010
0000000001
0000000010
0000000100
0000001000
0000000001
0000010000
0000000010
,
0000000100
0000010000
0000000010
0000001000
0000000001
0000000010
0000000100
0000010000
,
0000000100
0000010000
0000000010
0000000100
0000000001
0000010000
0000000100
0000010000
,
0000000001
0000000100
0000001000
0001000000
0010000000
1000000000
0000100000
0010000000
,
1000000000
0000100000
0010000000
0000100000
0100000000
0010000000
1000000000
0001000000
,
0010000000
0100000000
0000100000
0010000000
0001000000
1000000000
0010000000
0000100000
,
0000010000
0000000100
0000010000
0000000100
0000000001
0000000100
0000010000
0000001000
,
0001000000
1000000000
0010000000
0100000000
0000100000
0010000000
0001000000
1000000000
,
0010000000
0100000000
0000100000
1000000000
0001000000
0010000000
0000100000
1000000000
,
0001000000
0010000000
1000000000
0000100000
0001000000
0100000000
0000100000
0000001000
,
0000000010
0000000100
0000010000
0000000010
0000001000
0000000100
0000000010
0000000001
,
0000000010
0000000100
0000001000
0000010000
0000000010
0000000100
0000001000
0000010000
,
0000100000
0010000000
1000000000
0000100000
0010000000
0001000000
1000000000
0100000000
,
0010000000
0100000000
0010000000
0100000000
0000100000
0001000000
0010000000
1000000000
,
0100000000
0010000000
0001000000
1000000000
0000100000
0001000000
0100000000
0001000000
,
0010000000
1000000000
0000100000
0010000000
0100000000
0000100000
0001000000
0010000000
,
0000010000
0000000100
0000010000
0000000010
0000000100
0000000001
0000001000
0000000010
,
0000000100
0000000001
0000001000
0000000010
0000010000
0000000100
0000001000
0000000010
,
0000100000
0010000000
0100000000
0000100000
1000000000
0001000000
0010000000
0100000000
,
0000100000
0000010000
0000000100
0000000001
0000000100
0000001000
0000000001
0000010000
,
0000100000
1000000000
0001000000
0010000000
0100000000
0000100000
0001000000
0000010000
,
0000001000
0000000100
0000001000
0000010000
0001000000
0000100000
0010000000
0000100000
,
0000010000
0000001000
0001000000
0010000000
0000001000
0000000010
1000000000
0001000000
,
0100000000
1000000000
0010000000
0000100000
0000010000
0000001000
0000000100
0000010000
,
0000000010
0000100000
0010000000
0000010000
0000001000
1000000000
0000100000
0000000010
,
1000000000
0000000010
0100000000
0000000001
0000001000
1000000000
0100000000
0000000010
,
1000000000
0100000000
0000000100
0000000001
1000000000
0010000000
0000000001
0000000100
,
0000100000
0010000000
0000001000
0000010000
0000100000
0000001000
0000010000
0000100000
,
0000010000
0000100000
0000010000
0000100000
0000010000
0001000000
0000001000
0001000000
,
1000000000
0100000000
0010000000
0001000000
0000100000
0000010000
0000001000
0000000100
,
0000000010
1000000000
0000100000
0100000000
0000010000
0000001000
0000000010
0000010000
,
0001000000
0010000000
1000000000
0000100000
0010000000
0000001000
0000000010
0000000001
,
0000001000
0000100000
0000001000
0001000000
0010000000
0100000000
0000010000
0000000000
,
0000000000
0000001000
0010000100
0000000000
0000000000
0000000000
0000110000
0000000000
,
0000000000
0011111100
0000000000
0100110010
,
0000000000
0000000000
1111111111
0000000000
;
