#TITLE:The Big Black;
#SUBTITLE:EXoduz Violation;
#ARTIST:The Quick Brown Fox;
#TITLETRANSLIT:;
#SUBTITLETRANSLIT:;
#ARTISTTRANSLIT:;
#CREDIT:;
#BANNER:../Banner.png;
#BACKGROUND:../Background.png;
#LYRICSPATH:;
#CDTITLE:;
#MUSIC:The Quick Brown Fox - The Big Black.ogg;
#OFFSET:-7.080;
#SAMPLESTART:19.067;
#SAMPLELENGTH:30.000;
#SELECTABLE:YES;
#BPMS:0.000=360.270;
#STOPS:;
#BGCHANGES:;
// cache tags:
#FIRSTBEAT:0.000;
#LASTBEAT:808.000;
#SONGFILENAME:Songs/EXoduz Violation/The Big Black/The Quick Brown Fox - The Big Black.sm;
#HASMUSIC:1;
#HASBANNER:1;
#MUSICLENGTH:145.024;
// end cache tags

//---------------dance-single - ----------------
#NOTES:
     dance-single:
     :
     Challenge:
     18:
     1.000,1.000,0.159,0.876,0.848,1517.000,23.000,127.000,4.000,4.000:

2002
0000
0000
0000
0003
3001
0100
0010
,
1000
0100
0010
0001
1000
0010
0100
0001
,
1000
0010
0100
0000
0001
0000
0010
0000
0100
0000
1000
0000
0001
0000
0010
0000
,
0100
1000
0010
0100
0001
1000
0010
1000
,
0010
0100
0001
0000
1000
0000
0010
0000
0100
0000
0001
0000
0010
0000
0100
0000
,
1000
0100
0010
0001
1000
0010
0100
0001
,
1000
0100
0010
0001
1000
0010
1000
0010
0100
0001
1000
0001
,
1000
0100
0010
0001
0010
0001
0010
0001
1000
0010
0100
0001
,
0200
0310
1000
0100
0010
0001
1000
0010
,
0100
0001
0010
0100
1000
0001
0010
0100
,
1000
0001
0010
0000
0100
0000
1000
0000
0010
0000
0100
0000
0001
0000
1000
0000
,
0010
0100
0001
0010
0100
1000
0100
1000
,
0010
0100
0001
0000
1000
0000
0010
0000
0100
0000
0001
0000
0010
0000
0100
0000
,
1000
0100
1000
0010
0100
0001
1000
0010
,
1000
0020
1030
0000
0000
0000
0010
0200
0310
0000
0000
0000
,
0100
0002
0103
0000
0000
0000
0010
2000
3010
0000
0000
0000
,
1221
0000
0000
0000
0000
0000
0000
0000
0000
0000
0330
0000
,
1111
0000
0000
0000
0000
0000
1000
0001
0100
0010
1000
0100
,
0040
0030
0000
0000
0001
0000
0000
0000
1000
0000
0000
0000
0010
0000
0000
0000
0100
0000
0000
0000
0001
0000
0000
0000
0010
0000
0000
0000
0100
0000
0000
0000
,
1000
0100
1000
0010
0100
0001
1000
0010
,
1000
0010
0100
0001
0010
0100
1000
0001
,
0010
0000
0100
0000
1000
0000
0010
0000
0100
0001
0100
0001
0200
0000
0301
0000
,
1000
0010
0100
0001
0010
0100
1000
0100
,
1000
0010
0100
0001
1000
0100
0010
0001
,
0010
0100
1000
0010
1000
0010
0100
0001
,
1000
0001
1000
0100
0020
0000
0031
1000
,
0010
0100
0001
0010
0100
1000
0001
0010
,
0100
1000
0010
0100
0001
1000
0010
1000
,
0010
0100
0001
0010
0100
1000
0100
1000
,
0010
0000
0100
0000
0001
0000
1000
0000
0010
0100
0010
0400
0040
0000
0000
0330
,
0100
0001
1000
0010
0100
0001
0010
0100
,
1000
0000
0100
0000
1000
0000
0010
0000
0100
0001
0100
0000
0004
0400
0303
0000
,
1000
0010
0100
0001
0010
0100
1000
0001
,
0010
0000
0000
0100
0000
0000
1000
0000
0000
0010
0000
0000
0100
0000
0000
0001
0000
0000
1000
0000
0001
0000
1000
0000
,
0010
0100
0001
0010
0100
1000
0010
0100
,
0001
1000
0010
1000
0010
0100
0001
0010
,
0100
1000
0001
0010
0100
1000
0010
0100
,
0001
0000
1000
0000
0010
0000
0100
0000
0001
1000
0001
1000
0002
0000
0000
0000
,
1003
0001
1000
0010
0100
0001
0010
0100
,
1000
0000
0000
0001
0000
0000
0010
0000
0000
0100
0000
0000
1000
0000
0000
0001
0100
0000
0000
0000
0000
0001
1000
0000
,
0000
0001
1000
0010
0100
0001
0010
0100
,
1000
0001
0010
0100
2000
0000
0000
0000
,
3001
1000
0010
1000
0010
0100
0001
1000
,
0001
1000
0001
1000
0100
0010
0001
0100
,
0001
0100
0001
1000
0010
0100
0001
0010
,
0001
0000
0010
0000
0001
0000
0010
0000
0001
1000
0001
4000
0004
0000
0000
3003
,
1000
0000
0001
0000
1000
0000
0010
0000
0100
0000
0001
0000
0010
0100
4000
0000
,
0000
0000
3004
0000
0000
0000
4003
0000
0000
0000
3010
0100
0004
0000
0000
0000
,
2003
0000
3001
1000
0010
0100
0001
0010
,
0100
1000
0100
1000
0100
2000
0100
3000
,
1100
0000
0000
0000
0000
0000
0001
1000
,
0010
0100
0001
1000
0010
0100
0001
1000
,
0010
0100
0001
1000
0001
1000
0010
0100
,
0001
1000
0001
1000
0010
0100
0001
1000
,
0001
1000
0010
0100
0001
1000
0001
1000
,
0010
0100
0001
1000
0001
1000
0010
0100
,
0001
1000
0001
1000
0010
0100
0001
1000
,
0001
1000
0010
0100
0001
1000
0001
1000
,
0040
0130
0001
1000
0010
0100
0001
0010
,
0001
0010
0100
1000
0010
1000
0010
0100
,
0001
1000
0010
1000
0010
0100
0001
0010
,
0100
1000
0100
0010
0001
1000
0010
0100
,
0001
1000
0001
1000
0100
0010
0001
1000
,
0100
0010
0001
1000
0010
1000
0010
0100
,
0001
1000
0001
1000
0100
0010
0001
0010
,
0100
1000
0100
0010
0001
1000
0010
0100
,
0020
0000
0000
0000
0130
0001
1000
0010
,
0100
0001
0010
0100
1000
0100
1000
0010
,
0100
0001
1000
0010
1000
0010
0100
0001
,
0010
0100
1000
0100
1000
0001
0010
0100
,
1000
0010
0100
0001
1000
0010
1000
0010
,
0100
0001
1000
0100
0010
0001
0010
0001
,
1000
0010
1000
0010
0100
0001
0010
0100
,
1000
0001
1000
0001
1000
0100
0010
0001
,
1000
0001
1000
0100
0010
0001
1000
0010
,
1000
0010
0100
0001
1000
0010
0100
0001
,
0010
0001
0010
0100
1000
0001
0010
0001
,
1000
0010
0100
0001
1000
0010
1000
0010
,
0100
0001
1000
0100
0010
0001
1000
0100
,
0010
0001
1000
0010
1000
0010
0100
0001
,
0010
0100
1000
0001
0010
0100
1000
0010
,
0100
0001
1000
0010
0100
0001
0100
0001
,
4000
3001
0100
0010
1000
0100
0010
0001
,
4000
0000
0000
3000
0000
0000
0000
0000
0000
0000
0000
0000
0010
0000
0100
0000
0010
0000
0100
0000
0000
MMMM
0000
0000
,
1000
0001
1000
0001
1000
0001
1000
0001
1000
0001
1000
0001
,
1000
0001
1000
0001
1000
0001
4000
0000
0000
0000
0000
0000
,
3010
0100
0010
0100
0010
0100
0010
0100
0010
0100
0010
0100
,
0010
0000
0000
0000
0100
0000
0000
0000
0010
0000
0000
0000
0100
0000
0000
0000
0010
0000
0000
0000
0000
0000
0000
0000
0100
0000
0000
0001
0000
0000
0400
0000
0000
0000
0000
0000
0000
0000
0000
0000
0000
0000
0000
0000
0000
0000
0000
0000
,
0301
0100
0001
0100
0001
0100
0001
0100
0001
0100
0001
0100
,
0001
0100
0001
0100
0001
0100
0001
0100
0001
0400
0000
0000
,
0302
0203
0320
2030
,
3200
0320
0032
2003
,
3001
1000
0001
1000
0001
1000
0001
1000
0001
1000
0001
0100
,
0001
0100
0001
0100
0001
0100
0001
1000
0010
1000
0010
1000
,
0010
1000
0010
1000
0100
0010
0001
0010
0001
0010
0001
0010
,
0002
2003
3020
2030
,
3001
1000
0001
1000
0001
1000
0001
1000
0001
1000
0010
1000
,
0010
1000
0010
1000
0010
1000
0010
1000
0010
0100
0010
0100
,
0010
0100
0010
0200
0000
0000
0302
0000
0000
2003
0000
0000
,
3020
0230
0302
0023
,
0130
1000
0100
1000
0100
1000
0100
1000
0010
1000
0010
1000
,
0010
1000
0001
1000
0001
1000
0001
1000
0001
1000
0001
1000
,
0001
4000
3020
0000
0230
0000
0302
0000
,
0023
0000
0000
0230
0000
0000
1300
0010
1000
0010
1000
0010
,
1000
0010
1000
0010
1000
0010
1000
0010
1000
0001
1000
0001
,
1000
0000
0001
0000
1000
0000
0001
0000
0000
4000
0000
0000
3000
0000
0000
0010
0000
0000
0200
0000
0000
0000
0000
0000
,
0002
0300
2003
0000
3020
0000
0230
0000
,
0302
0000
2003
0000
3020
0000
0130
0010
,
0200
0302
0023
0230
,
2300
3020
0230
0302
,
2003
0000
3010
0100
0002
0000
2003
0000
,
3020
0230
0302
0023
,
0030
0100
1000
0100
1000
0100
1000
0100
1000
0100
1000
0100
,
1000
0010
0100
0010
0100
0010
0100
0010
0100
0010
0100
0010
,
0100
0010
0100
0001
0000
4000
3000
0040
,
0030
0100
0001
0000
1000
0040
0030
0000
,
1001
0000
1000
0010
0100
0001
1000
0010
,
0100
0001
0010
0100
1000
0100
1000
0001
,
0010
0100
1000
0010
0100
0001
1000
0010
,
1000
0010
0100
0001
0010
0100
1000
0001
,
0010
0001
0010
0001
1000
0010
1000
0010
,
0100
0001
0010
0100
1000
0100
0010
0001
,
1000
0010
1000
0010
0100
0001
1000
0001
,
1000
0100
0010
0001
0010
0100
1000
0001
,
0010
0100
1000
0100
0010
0001
1000
0010
,
0100
0001
1000
0001
1000
0100
0010
0001
,
1000
0010
1000
0010
0100
0001
1000
0001
,
1000
0100
0010
0001
0100
0001
0100
0001
,
0010
0100
1000
0100
0010
0001
1000
0010
,
0100
0001
1000
0001
1000
0010
0100
0001
,
0010
0100
1000
0100
0010
0001
1000
0010
,
1000
0010
0100
0001
0010
0100
1000
0000
,
0022
0000
0000
0033
0202
0303
0100
0010
,
1000
0001
1000
0010
0100
0001
0010
0100
,
1000
0100
1000
0010
0100
0001
1000
0010
,
1000
0010
0100
0001
0010
0100
1000
0100
,
1000
0010
0100
0001
1000
0010
1000
0010
,
0100
0001
0010
0100
1000
0100
1000
0010
,
0100
0001
1000
0010
1000
0010
0100
0001
,
0010
0100
1000
0001
0010
0001
1000
0010
,
0100
0001
1000
0010
1000
0010
0100
0001
,
0010
0100
1000
0100
1000
0010
0100
0001
,
1000
0010
1000
0010
0100
0001
0010
0100
,
1000
0010
1000
0010
0100
0001
1000
0010
,
0100
0001
0010
0100
1000
0010
0100
0001
,
1000
0001
1000
0010
0100
0001
0010
0100
,
1000
0100
1000
0010
0100
0001
1000
0010
,
1000
0010
0100
0001
0010
0100
1000
0001
,
2000
0000
0000
0000
0000
0000
3020
0000
0000
0130
0001
0100
,
0001
1000
0010
0100
0001
0010
0100
1000
,
0020
0000
0000
0000
0000
0000
0230
0000
0000
0301
0010
0100
,
1000
0001
1000
0010
0100
0001
0010
0100
,
2000
0000
0000
0000
0000
0000
3020
0000
0000
0130
0001
1000
,
0010
0100
0001
0010
0100
1000
0001
0010
,
0200
1300
0100
1000
0100
1000
0100
1000
,
0010
1000
0010
1000
0010
1000
0010
0100
,
0020
0000
0000
0000
0000
0000
0230
0000
0000
0301
0010
0100
,
1000
0100
0010
0001
1000
0010
0100
0001
,
2000
0000
0000
0000
0000
0000
3020
0000
0000
0130
0001
0010
,
0100
1000
0010
1000
0010
0100
0001
0010
,
0200
0000
0000
0000
0000
0000
2300
0000
0000
3010
0100
0001
,
2000
0000
0000
0000
0000
0000
0000
0000
0000
3001
0100
0010
,
2000
0000
0000
0000
0000
0000
3001
0100
0010
0000
0000
0000
,
1000
0100
0010
0000
0000
0000
0001
0100
0010
0000
0000
0000
,
2222
0000
0000
3333
,
2222
0000
0000
3333
0000
0000
1000
0001
0100
0000
0000
0000
,
0120
1030
0100
0010
0001
1000
0010
0100
,
0001
0010
0100
1000
0010
0100
0001
1000
,
0010
1000
0010
0100
0001
0010
0100
1000
,
0001
0000
0000
0010
0000
0000
0100
0000
0000
1000
0000
0000
0010
0000
0100
0000
0001
0000
1000
0000
0000
0010
0000
0000
,
0100
0001
1000
0010
1000
0010
0100
0001
,
0010
0100
1000
0010
0100
0001
1000
0010
,
0100
0001
0100
0002
0000
0000
0103
0001
0100
0002
0000
0000
,
0103
0010
0100
0020
0000
0000
0130
0010
0100
0020
0000
0000
,
1030
0100
0010
0001
1000
0010
0100
0001
,
1000
0010
0100
0001
0010
0100
1000
0100
,
1000
0010
0100
0001
1000
0010
1000
0010
,
0100
0000
0000
0001
0000
0000
0010
0000
0000
0100
0000
0000
1000
0000
0001
0000
0010
0000
0001
0000
0010
0000
0001
0000
,
1000
0001
1000
0001
1000
0010
0100
0001
,
0010
0100
1000
0001
0010
0100
1000
0010
,
0100
0001
0100
0001
0100
0001
0100
0001
0100
0001
0100
0001
,
1000
0001
1000
0001
1000
0001
2000
0000
0000
0000
0000
0000
,
3001
1000
0001
1000
0010
0100
0001
0010
,
0100
1000
0010
1000
0010
0100
0001
1000
,
0010
1000
0010
0100
0001
0010
0100
1000
,
0001
0000
0000
0010
0000
0000
0100
0000
0000
1000
0000
0000
0010
0000
0100
0000
0010
0000
0100
0000
0010
0000
0100
0000
,
0010
0100
0001
1000
0010
0100
0001
0010
,
0001
0010
0001
0010
0100
1000
0010
0100
,
0001
1000
0001
1000
0001
1000
0001
1000
0001
1000
0010
1000
,
0010
1000
0010
1000
0010
0100
0010
0100
0010
0100
0010
0100
,
0010
0100
0001
1000
0010
1000
0010
0100
,
0001
0010
0001
0010
0001
0010
0100
1000
,
0010
0100
0001
1000
0010
1000
0010
0100
,
0001
0000
0000
0010
0000
0000
0100
0000
0000
1000
0000
0000
0001
0000
0010
0000
0100
0000
4000
0000
0000
0000
0000
0000
,
3002
2003
3020
0230
0302
0023
0230
2300
,
3020
0230
0302
2003
3020
0230
0302
0023
,
0230
2300
3020
0230
0302
2003
3002
2003
,
3020
0230
0302
0023
0230
0000
0000
0300
,
1200
0000
2300
0000
,
0000
0000
0000
0000
,
0000
0000
0000
0000
,
0000
0000
0000
0000
,
3000
0000
0000
0000
;
