#TITLE:Amazing Pony (German Version);
#SUBTITLE:Feels The Arrow;
#ARTIST:Ocelot;
#TITLETRANSLIT:;
#SUBTITLETRANSLIT:;
#ARTISTTRANSLIT:;
#CREDIT:Ov3rHell3XoduZ;
#BANNER:../bn.png;
#BACKGROUND:../bg.png;
#LYRICSPATH:;
#CDTITLE:;
#MUSIC:Amazing Pony - German Version.ogg;
#OFFSET:-1.660;
#SAMPLESTART:42.355;
#SAMPLELENGTH:11.960;
#SELECTABLE:YES;
#BPMS:0.000=150.000;
#STOPS:;
#BGCHANGES:;
// cache tags:
#FIRSTBEAT:4.000;
#LASTBEAT:483.000;
#SONGFILENAME:Songs/EXoduz' Feels The Arrow/Amazing Pony German Version - [Ov3rHell3XoduZ]/Amazing Pony.sm;
#HASMUSIC:1;
#HASBANNER:1;
#MUSICLENGTH:195.946;
// end cache tags

//---------------dance-single - Ov3rHell3XoduZ----------------
#NOTES:
     dance-single:
     Ov3rHell3XoduZ:
     Challenge:
     14:
     1.000,1.000,0.000,0.005,1.000,1905.000,0.000,1.000,3.000,0.000:

0000
0000
0000
0000
,
1000
0010
1000
0100
0010
0001
1000
0010
0100
0001
0010
0001
1000
0100
0010
0001
,
1000
0010
1000
0100
0010
0001
1000
0010
1000
0100
0010
0001
0100
0001
0010
0100
,
1000
0100
1000
0010
0100
0001
1000
0010
1000
0010
0100
0001
0010
0100
1000
0001
,
1000
0100
1000
0100
0010
0001
1000
0010
0100
0001
0010
0001
0010
0100
1000
0001
,
1000
0010
1000
0100
0010
0001
1000
0010
1000
0010
0100
0001
0010
0100
1000
0001
,
0010
0100
1000
0100
1000
0010
0100
0001
1000
0010
0100
0001
0010
0001
0010
0100
,
1000
0010
0100
0001
1000
0100
0010
0001
0010
0001
1000
0010
0100
0001
0010
0100
,
1000
0010
0100
0010
1000
0100
0010
0001
1000
0100
0010
0001
1000
0010
1000
0100
,
0010
0001
1000
0010
0100
0001
0010
0001
1000
0100
0010
0100
1000
0010
0100
0001
,
0010
0001
1000
0010
0100
0001
1000
0100
0010
0001
1000
0010
1000
0100
0010
0001
,
1000
0010
0100
0001
0010
0001
1000
0100
0010
0001
1000
0100
0010
0001
1000
0010
,
1000
0100
0010
0001
0100
0001
0010
0100
1000
0010
0100
0010
1000
0100
0010
0100
,
1000
0100
1000
0010
0100
0001
0010
0001
0010
0100
1000
0010
0100
0001
1000
0100
,
0010
0100
1000
0001
1000
0010
1000
0001
1000
0100
0010
0001
1000
0010
0100
0010
,
1000
0100
0010
0001
1000
0100
0010
0001
0100
0001
0010
0100
1000
0010
1000
0001
,
1000
0100
1000
0100
0010
0001
1000
0010
1000
0001
1000
0100
1000
0010
0100
0001
,
0010
0100
0010
0001
1000
0010
1000
0100
0010
0001
1000
0010
0100
0001
0010
0001
,
1000
0100
0010
0001
1000
0010
1000
0100
1000
0001
0100
0001
0010
0001
1000
0010
,
0100
0001
0010
0100
1000
0010
0100
0010
1000
0100
0010
0001
1000
0010
1000
0010
,
0100
0001
0010
0100
1000
0001
0100
0001
0100
0010
1000
0100
0010
0001
1000
0010
,
1000
0010
0100
0001
0010
0100
1000
0010
0100
0010
1000
0100
0010
0001
1000
0001
,
0100
0001
0010
0100
0010
0001
1000
0010
1000
0100
1000
0001
0100
0001
0010
0100
,
1000
0001
1000
0001
0100
0010
1000
0100
0010
0100
1000
0100
1000
0010
0100
0001
,
0010
0100
0010
0001
1000
0010
1000
0010
0100
0001
0010
0100
1000
0010
0100
0001
,
1000
0001
1000
0010
1000
0100
0010
0001
1000
0010
0100
0001
0010
0001
1000
0001
,
0100
0001
0010
0100
1000
0010
0100
0010
1000
0100
0010
0001
1000
0001
1000
0010
,
1000
0100
0010
0001
1000
0010
0100
0001
0010
0001
1000
0100
0010
0100
1000
0010
,
1000
0010
0100
0001
0100
0001
0010
0100
1000
0010
0100
0001
1000
0100
1000
0010
,
0100
0001
0100
0001
0010
0100
0010
0001
1000
0010
1000
0010
0100
0001
0010
0100
,
1000
0010
0100
0010
1000
0100
0010
0001
1000
0001
1000
0010
0100
0001
0010
0001
,
0010
0100
1000
0010
1000
0100
0010
0001
1000
0001
1000
0010
0100
0001
0010
0001
,
1000
0100
0010
0100
1000
0010
0100
0001
1000
0100
1000
0010
0100
0001
0010
0001
,
1000
0010
0100
0001
1000
0100
0010
0001
1000
0010
1000
0100
0010
0001
1000
0010
,
0100
0001
0010
0001
1000
0100
0010
0100
1000
0010
0100
0001
1000
0010
0100
0001
,
1000
0100
1000
0100
0010
0001
1000
0010
1000
0100
0010
0001
1000
0010
0100
0001
,
0010
0001
1000
0100
0010
0001
1000
0010
1000
0100
0010
0001
1000
0010
0100
0010
,
1000
0100
0010
0001
1000
0001
0010
0001
1000
0100
0010
0001
1000
0010
0100
0010
,
1000
0100
0010
0001
1000
0010
1000
0100
0010
0001
0100
0001
0010
0001
1000
0001
,
0100
0001
0010
0100
1000
0100
0010
0001
1000
0010
1000
0100
0010
0001
1000
0010
,
0100
0001
0010
0001
1000
0100
0010
0001
1000
0010
1000
0100
0010
0001
1000
0010
,
0100
0001
0100
0001
1000
0100
1000
0010
0100
0001
0010
0100
0010
0001
0010
0001
,
1000
0010
0100
0010
1000
0100
0010
0001
1000
0001
1000
0010
0100
0001
0010
0001
,
0010
0100
1000
0010
0100
0001
1000
0100
1000
0100
0010
0001
1000
0010
0100
0001
,
0010
0001
1000
0010
1000
0001
0010
0100
1000
0010
0100
0001
1000
0100
1000
0001
,
0100
0010
1000
0100
1000
0001
0100
0001
0010
0100
1000
0010
0100
0001
1000
0100
,
1000
0100
0010
0001
1000
0010
0100
0001
0010
0001
1000
0010
1000
0010
0100
0001
,
1000
0100
0010
0001
0010
0001
1000
0010
0100
0001
1000
0100
1000
0100
1000
0010
,
0100
0001
0010
0100
0010
0001
0010
0001
1000
0010
1000
0100
0010
0001
0010
0001
,
1000
0010
0100
0001
0010
0001
1000
0100
0010
0100
1000
0001
1000
0001
1000
0010
,
0100
0001
0010
0100
0010
0001
1000
0010
1000
0100
0010
0001
1000
0010
1000
0100
,
0010
0001
1000
0010
1000
0100
0010
0001
1000
0010
0100
0001
0010
0001
1000
0010
,
0100
0001
0010
0001
1000
0100
0010
0100
1000
0001
0100
0001
1000
0010
1000
0100
,
0010
0001
1000
0001
1000
0010
1000
0100
0010
0001
1000
0001
0100
0001
0100
0010
,
1000
0100
0010
0100
1000
0010
0100
0001
0010
0001
1000
0100
0010
0001
1000
0001
,
0010
0001
1000
0100
0010
0100
1000
0010
0100
0001
1000
0100
1000
0010
0100
0001
,
1000
0100
0010
0001
1000
0010
1000
0100
0010
0001
1000
0010
0100
0001
0010
0001
,
1000
0100
0010
0100
1000
0010
1000
0001
1000
0100
1000
0010
0100
0001
0010
0001
,
0010
0100
1000
0010
0100
0001
1000
0100
1000
0100
0010
0001
1000
0010
0100
0001
,
1000
0001
0010
0001
1000
0100
0010
0001
1000
0010
1000
0100
0010
0001
1000
0010
,
0100
0001
0010
0001
1000
0100
0010
0100
1000
0001
0100
0001
1000
0010
1000
0010
,
0100
0001
0010
0100
1000
0001
0100
0001
1000
0010
0100
0001
0010
0001
1000
0100
,
0010
0001
1000
0010
1000
0010
0100
0001
0010
0100
1000
0001
0100
0001
0100
0010
,
1000
0100
0010
0100
1000
0010
0100
0001
0010
0001
1000
0100
0010
0001
1000
0010
,
1000
0010
0100
0001
0010
0100
1000
0010
0100
0001
1000
0100
1000
0100
0010
0001
,
1000
0010
0100
0001
0010
0100
0010
0001
1000
0010
1000
0100
0010
0001
1000
0010
,
0100
0001
0010
0001
1000
0100
0010
0001
1000
0001
0010
0001
1000
0100
0010
0001
,
1000
0010
1000
0010
0100
0001
0010
0100
1000
0001
0100
0001
0100
0010
1000
0100
,
0010
0001
1000
0001
1000
0010
1000
0100
0010
0001
1000
0010
0100
0001
0010
0001
,
1000
0100
0010
0100
1000
0010
0100
0001
1000
0100
1000
0010
1000
0100
0010
0001
,
1000
0010
1000
0010
0100
0001
0010
0100
0010
0100
0010
0001
1000
0010
0100
0010
,
0100
0010
1000
0100
0010
0001
1000
0100
0010
0001
1000
0010
1000
0100
0010
0001
,
1000
0010
0100
0001
0010
0001
1000
0010
1000
0100
0010
0001
0010
0001
1000
0010
,
0100
0001
0010
0100
1000
0100
1000
0010
0100
0001
1000
0100
1000
0010
0100
0001
,
0010
0001
1000
0001
1000
0100
1000
0001
0100
0001
0010
0100
1000
0010
0100
0010
,
1000
0100
0010
0001
1000
0100
0010
0100
1000
0010
1000
0100
0010
0001
1000
0010
,
0100
0001
0010
0001
1000
0100
1000
0010
0100
0001
1000
0100
1000
0010
0100
0001
,
0010
0001
1000
0010
1000
0100
1000
0010
0100
0001
0010
0100
0010
0001
1000
0001
,
0100
0001
0100
0010
1000
0100
0010
0100
1000
0010
1000
0010
0100
0001
0010
0100
,
0010
0001
1000
0010
0100
0001
1000
0001
1000
0100
0010
0001
1000
0010
1000
0010
,
0100
0001
0010
0100
1000
0010
0100
0001
1000
0100
1000
0100
0010
0001
1000
0010
,
0100
0001
0010
0001
1000
0010
0100
0001
1000
0100
1000
0010
0100
0001
0010
0001
,
1000
0010
1000
0100
0010
0001
1000
0010
0100
0001
0010
0001
1000
0100
1000
0010
,
0100
0001
0010
0001
1000
0010
0100
0001
1000
0100
0010
0001
1000
0010
1000
0010
,
0100
0001
0010
0100
1000
0001
0100
0001
0100
0010
1000
0100
0010
0100
1000
0010
,
0100
0001
0010
0001
1000
0010
1000
0100
0010
0001
1000
0010
0100
0001
0010
0001
,
1000
0100
0010
0001
1000
0010
1000
0100
0010
0001
0100
0001
0100
0010
1000
0100
,
0010
0001
1000
0001
1000
0010
0100
0001
0010
0100
0010
0001
1000
0010
1000
0010
,
0100
0001
1000
0100
1000
0010
0100
0001
0010
0001
1000
0100
0010
0001
1000
0010
,
1000
0100
0010
0001
1000
0010
1000
0010
0100
0001
0010
0100
0010
0001
1000
0010
,
0100
0001
1000
0100
1000
0001
0100
0001
0100
0010
1000
0100
0010
0001
1000
0010
,
1000
0100
0010
0001
1000
0010
0100
0001
0010
0001
1000
0100
0010
0001
1000
0010
,
1000
0100
0010
0001
1000
0010
1000
0100
0010
0001
0100
0001
0010
0100
1000
0010
,
0100
0001
1000
0100
0010
0001
1000
0001
1000
0010
0100
0001
0010
0100
0010
0001
,
1000
0010
0100
0001
1000
0100
1000
0100
0010
0001
1000
0010
0100
0001
0010
0001
,
1000
0100
0010
0001
1000
0010
0100
0001
1000
0001
1000
0100
1000
0010
0100
0001
,
0010
0100
1000
0001
1000
0100
1000
0010
0100
0001
0010
0001
1000
0010
0100
0001
,
1000
0100
1000
0010
0100
0001
0010
0001
1000
0100
0010
0001
1000
0010
0100
0001
,
0010
0100
1000
0001
0100
0001
0100
0010
1000
0100
0010
0001
1000
0010
1000
0100
,
0010
0001
1000
0010
0100
0001
0010
0001
1000
0100
0010
0001
1000
0010
1000
0100
,
0010
0001
1000
0010
0100
0001
0010
0001
1000
0100
0010
0001
1000
0010
1000
0100
,
0010
0001
1000
0010
0100
0001
0010
0001
1000
0100
0010
0100
1000
0010
0100
0001
,
0010
0001
1000
0100
0010
0001
1000
0010
1000
0100
0010
0001
1000
0010
0100
0001
,
0010
0001
1000
0010
1000
0100
0010
0001
1000
0010
0100
0001
0010
0001
1000
0100
,
0010
0001
1000
0001
0100
0001
0100
0010
1000
0100
0010
0001
1000
0010
1000
0100
,
0010
0001
1000
0010
0100
0001
0010
0001
1000
0100
0010
0100
1000
0010
0100
0001
,
1000
0100
1000
0100
0010
0001
1000
0010
0100
0001
0010
0001
1000
0010
0100
0001
,
1000
0100
1000
0010
0100
0001
0010
0100
1000
0010
0100
0001
1000
0100
0010
0001
,
1000
0010
1000
0100
0010
0001
0100
0001
0010
0100
1000
0010
0100
0001
1000
0100
,
1000
0100
0010
0001
1000
0010
0100
0001
0010
0001
1000
0100
0010
0001
1000
0010
,
0100
0001
1000
0100
1000
0010
0100
0001
0100
0001
0010
0100
1000
0010
0100
0001
,
1000
0100
1000
0010
0100
0001
0010
0001
1000
0010
1000
0001
0100
0001
0010
0100
,
1000
0010
0100
0001
1000
0100
1000
0100
0010
0001
1000
0010
0100
0001
0010
0001
,
1000
0010
1000
0001
0100
0001
0100
0010
1000
0100
0010
0001
1000
0010
1000
0100
,
0010
0001
1000
0010
0100
0001
0010
0001
1000
0100
0010
0001
1000
0001
0100
0001
,
0100
0010
1000
0100
0010
0001
1000
0001
1000
0010
0100
0001
0010
0100
0010
0001
,
1000
0100
0010
0001
1000
0010
0100
0001
1000
0001
1000
0010
0100
0001
0010
0100
,
1000
0010
0100
0001
1000
0100
1000
0010
0100
0001
0010
0001
1000
0010
1000
0100
,
0010
0001
1000
0010
0100
0001
0100
0010
1000
0100
0010
0001
1000
0010
1000
0100
,
0010
0001
1000
0010
1000
0100
0010
0001
1000
0010
0100
0001
0010
0001
1000
0001
,
0200
0000
0000
M3MM
;
