#TITLE:Rainbow Tylenol;
#SUBTITLE:;
#ARTIST:Kitsune^2;
#TITLETRANSLIT:;
#SUBTITLETRANSLIT:;
#ARTISTTRANSLIT:;
#CREDIT:;
#BANNER:../ban - Jawn2.png;
#BACKGROUND:../Jawn2 - bg.png;
#LYRICSPATH:;
#CDTITLE:../CDa.png;
#MUSIC:Rainbow Tylenol.ogg;
#OFFSET:-0.436;
#SAMPLESTART:64.435;
#SAMPLELENGTH:14.220;
#SELECTABLE:YES;
#BPMS:0.000=135.000;
#STOPS:;
#BGCHANGES:;
// cache tags:
#FIRSTBEAT:12.000;
#LASTBEAT:242.000;
#SONGFILENAME:Songs/Jimmy Jawns 2/Rainbow Tylenol - [Aoreo]/Rainbow Tylenol.sm;
#HASMUSIC:1;
#HASBANNER:1;
#MUSICLENGTH:109.332;
// end cache tags

//---------------dance-single - J. Nero----------------
#NOTES:
     dance-single:
     J. Nero:
     Challenge:
     17:
     1.000,1.000,0.046,0.476,1.000,754.000,5.000,52.000,0.000,0.000:
0000
0000
0000
0000
,
0000
0000
0000
0000
,
0000
0000
0000
0000
,
1000
0100
0100
0001
0100
0100
1000
0010
1000
0100
0100
0001
0100
0100
1000
0010
,
0100
0000
0001
0010
0000
0001
1000
0000
0001
0000
0001
0100
0010
0000
0100
0000
,
0001
0000
1000
0100
0000
1000
0001
0000
1000
0010
1000
0100
0010
0001
0100
0000
,
0001
0000
1000
0010
0000
1000
0001
0000
0100
0000
0100
0001
0010
0000
0100
0000
,
2200
0000
3300
0000
0000
0000
0000
0000
0000
0000
0000
0000
0000
0000
0000
0000
0000
0000
0000
0000
0000
0000
0000
0000
2002
3003
0000
0000
0000
0000
0000
0000
,
0002
0000
0000
0103
0001
0000
0010
0000
0100
1000
0100
1000
0010
0000
0100
0000
,
0002
0000
0000
0013
0100
0000
1000
0000
0010
0100
0010
0100
0001
0000
1000
0000
,
0002
0000
0000
1003
0100
0000
1000
0000
0020
0000
0000
0130
0001
0000
0010
0000
,
0100
1000
0010
0100
0010
1000
0100
0010
0001
1000
0001
0100
0010
0000
0100
0000
,
0201
0000
0000
0301
1000
0000
0100
0000
0010
0100
1000
0010
0100
0000
0001
0000
,
2000
0000
0000
3100
0010
0000
0100
0000
1000
0001
1000
0100
0010
0000
0001
0000
,
2000
0000
0000
3100
1000
0000
0001
0000
0200
0000
0000
0310
0100
0000
0001
0000
,
0010
0100
1000
0001
1000
0010
0100
0001
1000
0100
0010
0100
1000
0000
0001
0000
,
1000
0100
1000
0010
0100
0010
1000
0100
0010
0001
0100
0001
0020
0000
0030
0000
,
0100
1000
0001
1000
0010
0100
0010
2000
0000
3001
0100
0001
0010
0100
1000
0020
,
0000
0000
0130
0000
0001
1000
0100
0010
0000
0100
1000
0001
1000
0000
0010
0000
,
1000
0100
1000
0001
0000
0100
0010
0000
1000
0100
1000
0001
0000
0010
0100
0000
,
1000
0001
0010
0001
0100
0010
0100
0001
0010
0100
1000
0001
0200
0000
0300
0000
,
0001
1000
0001
0010
0100
1000
0010
0200
0000
0301
1000
0100
1000
0010
0100
0002
,
0000
0000
0013
0000
0100
1000
0010
0200
0000
0301
1000
0100
0010
0000
0001
0000
,
1000
0100
0100
0001
0100
0100
1000
0010
1000
0100
0100
0001
0100
0100
1000
0010
,
0100
0000
0001
0100
0000
0001
0010
0000
0100
0000
0100
1000
0010
0000
0100
0000
,
0001
0000
1000
0100
0000
1000
0010
0000
1000
0010
1000
0100
0010
0001
0100
0000
,
0001
0000
0100
0001
0000
0010
0001
0000
0010
0000
0010
0100
1000
0000
0010
0000
,
2020
0000
3030
0000
0000
0000
0000
0000
0000
0000
0000
0000
0000
0000
0000
0000
0000
0000
0000
0000
0000
0000
0000
0000
2002
3003
0000
0000
0000
0000
0000
0000
,
0001
0000
1000
0001
0100
0000
0000
0000
0001
0000
0000
0000
0010
0000
0000
0000
0100
0000
1000
0000
0001
0000
1000
0000
0000
0000
0010
0000
0100
0000
0000
0000
,
0000
0000
0010
1000
0001
0000
0010
0000
0100
0000
1000
0000
0001
0000
1000
0000
0000
0000
0100
0000
1000
0000
0001
0000
1000
0000
0100
0000
0010
0000
0001
0000
,
0000
0000
2000
3000
0020
0030
0200
0300
0001
1000
0001
0010
0100
0010
0001
1000
,
0000
0010
1000
0010
0100
0001
1000
0100
0010
0001
1000
0010
0100
0000
0001
0000
,
1000
0001
1000
0010
0100
0010
1000
0001
1000
0100
0010
0001
1000
0001
0100
0001
1000
0010
0100
0010
1000
0001
1000
0100
0010
0001
1000
0001
0100
0010
1000
0000
,
0000
0000
0001
0000
1000
0000
0100
0000
0000
0000
0010
0000
0100
0000
1000
0000
0001
1000
0001
0010
0100
1000
0001
1000
0010
0100
0010
1000
0001
1000
0100
0010
,
0001
0000
0000
0000
1000
0000
0100
0000
1000
0000
0010
0000
0100
0000
0001
0000
1000
0000
0001
1000
0001
0100
0010
0100
0001
1000
0100
0010
0100
1000
0001
1000
,
0010
0100
0001
1000
0010
1000
0100
0010
0001
1000
0001
0100
0010
0100
0001
1000
0001
0010
0100
0010
0001
1000
0001
0100
0010
0100
0001
1000
0001
0010
0100
1000
,
0001
0000
1000
0000
0000
0000
0001
0000
0200
0000
0000
0000
0000
0000
0000
0000
0302
0000
0000
0000
0000
0000
1003
0100
0020
0000
0000
0000
0000
0000
0000
0000
,
0031
1000
0001
0010
0100
0010
0001
0200
0000
0310
1000
0000
0100
0000
0010
0000
,
0002
0000
0000
0000
0000
0000
0000
0000
2003
0000
0000
0000
0000
0000
3001
0100
0020
0000
0000
0000
0000
0000
0000
0000
2030
0000
0000
0000
0000
0000
0000
0000
,
3001
0100
0001
0010
0100
0010
0001
0100
0010
1000
0100
1000
0010
0100
0001
1000
,
0100
0000
0010
0000
0001
0000
0100
0000
0010
0000
0100
0000
0001
0000
0010
0000
0100
0000
1000
0000
0010
0000
1000
0000
0001
0000
0100
0000
0010
0000
1000
0001
,
1000
0100
0010
0001
0100
0010
1000
0001
0100
0001
0010
0100
1000
0001
1000
0010
,
0100
0000
0000
0000
0000
0000
0001
0000
0000
0000
0000
0000
0010
0000
0000
0000
0000
0000
0100
0000
0000
0000
0000
0000
1000
0000
0000
0000
0000
0000
0001
0000
0000
0000
0000
0000
1000
0000
0000
0000
0000
0000
0010
0000
0000
0000
0000
0000
0100
0000
0000
0000
0000
0000
0010
0000
0000
0000
0000
0000
1000
0000
0000
0000
0000
0000
0001
0000
0000
0000
0000
0000
0010
0000
0000
0000
0000
0000
0100
0000
0000
0000
0000
0000
0010
0000
0000
0000
0000
0000
0001
0000
0000
0000
0000
0000
0100
0000
0000
0000
0000
0000
0010
0000
0000
0000
0000
0000
1000
0000
0000
0000
0000
0000
0010
0000
0000
0000
0000
0000
0100
0000
0000
0000
0000
0000
0001
0000
0000
0000
0000
0000
1000
0000
0000
0000
0000
0000
0100
0000
0000
0000
0000
0000
0010
0000
0000
0000
0000
0000
0001
0000
0000
0000
0000
0000
1000
0000
0000
0000
0000
0000
0010
0000
0000
0000
0000
0000
2000
0000
0000
0000
0000
0000
0000
0000
0000
0000
0000
0000
0000
0000
0000
0000
3000
0000
0000
0000
0000
0000
0000
0000
,
0001
1000
0001
0010
0100
1000
0001
1000
0010
0100
0010
1000
0001
0010
0100
0010
0001
0100
0010
1000
0010
0100
0001
1000
0100
0010
0001
0100
0002
0000
0000
0000
,
2003
0000
0000
3010
1000
0000
0100
0000
0010
0001
0010
0001
0100
0000
0010
0000
,
2000
0000
0000
3100
0010
0000
0001
0000
0100
0010
0100
0010
1000
0000
0001
0000
,
2000
0000
0000
3001
0010
0000
0001
0000
0200
0000
0000
0310
1000
0000
0100
0000
,
1000
0100
0100
0001
0100
0100
1000
0010
1000
0100
0100
0001
0100
0100
1000
0010
,
0200
0000
0000
0301
1000
0000
0100
0000
0010
0100
1000
0010
0100
0000
0001
0000
,
2000
0000
0000
3100
0010
0000
0100
0000
1000
0001
1000
0100
0010
0000
0001
0000
,
2000
0000
0000
3100
1000
0000
0001
0000
0200
0000
0000
0310
0100
0000
0001
0000
,
0010
0100
1000
0001
1000
0010
0100
0001
1000
0100
0010
0100
1000
0000
0001
0000
,
1000
0100
1000
0010
0100
0010
1000
0100
0010
0001
0100
0001
0020
0000
0030
0000
,
0100
1000
0001
1000
0010
0100
0010
2000
0000
3001
0100
0001
0010
0100
1000
0020
,
0000
0000
0130
0000
0001
1000
0100
0010
0000
0100
1000
0001
1000
0000
0010
0000
,
1000
0100
1000
0001
0000
0100
0010
0000
1000
0100
1000
0001
0000
0010
0100
0000
,
1000
0001
0010
0001
0100
0010
0100
0001
0010
0100
1000
0001
0200
0000
0300
0000
,
0001
1000
0001
0010
0100
1000
0010
0200
0000
0301
1000
0100
1000
0010
0100
0002
,
0000
0000
0013
0000
0100
1000
0010
0200
0000
0301
1000
0100
0010
0000
0001
0000
,
1000
0100
0100
0001
0100
0100
1000
0010
1000
0100
0100
0001
0100
0100
1000
0010
,
0200
0000
0300
0000
;
