#TITLE:3y3s;
#SUBTITLE:;
#ARTIST:Seiryuu;
#TITLETRANSLIT:;
#SUBTITLETRANSLIT:;
#ARTISTTRANSLIT:;
#CREDIT:;
#BANNER:../banner.png;
#BACKGROUND:../bg.png;
#LYRICSPATH:;
#CDTITLE:;
#MUSIC:3y3s.ogg;
#OFFSET:-0.337;
#SAMPLESTART:157.380;
#SAMPLELENGTH:20.300;
#SELECTABLE:YES;
#BPMS:0.000=191.000;
#STOPS:;
#BGCHANGES:;
// cache tags:
#FIRSTBEAT:8.000;
#LASTBEAT:792.000;
#SONGFILENAME:Songs/Cirque du Lykan/3y3s - [Zaia]/3y3s.sm;
#HASMUSIC:1;
#HASBANNER:1;
#MUSICLENGTH:256.966;
// end cache tags

//---------------dance-single - Zaia - 15(mid-high)----------------
#NOTES:
     dance-single:
     Zaia - 15(mid-high):
     Challenge:
     15:
     1.000,1.000,0.008,0.366,1.000,2071.000,2.000,94.000,0.000,0.000:
0000
0000
0000
0000
,
0000
0000
0000
0000
,
1000
0010
0100
0001
0000
1000
0100
1000
,
0002
0203
0320
2030
,
3001
0010
0100
1000
0000
0001
0100
0001
,
2000
0000
3200
0000
0320
0000
0031
1000
,
0000
0010
0100
0001
0000
0010
0100
1000
,
0002
0000
2003
0000
3020
0000
0130
0100
,
0000
0000
0000
0001
0001
0000
0000
1000
,
1000
0000
0000
0000
0000
0100
0010
0001
,
1000
0010
0100
0001
1000
0001
0010
0100
,
1000
0002
1003
0020
1030
0200
1300
0001
,
0100
0010
1000
0001
1000
0100
0010
0001
,
2000
3001
0200
0301
0020
0031
1000
0010
,
0100
0010
1000
0100
0010
0100
1000
0010
,
0100
0001
0200
0310
2000
3001
0020
0031
,
0001
1000
0010
0100
0100
0001
0010
0100
,
0100
1000
0001
1000
0010
0100
0001
0010
,
0000
0000
0000
0000
,
0001
0100
0010
1000
0001
0100
0001
1000
0100
0010
0100
1000
0001
1000
0010
0100
,
0001
0010
0100
1000
0001
0010
0001
1000
0010
0100
0010
1000
0001
1000
0100
0010
,
0001
0100
0010
1000
0001
0100
0001
1000
0100
0010
0100
1000
0001
1000
0010
0100
,
0001
0010
0100
1000
0001
0010
0001
1000
0010
0100
0010
1000
0001
1000
0100
0010
,
0001
1000
0001
0100
0001
1000
0001
1000
0100
1000
0001
1000
0001
0010
0001
1000
,
0001
1000
0010
1000
0001
0100
0001
1000
0001
1000
0100
1000
0001
0010
0001
1000
,
0001
1000
0010
1000
0001
0100
0001
1000
0001
0010
0001
1000
0100
1000
0001
1000
,
0001
0100
0010
1000
0001
1000
0100
0010
0001
1000
0001
1000
0010
0100
0001
1000
,
0001
1000
0100
1000
0001
0100
0001
1000
0010
1000
0100
1000
0001
0010
0100
0010
,
0001
1000
0010
1000
0001
0010
0001
1000
0100
1000
0010
1000
0001
0100
0010
0100
,
0001
1000
0001
0010
0001
1000
0010
1000
0001
0010
0001
0100
0001
1000
0100
0010
,
0100
1000
0001
0100
0001
1000
0100
1000
0001
0100
0001
0010
0001
1000
0010
0100
,
0001
0010
0100
1000
0001
0100
0001
1000
0010
1000
0100
1000
0001
0010
0100
0010
,
0001
0100
0010
1000
0001
0010
0001
1000
0100
1000
0010
1000
0001
0100
0010
0100
,
0001
0010
0100
1000
0001
1000
0010
0100
0001
0010
0100
1000
0001
1000
0010
0100
,
0001
1000
0100
1000
0001
1000
0001
0100
0001
1000
0010
1000
0001
1000
0100
0010
,
0001
1000
0010
1000
0001
1000
0100
0010
0001
1000
0010
0100
0001
1000
0001
0100
,
0010
1000
0100
1000
0001
1000
0010
0100
0001
1000
0100
0010
0001
1000
0001
0010
,
0100
1000
0001
0100
0001
1000
0001
0010
0100
1000
0001
0100
0010
1000
0001
1000
,
0010
0100
0001
0010
0001
1000
0001
0100
0010
1000
0001
0010
0100
1000
0001
1000
,
0100
0010
0001
1000
0010
0100
0001
1000
0100
1000
0001
1000
0010
0100
0001
1000
,
0010
1000
0001
1000
0100
0010
0001
1000
0010
1000
0001
1000
0100
0010
0001
1000
,
0010
0100
0001
0010
0100
1000
0010
1000
0001
0100
0010
1000
0100
0010
0001
1000
,
0010
0100
0001
0100
0001
1000
0100
1000
0100
0010
0001
0100
0010
1000
0001
1000
,
0001
0010
0100
0010
0001
1000
0001
0100
0010
1000
0100
1000
0001
0100
0001
0010
,
0001
1000
0100
1000
0001
1000
0010
0100
0001
1000
0001
0010
0001
1000
0100
0010
,
0001
1000
0010
0100
0001
1000
0001
0010
0100
1000
0010
1000
0001
0010
0001
0100
,
0001
1000
0100
1000
0001
1000
0100
1000
0001
0100
0001
1000
0001
1000
0010
0100
,
0001
1000
0100
0010
0100
1000
0001
1000
0010
0100
0001
0010
0001
1000
0010
1000
,
0100
1000
0001
0010
0001
1000
0001
0100
0010
1000
0001
1000
0100
1000
0001
0010
,
0001
1000
0010
0100
0010
1000
0001
1000
0100
0010
0001
0100
0001
1000
0100
1000
,
0010
1000
0001
0100
0010
1000
0001
0010
0100
1000
0001
0100
0010
1000
0001
1000
,
0001
0100
0001
0010
0001
1000
0100
1000
0001
1000
0010
0100
0001
0010
0001
1000
,
0001
0010
0100
1000
0001
1000
0010
0100
0001
1000
0001
0010
0001
1000
0100
1000
,
0001
0010
0001
0100
0001
1000
0010
1000
0001
1000
0100
0010
0001
0100
0001
1000
,
0001
0100
0010
1000
0001
1000
0100
0010
0001
1000
0001
0100
0001
1000
0010
0100
,
0001
1000
0100
0010
0100
1000
0001
1000
0010
0100
0001
0100
0010
1000
0001
1000
,
0001
0100
0010
0100
0001
1000
0001
1000
0100
0010
0001
0010
0100
1000
0001
1000
,
0001
0100
0010
1000
0001
1000
0100
1000
0001
0010
0001
1000
0001
0100
0010
1000
,
0001
0010
0100
1000
0010
1000
0001
0100
0001
0010
0100
1000
0001
0010
0001
0100
,
0010
1000
0100
1000
0001
0010
0001
1000
0010
1000
0100
0010
0001
1000
0010
0100
,
0000
0000
0000
0000
,
0000
0000
0000
0000
,
0000
0000
0000
0000
,
0001
0100
0010
1000
0000
0001
0010
0001
,
2000
3020
0230
0302
,
1003
0100
0010
0001
0000
1000
0010
1000
,
0002
0000
0023
0000
0230
0000
1300
0001
,
0000
0100
0010
1000
0000
0100
0010
0001
,
2000
0000
3002
0000
0203
0000
0310
0010
,
0000
0000
0000
1000
1000
0000
0000
0001
,
0001
0000
0000
0000
0000
0010
0100
1000
,
0001
0100
0010
1000
0001
1000
0100
0010
,
0001
2000
3001
0200
0301
0020
0031
1000
,
0010
0100
0001
1000
0001
0010
0100
1000
,
0002
1003
0020
1030
0200
1300
0001
0100
,
0010
0100
0001
0010
0100
0010
0001
0100
,
0010
1000
0020
0130
0002
1003
0200
1300
,
1000
0001
0100
0010
0010
1000
0100
0010
,
0010
0001
1000
0001
0100
0010
1000
0100
,
0010
0001
0100
0010
0010
1000
0001
0100
,
0100
0001
0010
0100
0010
0001
1000
0010
,
0100
0000
0001
0000
1000
0000
0001
0000
0100
0000
0010
0000
1000
0000
0010
0100
,
0001
1000
0010
1000
0001
1000
0001
0010
0001
1000
0100
0010
0001
1000
0001
0100
,
0000
0000
0000
0000
,
0000
0000
0000
0000
,
0010
1000
0100
1000
0001
0100
0001
0010
0001
1000
0010
0100
0001
1000
0100
0010
,
0100
1000
0010
1000
0001
0100
0001
0010
0100
1000
0001
0100
0010
1000
0001
0010
,
0100
1000
0010
1000
0001
0010
0001
0100
0001
1000
0100
0010
0001
1000
0010
0100
,
0010
1000
0100
1000
0001
0010
0001
0100
0010
1000
0001
0010
0100
1000
0001
1000
,
0010
0100
0010
1000
0001
0010
0100
0010
0001
1000
0100
1000
0010
1000
0001
0100
,
0001
1000
0100
1000
0010
0100
0001
1000
0001
0010
0001
0100
0001
1000
0010
0100
,
0010
1000
0001
0100
0001
1000
0010
1000
0100
1000
0001
1000
0001
0100
0001
0010
,
0100
1000
0010
1000
0001
0010
0001
0010
0100
1000
0001
0100
0001
1000
0001
0010
,
0100
1000
0010
1000
0001
0010
0001
0100
0001
1000
0100
0010
0001
1000
0010
0100
,
0010
1000
0100
1000
0001
0010
0001
0100
0010
1000
0001
0010
0100
1000
0001
0100
,
0010
1000
0100
1000
0001
0100
0001
0010
0001
1000
0010
0100
0001
1000
0100
0010
,
0100
1000
0010
1000
0001
0100
0001
0010
0100
1000
0001
0100
0010
1000
0001
1000
,
0100
0010
0001
1000
0010
0100
0001
1000
,
0100
0000
0010
0000
0100
0000
1000
0000
0001
0000
0100
0010
1000
0001
0100
0001
,
1000
0001
1000
0100
1000
0001
0010
0100
1000
0001
1000
0010
0100
0001
1000
0100
,
0010
0001
1000
0001
1000
0010
0100
0001
,
1000
0000
0000
0100
0000
0010
0001
1000
,
1000
0000
0000
0010
0000
1000
0001
0010
,
0010
0000
0000
0100
0000
1000
0010
0100
,
0100
0000
0000
0001
0000
0100
0010
1000
,
1000
0000
0000
0001
0000
1000
0100
0010
,
0010
0000
0000
0100
0000
1000
0001
0100
,
0100
0000
0000
0010
0000
1000
0001
0010
,
0010
0000
0000
0100
0000
0010
0001
1000
,
1000
0000
0000
0000
0020
0230
0302
2003
,
3000
0000
0000
0000
,
0000
0000
0000
0000
0002
0023
0230
2300
,
3000
0000
0000
0000
,
0000
0000
0000
0000
0020
0230
0302
2003
,
3000
0000
0000
0000
,
0000
0000
0000
0000
0002
0023
0032
2003
,
3000
0000
0000
0000
,
0020
2030
3002
2003
3100
0020
0230
2300
,
3001
0100
0010
0100
0001
1000
0100
0100
,
0020
0032
2003
3002
0103
0020
0230
0302
,
1003
0100
0010
0100
1000
0001
0100
0100
,
0002
0023
0230
2300
3001
0200
0320
2030
,
3001
0010
0100
0010
0001
1000
0010
0100
,
0001
0010
0001
1000
0001
0010
0100
1000
,
0000
0001
0001
0001
,
1000
0010
0100
0001
1000
0010
1000
0001
0010
0100
0010
0001
1000
0001
0100
0010
,
1000
0100
0010
0001
1000
0100
1000
0001
0100
0010
0100
0001
1000
0001
0010
0100
,
1000
0010
0100
0001
1000
0010
1000
0001
0010
0100
0010
0001
1000
0001
0100
0010
,
1000
0100
0010
0001
1000
0100
1000
0001
0100
0010
0100
0001
1000
0001
0010
0001
,
0100
0010
1000
0001
0100
0001
1000
0100
0010
0100
1000
0001
1000
0010
0100
0001
,
0010
0100
1000
0001
0010
0001
1000
0010
0100
0010
1000
0001
1000
0100
0010
0001
,
0100
0010
1000
0001
0100
0001
1000
0100
0010
0100
1000
0001
1000
0010
0100
0001
,
0010
0100
1000
0001
0010
0001
1000
0001
0100
0010
1000
0001
1000
0100
1000
0001
,
1000
0001
0010
0001
1000
0010
1000
0001
0100
0001
0010
0001
1000
0100
0010
0100
,
1000
0001
0100
0001
1000
0100
1000
0001
0010
0001
0100
0001
1000
0010
0100
0010
,
1000
0001
1000
0100
1000
0001
0100
0001
1000
0100
1000
0010
1000
0001
0010
0100
,
0010
0001
1000
0010
1000
0001
0010
0001
1000
0010
1000
0100
1000
0001
0100
0010
,
1000
0001
1000
0010
0100
0000
0010
1000
0000
0001
0100
0000
0001
0000
0010
0000
,
0001
1000
0001
0010
0100
0000
1000
0001
0000
1000
0100
0000
0010
0000
0001
0000
,
1000
0010
0100
0001
1000
0001
0010
0100
1000
0001
0100
0001
1000
0001
0010
0100
,
2000
0000
0000
0000
,
3000
0000
0000
0000
0002
0203
0302
2003
,
3100
0010
0100
1000
,
0001
0000
0000
0000
2000
3020
2030
3002
,
0003
0100
0001
0010
,
0100
0000
0000
0000
2000
3020
0230
0302
,
0003
0010
0001
0100
,
0010
0000
0000
0000
2000
3002
0023
0032
,
0103
0001
0010
0100
,
1000
0000
0000
0000
,
0000
0001
0100
0010
,
1000
0000
0000
0000
,
0000
0100
0010
0001
,
1000
0010
0100
0001
,
1000
0000
0100
0000
0010
0000
0100
0100
,
1000
0001
0100
0010
,
1010
0000
1000
0000
0001
0000
0010
0100
,
1100
0000
0000
0000
1000
0001
0100
0010
0100
0001
1000
0001
0010
0100
1000
0001
,
1000
0100
0010
0100
1000
0001
0010
0001
1000
0010
0100
0010
1000
0000
0000
0000
,
0002
0000
0000
0000
,
0000
0000
0000
0000
,
0003
0000
0000
0000
,
0000
1000
0000
0001
0000
1000
0000
0001
,
0000
0000
1000
0000
0000
0000
0001
0000
1000
0000
0010
0000
1000
0001
1000
0000
,
0100
1000
0010
1000
0001
0010
0001
0100
0001
1000
0100
0010
0001
1000
0010
0100
,
0010
1000
0100
1000
0001
0010
0001
0100
0010
1000
0001
0010
0100
1000
0001
0100
,
0010
1000
0100
1000
0001
0100
0001
0010
0001
1000
0010
0100
0001
1000
0100
0010
,
0100
1000
0010
1000
0001
0100
0001
0010
0100
1000
0001
0100
0010
1000
0001
1000
,
0100
0010
0100
1000
0001
0100
0010
0100
0001
1000
0010
1000
0100
1000
0001
0010
,
0001
1000
0010
1000
0100
0010
0001
1000
0001
0100
0001
0010
0001
1000
0100
0010
,
0100
1000
0001
0010
0001
1000
0100
1000
0010
1000
0001
1000
0001
0010
0001
0100
,
0010
1000
0100
1000
0001
0100
0001
0100
0010
1000
0001
0010
0001
1000
0001
0100
,
0010
1000
0100
1000
0001
0100
0001
0010
0001
1000
0010
0100
0001
1000
0100
0010
,
0100
1000
0010
1000
0001
0100
0001
0010
0100
1000
0001
0100
0010
1000
0001
0010
,
0100
1000
0010
1000
0001
0010
0001
0100
0001
1000
0100
0010
0001
1000
0010
0100
,
0010
1000
0100
1000
0001
0100
0001
0010
0001
1000
0010
0100
0001
1000
0100
0010
,
0100
1000
0010
1000
0001
0010
0001
0100
0001
1000
0100
0010
0001
1000
0010
0100
,
0010
1000
0100
1000
0001
0010
0001
0100
0010
1000
0001
0010
0100
1000
0001
0100
,
0010
1000
0100
1000
0001
0100
0001
0010
0001
1000
0010
0100
0001
1000
0100
0010
,
0100
1000
0010
1000
0001
0010
0001
0010
0100
1000
0001
0010
0001
1000
0001
1000
,
0010
0100
0001
1000
0100
0010
0100
1000
0001
0100
0001
1000
0001
0010
0100
1000
,
0001
0010
0001
0100
0001
1000
0010
1000
0100
0010
0001
1000
0001
0100
0010
0100
,
0001
0010
0001
1000
0100
0010
0100
1000
0001
1000
0010
0100
0001
1000
0010
1000
,
0001
0010
0100
1000
0010
0100
0001
1000
0100
0010
0001
0100
0001
1000
0010
1000
,
0100
1000
0001
0010
0100
0010
0001
1000
0001
0100
0010
1000
0001
1000
0100
1000
,
0001
0010
0100
1000
0001
0100
0001
0010
0001
1000
0100
1000
0001
1000
0010
0100
,
0001
1000
0010
1000
0001
1000
0100
0010
0100
1000
0001
0100
0010
0100
0001
0010
,
0100
1000
0010
1000
0001
1000
0001
0100
0001
0100
0010
1000
0001
1000
0001
0010
,
0100
0010
0001
1000
0010
0100
0010
1000
0001
0010
0001
1000
0001
0100
0010
1000
,
0001
0100
0001
0010
0001
1000
0100
1000
0010
0100
0001
1000
0001
0010
0100
0010
,
0001
0100
0001
1000
0010
0100
0010
1000
0001
1000
0100
0010
0001
1000
0100
1000
,
0001
0100
0010
1000
0100
0010
0001
1000
0010
0100
0001
0010
0001
1000
0100
1000
,
0010
0100
0000
0001
0000
1000
0000
0100
,
0000
0000
0010
0000
0000
0000
0001
0000
1000
0001
0100
0001
1000
0001
0010
0100
,
1000
0001
0010
0001
1000
0001
0100
0010
0100
0001
1000
0100
0010
0100
1000
0010
,
0100
0001
0000
1000
0000
0100
0000
0010
,
0002
0000
0000
0000
,
0000
0000
0000
0000
,
0003
0000
0000
0000
;

//---------------dance-single - Zaia - 14(low-mid)----------------
#NOTES:
     dance-single:
     Zaia - 14(low-mid):
     Hard:
     14:
     1.000,1.000,0.132,0.366,0.990,1721.000,34.000,94.000,0.000,0.000:
0000
0000
0000
0000
,
0000
0000
0000
0000
,
1000
0010
0100
0001
0000
1000
0100
1000
,
0002
0203
0320
2030
,
3001
0010
0100
1000
0000
0001
0100
0001
,
2000
0000
3200
0000
0320
0000
0031
1000
,
0000
0010
0100
0001
0000
0010
0100
1000
,
0002
0000
2003
0000
3020
0000
0130
0100
,
0000
0000
0000
0001
0001
0000
0000
1000
,
1000
0000
0000
0000
0000
0100
0010
0001
,
1000
0010
0100
0001
1000
0001
0010
0100
,
1000
0002
1003
0020
1030
0200
1300
0001
,
0100
0010
1000
0001
1000
0100
0010
0001
,
2000
3001
0200
0301
0020
0031
1000
0010
,
0100
0010
1000
0100
0010
0100
1000
0010
,
0100
0001
0200
0310
2000
3001
0020
0031
,
0001
1000
0010
0100
0100
0001
0010
0100
,
0100
1000
0001
1000
0010
0100
0001
0010
,
0000
0000
0000
0000
,
0001
0100
0010
1000
0001
0100
0001
1000
0100
0010
0100
1000
0001
1000
0010
0100
,
0001
0010
0100
1000
0001
0010
0001
1000
0010
0100
0010
1000
0001
1000
0100
0010
,
0001
0100
0010
1000
0001
0100
0001
1000
0100
0010
0100
1000
0001
1000
0010
0100
,
0001
0010
0100
1000
0001
0010
0001
1000
0010
0100
0010
1000
0001
1000
0100
0010
,
0001
1000
0001
0100
0001
1000
0001
1000
0100
1000
0001
1000
0001
0010
0001
1000
,
0001
1000
0010
1000
0001
0100
0001
1000
0001
1000
0100
1000
0001
0010
0001
1000
,
0001
1000
0010
1000
0001
0100
0001
1000
0001
0010
0001
1000
0100
1000
0001
1000
,
0001
0000
0100
0010
1000
0000
0010
0100
0001
0000
1000
0100
0010
0000
0001
0010
,
0001
1000
0100
1000
0001
0100
0001
1000
0010
1000
0100
1000
0001
0010
0100
0010
,
0001
1000
0010
1000
0001
0010
0001
1000
0100
1000
0010
1000
0001
0100
0010
0100
,
0001
1000
0001
0010
0001
1000
0010
1000
0001
0010
0001
0100
0001
1000
0100
0010
,
0100
1000
0001
0100
0001
1000
0100
1000
0001
0100
0001
0010
0001
1000
0010
0100
,
0001
0010
0100
1000
0001
0100
0001
1000
0010
1000
0100
1000
0001
0010
0100
0010
,
0001
0100
0010
1000
0001
0010
0001
1000
0100
1000
0010
1000
0001
0100
0010
0100
,
0001
0010
0100
1000
0001
1000
0010
0100
0001
0010
0100
1000
0001
1000
0010
0100
,
0001
0000
0100
0010
1000
0000
0001
0010
0100
0000
1000
0100
0010
0000
0100
0010
,
0001
1000
0010
1000
0001
0000
0100
0010
0000
0100
0001
0000
1000
0000
0001
0000
,
1000
0100
0000
0010
0001
0000
1000
0001
0000
1000
0100
0000
0010
0000
0100
0000
,
1000
0001
0000
0100
0010
0000
1000
0001
0000
0010
0100
0000
1000
0000
0001
0000
,
0100
0010
0000
1000
0001
0000
1000
0100
0000
0010
0001
0000
1000
0000
0010
0000
,
0100
0001
0000
1000
0100
0000
0010
0001
1000
0010
0000
0100
0001
0000
1000
0100
,
1000
0001
0000
1000
0100
0000
1000
0010
1000
0001
0000
0010
0100
0000
1000
0010
,
0100
0001
0000
1000
0001
0010
0000
0100
1000
0001
0000
0100
0010
1000
0000
0001
,
0100
0000
0010
1000
0001
0000
1000
0100
1000
0000
0001
0000
0100
0001
1000
0001
,
1000
0100
0010
0100
1000
0001
1000
0010
0100
0001
0010
0001
1000
0010
1000
0100
,
1000
0001
0010
0001
1000
0001
0100
0010
1000
0001
1000
0100
1000
0001
0010
0100
,
1000
0001
0100
0010
1000
0001
1000
0100
0010
0001
0100
0001
1000
0100
1000
0010
,
1000
0001
0010
0001
1000
0001
0010
0001
1000
0010
1000
0001
1000
0001
0100
0010
,
1000
0001
0010
0100
0010
0001
1000
0001
0100
0010
1000
0100
1000
0001
0100
0001
,
0010
0001
1000
0100
1000
0001
1000
0010
0100
0001
1000
0001
0010
0001
1000
0100
,
1000
0001
0100
0010
0100
0001
1000
0001
0010
0100
1000
0010
1000
0001
0010
0001
,
1000
0000
0010
0100
0001
0000
1000
0100
1000
0000
0001
0000
0010
0100
0010
0100
,
1000
0001
1000
0100
1000
0001
0010
0001
1000
0001
0100
0010
1000
0100
1000
0001
,
0100
0000
0010
1000
0010
0000
0100
0001
1000
0000
0100
0000
0010
0000
0001
0000
,
1000
0100
1000
0010
1000
0001
0100
0001
1000
0001
0010
0100
1000
0010
1000
0001
,
0100
0000
0001
1000
0001
0000
1000
0100
0010
0000
0100
0000
1000
0100
1000
0100
,
0010
0001
0000
1000
0001
0000
0100
0001
0000
0100
0010
0000
1000
0000
0001
0000
,
0010
0100
0000
0010
0001
0000
1000
0010
0000
0100
0001
0000
1000
0000
0001
0000
,
1000
0010
0100
0001
1000
0001
0010
0001
1000
0100
1000
0001
1000
0010
0100
0001
,
1000
0000
0001
0100
0010
0000
1000
0100
0010
0000
0001
0100
0010
0000
1000
0010
,
0100
0000
0001
0010
0100
0000
1000
0010
0100
0000
0001
1000
0010
0000
1000
0001
,
0000
0000
0000
0000
,
0000
0000
0000
0000
,
0000
0000
0000
0000
,
1000
0010
0100
0001
0000
1000
0100
1000
,
0002
0203
0320
2030
,
3001
0010
0100
1000
0000
0001
0100
0001
,
2000
0000
3200
0000
0320
0000
0031
1000
,
0000
0010
0100
0001
0000
0010
0100
1000
,
0002
0000
2003
0000
3020
0000
0130
0100
,
0000
0000
0000
0001
0001
0000
0000
1000
,
1000
0000
0000
0000
0000
0100
0010
0001
,
1000
0010
0100
0001
1000
0001
0010
0100
,
1000
0002
1003
0020
1030
0200
1300
0001
,
0100
0010
1000
0001
1000
0100
0010
0001
,
2000
3001
0200
0301
0020
0031
1000
0010
,
0100
0010
1000
0100
0010
0100
1000
0010
,
0100
0001
0200
0310
2000
3001
0020
0031
,
0001
1000
0010
0100
0100
0001
0010
0100
,
0100
1000
0001
1000
0010
0100
0001
0010
,
0100
1000
0010
0100
0100
0001
1000
0010
,
0010
1000
0100
0010
0100
1000
0001
0100
,
0010
0000
1000
0000
0001
0000
1000
0000
0010
0000
0100
0000
0001
0000
0100
0010
,
1000
0001
0100
0001
1000
0001
1000
0100
1000
0001
0010
0100
1000
0001
1000
0010
,
0000
0000
0000
0000
,
0000
0000
0000
0000
,
0100
0001
1000
1010
0000
0010
0100
0001
,
0011
1001
1010
0110
,
0100
0001
0010
0100
0000
1000
0100
0010
,
0001
0000
1000
0000
0010
0000
0100
0001
,
0000
0010
0100
1000
0000
0001
0100
0010
,
1010
0000
1001
0000
0011
0000
0110
0100
,
0000
0000
0000
1000
1000
0000
0000
0001
,
0001
0000
0000
0000
0000
0100
0010
1000
,
0001
0010
0100
1000
0001
1000
0010
0100
,
0110
0010
1010
1000
1001
0001
0011
0010
,
0100
0010
0001
0100
0010
1000
0100
1000
,
1010
0010
0110
0100
0101
0001
1000
0100
,
0000
0010
0001
1000
0000
0010
1000
0001
,
0010
0000
0100
0000
0010
0000
0001
0000
1000
0000
0010
0100
0001
1000
0010
1000
,
0001
1000
0001
0010
0001
1000
0100
0010
0001
1000
0001
0100
0010
1000
0001
0010
,
0100
1000
0001
1000
0001
0100
0010
1000
,
0001
0000
0000
0010
0000
0100
1000
0001
,
0001
0000
0000
0100
0000
0001
1000
0100
,
0100
0000
0000
0010
0000
0001
0100
0010
,
0010
0000
0000
1000
0000
0010
0100
0001
,
0001
0000
0000
1000
0000
0001
0010
0100
,
0100
0000
0000
0010
0000
0001
1000
0010
,
0010
0000
0000
0100
0000
0001
1000
0100
,
0100
0000
0000
0010
0000
0100
1000
0001
,
0001
0000
0000
0000
0200
0320
2030
3002
,
0003
0000
0000
0000
,
0000
0000
0000
0000
2000
3200
0320
0032
,
0003
0000
0000
0000
,
0000
0000
0000
0000
0200
0320
2030
3002
,
0003
0000
0000
0000
,
0000
0000
0000
0000
2000
3200
2300
3002
,
0003
0000
0000
0000
,
0200
0302
2003
3002
0013
0200
0320
0032
,
1003
0010
0100
0010
1000
0001
0010
0010
,
0200
2300
3002
2003
3010
0200
0320
2030
,
3001
0010
0100
0010
0001
1000
0010
0010
,
2000
3200
0320
0032
1003
0020
0230
0302
,
1003
0100
0010
0100
1000
0001
0100
0010
,
1000
0100
1000
0001
1000
0100
0010
0001
,
0000
1000
1000
1000
,
0001
0100
0010
1000
0001
0100
0001
1000
0100
0010
0100
1000
0001
1000
0010
0100
,
0001
0010
0100
1000
0001
0010
0001
1000
0010
0100
0010
1000
0001
1000
0100
0010
,
0001
0100
0010
1000
0001
0100
0001
1000
0100
0010
0100
1000
0001
1000
0010
0100
,
0001
0010
0100
1000
0001
0010
0001
1000
0010
0100
0010
1000
0001
1000
0100
1000
,
0010
0100
0001
1000
0010
1000
0001
0010
0100
0010
0001
1000
0001
0100
0010
1000
,
0100
0010
0001
1000
0100
1000
0001
0100
0010
0100
0001
1000
0001
0010
0100
1000
,
0010
0100
0001
1000
0010
1000
0001
0010
0100
0010
0001
1000
0001
0100
0010
1000
,
0100
0010
0001
1000
0001
0000
0100
0001
1000
0000
0001
0100
0010
1000
0010
1000
,
0001
1000
0100
1000
0001
0100
0001
1000
0010
1000
0100
1000
0001
0010
0100
0010
,
0001
1000
0010
1000
0001
0010
0001
1000
0100
1000
0010
1000
0001
0100
0010
0100
,
0001
1000
0001
0010
0001
1000
0010
1000
0001
0010
0001
0100
0001
1000
0100
0010
,
0100
1000
0001
0100
0001
1000
0100
1000
0001
0100
0001
0010
0001
1000
0010
0100
,
0001
1000
0001
0100
0010
0000
0100
0001
0000
1000
0010
0000
1000
0000
0100
0000
,
1000
0001
1000
0100
0010
0000
0001
1000
0000
0001
0010
0000
0100
0000
1000
0000
,
0001
0100
0010
1000
0001
1000
0100
0010
0001
1000
0010
1000
0001
1000
0100
0010
,
0002
0000
0000
0000
,
0003
0000
0000
0000
2000
3020
2030
3002
,
0013
0100
0010
0001
,
1000
0000
0000
0000
0002
0203
0302
2003
,
3000
0010
1000
0100
,
0010
0000
0000
0000
0002
0203
0320
2030
,
3000
0100
1000
0010
,
0100
0000
0000
0000
0002
2003
3200
2300
,
3010
1000
0100
0010
,
0001
0000
0000
0000
,
0000
1000
0010
0100
,
0001
0000
0000
0000
,
0000
0010
0100
1000
,
0001
0100
0010
1000
,
0001
0000
0010
0000
0100
0000
0010
0010
,
0001
1000
0010
0100
,
0101
0000
0001
0000
1000
0000
0100
0010
,
0011
0000
0000
0000
0001
1000
0010
0100
0010
1000
0001
1000
0100
0010
0001
1000
,
0001
0010
0100
0010
0001
1000
0100
1000
0001
0100
0010
0100
0001
0000
0000
0000
,
2000
0000
0000
0000
,
0000
0000
0000
0000
,
3000
0000
0000
0000
,
0000
0001
0000
1000
0000
0001
0000
1000
,
0000
0000
0001
0000
0000
0000
1000
0000
0001
0000
0100
0000
0001
1000
0001
0000
,
0100
0001
1000
1010
0000
0010
0100
0001
,
0011
1001
1010
0110
,
0100
0001
0010
0100
0000
1000
0100
0010
,
0001
1000
0001
0100
0001
0010
0100
1000
,
0010
0100
0010
1000
0000
0001
0010
0100
,
1100
1000
1001
0001
0101
0100
0110
0010
,
1000
0001
1000
0010
0010
0100
0001
1000
,
1000
0100
0010
0001
1000
0010
0100
0001
,
1000
0100
0010
0001
1000
0010
0100
0001
,
0101
0100
0110
0010
1010
1000
1001
0001
,
0010
0100
1000
0010
0100
0001
0010
0001
,
0101
0100
0110
0010
1010
1000
0001
0010
,
0010
0100
1000
0001
0001
0100
0001
1000
,
0100
0010
0100
1000
0001
0100
0010
1000
,
1000
0001
0010
0100
0100
1000
0010
0100
,
0100
0001
1000
0001
1000
0010
0100
0001
,
1000
0010
1000
0001
0010
0100
0010
0001
1000
0010
1000
0001
1000
0100
0010
0001
,
1000
0100
1000
0010
1000
0001
0100
0001
0010
0100
1000
0001
1000
0010
0100
0010
,
1000
0100
1000
0001
0010
0100
0010
0001
1000
0001
0100
0010
1000
0001
0100
0001
,
1000
0100
0010
0001
0100
0010
1000
0001
0010
0100
1000
0010
1000
0001
0100
0001
,
0010
0001
1000
0100
0010
0100
1000
0001
1000
0010
0100
0001
1000
0001
0010
0001
,
1000
0100
0010
0001
1000
0010
1000
0100
1000
0001
0010
0001
1000
0001
0100
0010
,
1000
0001
0100
0001
1000
0001
0010
0100
0010
0001
1000
0010
0100
0010
1000
0100
,
0010
0001
0000
1000
0000
0010
0000
1000
,
0001
0010
0001
1000
0010
0100
0010
1000
0001
0010
0001
1000
0001
0100
0010
1000
,
0001
0100
0001
0010
0001
1000
0100
1000
0010
0100
0001
1000
0001
0010
0100
0010
,
0001
0100
0001
1000
0010
0100
0010
1000
0001
1000
0100
0010
0001
1000
0100
1000
,
0001
0100
0010
1000
0100
0010
0001
1000
0010
0100
0001
0010
0001
1000
0100
1000
,
0010
0100
0000
0001
0000
1000
0000
0100
,
0000
0000
0010
0000
0000
0000
0001
0000
1000
0001
0100
0001
1000
0001
0010
0100
,
1000
0001
0010
0001
1000
0001
0100
0010
0100
0001
1000
0100
0010
0100
1000
0010
,
0100
0001
0000
1000
0000
0100
0000
0010
,
0002
0000
0000
0000
,
0000
0000
0000
0000
,
0003
0000
0000
0000
;

//---------------dance-single - Zaia - 10(high)----------------
#NOTES:
     dance-single:
     Zaia - 10(high):
     Medium:
     10:
     0.791,1.000,0.093,0.595,0.062,1246.000,24.000,153.000,0.000,0.000:
0000
0000
0000
0000
,
0000
0000
0000
0000
,
1000
0010
0100
0001
0000
1000
0100
1000
,
0002
0203
0320
2030
,
3001
0010
0100
1000
0000
0001
0100
0001
,
2000
0000
3200
0000
0320
0000
0031
1000
,
0000
0010
0100
0001
0000
0010
0100
1000
,
0002
0000
2003
0000
3020
0000
0130
0100
,
0000
0000
0000
0001
0001
0000
0000
1000
,
1000
0000
0000
0000
0000
0100
0010
0001
,
1000
0010
0100
0001
1000
0001
0010
0100
,
1000
0002
1003
0020
1030
0200
1300
0001
,
0100
0010
1000
0001
1000
0100
0010
0001
,
2000
3001
0200
0301
0020
0031
1000
0010
,
0100
0010
1000
0100
0010
0100
1000
0010
,
0100
0001
0200
0310
2000
3001
0020
0031
,
0001
1000
0010
0100
0100
0001
0010
0100
,
0100
1000
0001
1000
0010
0100
0001
0010
,
0000
0000
0000
0000
,
0001
0100
0010
0100
0001
0100
0010
1000
,
0001
1000
0100
0010
0100
1000
0001
0100
,
0001
1000
0100
0010
0001
1000
0001
0100
,
0010
1000
0001
0010
0001
1000
0100
0010
,
0100
1000
0001
0100
0001
0010
0001
1000
,
0100
1000
0010
1000
0001
0010
0100
0010
,
0001
1000
0010
0100
0010
1000
0001
0010
,
0001
1000
0100
1000
0001
0100
0001
1000
,
0001
0010
0100
0010
0001
0010
0100
1000
,
0001
1000
0010
0100
0010
1000
0001
0010
,
0001
1000
0010
0100
0001
1000
0001
0010
,
0100
1000
0001
0100
0001
1000
0010
0100
,
0110
0001
1000
0100
1000
0010
1000
0001
,
1001
1000
0100
1000
0001
0100
0010
0100
,
0101
0001
0010
0100
1100
1000
0001
0100
,
0002
1000
1000
1003
,
0001
0100
0010
1000
0100
0010
0001
0001
,
0100
0001
0010
0100
1000
0010
0100
0100
,
0010
1000
0100
0010
0001
0100
0010
0010
,
1000
0100
1000
0010
0100
0001
0010
0010
,
0100
1000
1001
0001
0100
0001
1001
1000
,
0100
1000
1001
0001
0100
0010
1010
1000
,
0001
0020
0000
0230
0000
2300
0000
3002
,
0103
0000
0010
0000
1000
0000
0001
0000
0010
0000
0001
0000
0100
0001
0100
0001
,
1000
0010
0100
0010
2000
3200
0320
0032
,
1003
0010
1000
0001
0010
0100
1000
0001
,
0100
0001
0010
0100
2000
3020
0230
0302
,
0013
0100
1000
0010
0100
0001
1000
0100
,
0010
0001
1000
0010
0200
0302
0023
0230
,
0310
0001
1000
0010
0100
0010
1000
0100
,
0010
0001
1000
0010
0200
0320
2030
3002
,
0013
0000
0100
1000
0100
0000
0010
0001
0010
0000
0001
0000
1000
0010
1000
0010
,
0200
0302
2003
3200
0310
0200
2300
3002
,
0103
0000
0010
1000
0010
0000
0100
0001
0100
0000
0001
0000
1000
0000
0001
0000
,
0020
0032
2003
3020
0130
0020
2030
3002
,
0013
0000
0100
1000
0100
0000
0010
0001
0010
0000
0001
0000
1000
0010
1000
0010
,
0100
0001
0000
1000
0010
0000
0100
0001
0000
1000
0010
0000
0100
0000
0001
0000
,
1000
0100
0000
0010
0001
0000
1000
0100
0000
0010
0001
0000
1000
0000
0100
0000
,
0010
0001
1000
0001
1000
0001
1000
0001
,
0010
0100
1000
0010
1000
0001
0010
0001
,
0100
0000
0010
0000
1000
0000
0100
0000
0010
0000
0100
0000
1000
0000
0001
0100
,
0000
0000
0000
0000
,
0000
0000
0000
0000
,
0000
0000
0000
0000
,
0001
0100
0010
1000
0000
0001
0010
0001
,
2000
3020
0230
0302
,
1003
0100
0010
0001
0000
1000
0010
1000
,
0002
0000
0023
0000
0230
0000
1300
0001
,
0000
0100
0010
1000
0000
0100
0010
0001
,
2000
0000
3002
0000
0203
0000
0310
0010
,
0000
0000
0000
1000
1000
0000
0000
0001
,
0001
0000
0000
0000
0000
0010
0100
1000
,
0001
0100
0010
1000
0001
1000
0100
0010
,
0001
2000
3001
0200
0301
0020
0031
1000
,
0010
0100
0001
1000
0001
0010
0100
1000
,
0002
1003
0020
1030
0200
1300
0001
0100
,
0010
0100
0001
0010
0100
0010
0001
0100
,
0010
1000
0020
0130
0002
1003
0200
1300
,
1000
0001
0100
0010
0010
1000
0100
0010
,
0010
0001
1000
0001
0100
0010
1000
0100
,
0010
0001
0100
0010
0010
1000
0001
0100
,
0100
0001
0010
0100
0010
0001
1000
0010
,
0100
0001
1000
0001
0100
0010
1000
0010
,
0100
0001
0010
0001
0100
0010
1000
0100
,
0000
0000
0000
0000
,
0000
0000
0000
0000
,
0010
0001
1000
1010
0000
0010
0100
0001
,
0011
1001
1010
0110
,
0100
0001
0010
0100
0000
1000
0100
0010
,
0001
0000
1000
0000
0010
0000
0100
0001
,
0000
0010
0100
1000
0000
0001
0100
0010
,
1010
0000
1001
0000
0011
0000
0110
0100
,
0000
0000
0000
1000
1000
0000
0000
0001
,
0001
0000
0000
0000
0000
0100
0010
1000
,
0001
0010
0100
1000
0001
1000
0010
0100
,
0010
0010
1000
1000
0001
0001
0010
0010
,
0100
0010
0001
0100
0010
1000
0100
1000
,
0010
0010
0100
0100
0001
0001
1000
0100
,
0000
0010
0001
1000
0000
0010
1000
0001
,
0010
0100
0010
0001
1000
0010
0100
0010
,
1000
0100
1000
0001
0010
0001
0100
0010
,
0100
0001
1000
0001
1000
0010
0100
0001
,
1000
0000
0000
0100
0000
0010
0001
1000
,
1000
0000
0000
0010
0000
1000
0001
0010
,
0010
0000
0000
0100
0000
1000
0010
0100
,
0100
0000
0000
0001
0000
0100
0010
1000
,
1000
0000
0000
0001
0000
1000
0100
0010
,
0010
0000
0000
0100
0000
1000
0001
0100
,
0100
0000
0000
0010
0000
1000
0001
0010
,
0010
0000
0000
0100
0000
0010
0001
1000
,
1000
0000
0000
0000
0020
0230
0302
2003
,
3000
0000
0000
0000
,
0000
0000
0000
0000
0002
0023
0230
2300
,
3000
0000
0000
0000
,
0000
0000
0000
0000
0020
0230
0302
2003
,
3000
0000
0000
0000
,
0000
0000
0000
0000
0002
0023
0032
2003
,
3000
0000
0000
0000
,
0020
2030
3002
2003
3100
0020
0230
2300
,
3001
0100
0010
0100
0001
1000
0100
0100
,
0020
0032
2003
3002
0103
0020
0230
0302
,
1003
0100
0010
0100
1000
0001
0100
0100
,
0002
0023
0230
2300
3001
0200
0320
2030
,
3001
0010
0100
0010
0001
1000
0010
0100
,
0001
0010
0001
1000
0001
0010
0100
1000
,
0000
0001
0001
0001
,
1000
0010
0100
0001
0010
0001
1000
0100
,
0010
0001
1000
0010
1000
0100
1000
0001
,
0010
0100
0010
0001
1000
0010
0100
0001
,
1000
0001
0010
0001
0100
0010
1000
0100
,
0010
0001
1000
0001
0100
0010
0100
0001
,
1000
0100
0010
0001
1000
0010
1000
0001
,
0010
0001
0100
0010
1000
0001
0010
0100
,
1000
0000
0000
0000
0001
0000
0000
0000
1000
0000
0000
0000
0010
1000
0001
1000
,
0001
0100
0010
1000
0100
1000
0001
0010
,
0100
1000
0001
0100
0001
0010
0001
1000
,
0100
0010
0100
1000
0001
0100
0010
1000
,
0001
1000
0100
1000
0010
0100
0001
0010
,
0100
1000
0000
0001
0010
0000
0100
1000
0000
0001
0010
0000
0001
0000
1000
0000
,
0010
0100
0000
0001
1000
0000
0010
0100
0000
0001
1000
0000
0010
0000
0100
0000
,
0001
1000
0010
0100
0001
1000
0100
0010
,
0002
0000
0000
0000
,
0003
0000
0000
0000
2000
3020
2030
3002
,
0013
0100
0010
0001
,
1000
0000
0000
0000
0002
0203
0302
2003
,
3000
0010
1000
0100
,
0010
0000
0000
0000
0002
0203
0320
2030
,
3000
0100
1000
0010
,
0100
0000
0000
0000
0002
2003
3200
2300
,
3010
1000
0100
0010
,
0001
0000
0000
0000
,
0000
1000
0010
0100
,
0001
0000
0000
0000
,
0000
0010
0100
1000
,
0001
0100
0010
1000
,
0001
0000
0010
0000
0100
0000
0010
0010
,
0001
1000
0010
0100
,
0101
0000
0001
0000
1000
0000
0100
0010
,
0011
0000
0001
1000
0010
0100
0001
1000
,
0100
0010
0001
1000
0010
0100
0001
0000
,
2000
0000
0000
0000
,
0000
0000
0000
0000
,
3000
0000
0000
0000
,
0000
0001
0000
1000
0000
0001
0000
1000
,
0000
0000
0001
0000
0000
0000
1000
0000
0001
0000
0100
0000
0001
1000
0001
0000
,
0100
0001
1000
1010
0000
0010
0100
0001
,
0011
1001
1010
0110
,
0100
0001
0010
0100
0000
1000
0100
0010
,
0001
1000
0001
0100
0001
0010
0100
1000
,
0010
0100
0010
1000
0000
0001
0010
0100
,
1000
1000
0001
0001
0100
0100
0010
0010
,
1000
0001
1000
0010
0010
0100
0001
1000
,
1000
0100
0010
0001
1000
0010
0100
0001
,
1000
0100
0010
0001
1000
0010
0100
0001
,
0100
0100
0010
0010
1000
1000
0001
0001
,
0010
0100
1000
0010
0100
0001
0010
0001
,
0100
0100
0010
0010
1000
1000
0001
0010
,
0010
0100
1000
0001
0001
0100
0001
1000
,
0100
0010
0100
1000
0001
0100
0010
1000
,
1000
0001
0010
0100
0100
1000
0010
0100
,
0100
0001
1000
0001
1000
0010
0100
0001
,
1000
0100
0010
0001
1000
0001
0010
0100
,
0020
0031
2000
3001
0200
0301
2000
3001
,
0020
0130
1000
0001
0100
0010
1000
0100
,
1000
0001
0200
0310
2000
3100
0020
0031
,
2000
3010
0100
0001
1000
0100
0010
0001
,
0100
0010
2000
3100
0020
0031
0200
0310
,
2000
3001
1000
0010
1000
0100
0010
0001
,
0200
0320
2030
3002
,
1003
0010
1000
0100
0010
0001
1000
0010
,
0100
0001
2000
3001
0020
0031
2000
3001
,
0200
0310
1000
0100
0010
0001
1000
0010
,
1000
0001
0020
0130
2000
3001
0200
0310
,
1000
0001
0000
1000
0000
0001
0000
0100
,
0000
0010
0000
1000
0001
0100
0010
0100
,
0001
1000
0100
0010
0100
1000
0010
0100
,
0010
1000
0000
0001
0000
0010
0000
0100
,
2000
0000
0000
0000
,
0000
0000
0000
0000
,
3000
0000
0000
0000
;
