#TITLE:Sonic Shuffle;
#SUBTITLE:(Sonik & Sky);
#ARTIST:XsakuX;
#TITLETRANSLIT:;
#SUBTITLETRANSLIT:;
#ARTISTTRANSLIT:;
#CREDIT:Owem;
#BANNER:bn.JPG;
#BACKGROUND:bg.png;
#LYRICSPATH:;
#CDTITLE:;
#MUSIC:Sonic Shuffle (Sonik & Sky).ogg;
#OFFSET:-0.024;
#SAMPLESTART:40.024;
#SAMPLELENGTH:12.000;
#SELECTABLE:YES;
#BPMS:0.000=150.000;
#STOPS:;
#BGCHANGES:;
// cache tags:
#FIRSTBEAT:5.000;
#LASTBEAT:214.000;
#SONGFILENAME:Songs/Owem Extras -l/Sonic Shuffle (Sonik & Sky) - [Owem]/Sonic Shuffle (Sonik & Sky).sm;
#HASMUSIC:1;
#HASBANNER:1;
#MUSICLENGTH:90.372;
// end cache tags

//---------------dance-single - 1 (Owem)----------------
#NOTES:
     dance-single:
     1 (Owem):
     Beginner:
     1:
     0.063,0.148,0.022,0.022,0.000,36.000,2.000,2.000,0.000,0.000:
0000
0000
0000
0000
,
0000
0000
0000
0000
,
0000
0000
0000
0000
,
0000
0000
0000
0000
,
0000
0000
0000
0000
,
0000
0000
0000
0000
,
0000
0000
0000
0000
,
0000
0000
0000
0000
,
0000
0000
0000
0000
,
0000
0000
0000
0000
,
0000
0000
0000
0000
,
0000
0000
0000
0000
,
0000
0000
0000
0000
,
0000
0000
0000
0000
,
0000
0000
0000
0000
,
0000
0000
0000
0000
,
0000
0000
0000
0000
,
0000
0000
0000
0000
,
0100
0000
0000
0000
,
0010
0000
0000
0000
,
0100
0000
0000
0000
,
0001
0000
0000
0000
,
0010
0000
0000
0000
,
0100
0000
0000
0000
,
1000
0000
0000
0000
,
0001
0000
0000
0000
,
0010
0000
0000
0000
,
0100
0000
0000
0000
,
1001
0000
0000
0000
,
0100
0000
0000
0000
,
0010
0000
0000
0000
,
0001
0000
0000
0000
,
0010
0000
0000
0000
,
1000
0000
0000
0000
,
0001
0000
0000
0000
,
0010
0000
0000
0000
,
0100
0000
0000
0000
,
1000
0000
0000
0000
,
0010
0000
0000
0000
,
0100
0000
0000
0000
,
0001
0000
0000
0000
,
1000
0000
0000
0000
,
0010
0000
0000
0000
,
0100
0000
0000
0000
,
0010
0000
0000
0000
,
1000
0000
0000
0000
,
0001
0000
0000
0000
,
0010
0000
0000
0000
,
0100
0000
0000
0000
,
1000
0000
0000
0000
,
0001
0000
0000
0000
,
0010
0000
0000
0000
,
0100
0000
0000
0000
,
0000
2002
0000
0000
3003
0000
0000
0000
;

//---------------dance-single - 2- (Owem)----------------
#NOTES:
     dance-single:
     2- (Owem):
     Easy:
     2:
     0.147,0.207,0.022,0.122,0.000,80.000,2.000,11.000,0.000,0.000:
0000
0000
0000
0000
,
0000
2000
0000
0000
,
0000
0000
0000
0000
,
0000
0000
0000
0000
0000
0000
0000
3020
,
0000
0000
0000
0000
,
0000
0000
0000
0000
,
0000
0000
0000
0000
,
0000
0032
0000
0000
,
0000
0000
0000
0000
,
0000
0000
0000
0000
,
0000
0000
0000
0000
,
0000
0000
0000
0000
,
0000
0023
0000
0000
,
0000
0230
0000
0000
,
0000
0000
0000
2300
0000
3200
0000
0320
,
0000
0032
0000
0000
0000
0000
0000
0000
,
0000
0000
0000
0000
,
0000
0000
0000
0000
,
1003
0000
0010
0000
,
0100
0000
0001
0000
,
1000
0000
0010
0000
,
0100
0000
0001
0000
,
0010
0000
0100
0000
,
1000
0000
0001
0000
,
1000
0000
0010
0000
,
0100
0000
0001
0000
,
0010
0000
0100
0000
,
1000
0000
0001
0000
,
0010
0000
0100
0000
,
1000
0000
0001
0000
,
0010
0000
0100
0000
,
1000
0000
0001
0000
,
1001
0000
0010
0000
,
0100
0000
0001
0000
,
0010
0000
0100
0000
,
1000
0000
0001
0000
,
1000
0000
0001
0000
,
0010
0000
0100
0000
,
1000
0000
0001
0000
,
0010
0000
0100
0000
,
1000
0000
0001
0000
,
0010
0000
0100
0000
,
1000
0000
0001
0000
,
0010
0000
0100
0000
,
1000
0000
0001
0000
,
0010
0000
0100
0000
,
1000
0000
0001
0000
,
0010
0000
0100
0000
,
1000
0000
0001
0000
,
0010
0000
0100
0000
,
1000
0000
0001
0000
,
0010
0000
0100
0000
,
1000
0000
0001
0000
,
0000
2002
0000
0000
3003
0000
0000
0000
;

//---------------dance-single - 4+ (Owem)----------------
#NOTES:
     dance-single:
     4+ (Owem):
     Medium:
     4:
     0.278,0.355,0.133,0.122,0.011,153.000,12.000,11.000,0.000,0.000:
0000
0000
0000
0000
,
0000
2000
0000
0000
,
0000
0000
0000
0000
,
0000
0000
0000
0000
0000
0000
0000
3020
,
0000
0000
0000
0000
,
0000
0000
0000
0000
,
0000
0000
0000
0000
,
0000
0032
0000
0000
,
0000
0000
0000
0000
,
0000
0000
0000
0000
,
0000
0000
0000
0000
,
0000
0000
0000
0000
,
0000
0023
0000
0000
,
0000
0230
0000
0000
,
0000
0000
0000
2300
0000
3200
0000
0320
,
0000
0032
0000
0000
0000
0000
0000
0000
,
0000
0000
0000
0000
,
0000
0000
0000
0000
,
1003
0001
1000
0001
1000
0000
0000
0000
0100
0000
0000
0000
0010
0000
0000
0000
,
0001
1000
0001
0010
,
0100
0001
1000
0001
,
1000
0010
0100
0001
,
0010
0110
0001
1000
,
0010
0100
0001
1000
,
0010
1001
0100
1000
,
0010
0001
0010
0100
,
1000
0010
1000
0001
,
0010
0100
1000
0001
,
1000
0010
0100
0001
,
0010
0100
1000
0010
,
0100
0001
1000
0100
,
0010
0001
1000
0010
,
1001
0100
0010
0001
,
1000
0010
0100
0001
,
0010
0100
1000
0010
,
0100
0001
0010
0100
,
1001
0100
0010
0001
,
1000
0010
0100
0100
,
0001
0001
0010
0100
,
1000
0010
0100
0001
,
0010
0100
1000
0010
,
0100
0001
0110
0001
,
1000
0010
0101
0010
,
1000
0010
1001
0010
,
0100
0001
0110
0001
,
1000
0010
1000
1000
,
0010
0100
0001
1000
,
0010
0100
1001
0010
,
0100
0001
1001
0010
,
0100
0001
0010
0100
,
1000
0010
1001
0010
,
0100
0001
0010
0100
,
1000
0010
0100
0010
,
0000
2002
0000
0000
3003
0000
0000
0000
;

//---------------dance-single - 8 (Owem)----------------
#NOTES:
     dance-single:
     8 (Owem):
     Hard:
     8:
     0.474,0.562,0.044,0.144,0.028,283.000,4.000,13.000,0.000,0.000:
0000
0000
0000
0000
,
0000
2000
0000
0000
,
0000
0000
0000
0000
,
0000
0000
0000
0000
0000
0000
0000
3020
,
0000
0000
0000
0000
,
0000
0000
0000
0000
,
0000
0000
0000
0000
,
0000
0032
0000
0000
,
0000
0000
0000
0000
,
0000
0000
0000
0000
,
0000
0000
0000
0000
,
0000
0000
0000
0000
,
0000
0023
0000
0000
,
0000
0230
0000
0000
,
0000
0000
0000
2300
0000
3200
0000
0320
,
0000
0032
0000
0000
0000
0000
0000
0000
,
0000
0000
0000
0000
,
0000
0000
0000
0000
,
1003
0001
1000
0001
1000
0000
0010
0000
0100
0000
1000
0000
0010
0000
0100
0000
,
0001
0010
1000
0010
0100
0001
0010
0100
,
1000
0010
0100
0001
0010
0100
1000
0010
,
0100
0001
0010
0100
1000
0100
0010
0001
,
0010
0100
1000
0010
0100
0001
0010
1000
,
0100
0010
0001
1000
0010
0100
0001
1000
,
0100
0010
0001
1000
0001
0010
0100
1000
,
0001
0010
0100
1000
0100
0010
0001
1000
,
0010
1000
0010
0001
0100
0001
0010
0100
,
1000
0100
0010
0001
1000
0001
1000
0100
,
0010
0001
0010
1000
0001
0010
0100
1000
,
0001
1000
0010
0100
0001
1000
0100
0010
,
0001
0010
0100
1000
0001
1000
0100
0001
,
0010
1000
0010
0001
1000
0100
0010
0001
,
1000
0100
0010
0001
1000
0001
0010
1000
,
0001
0100
1000
0100
0010
0001
0010
0100
,
1000
0001
0010
0100
1000
0001
0010
0100
,
1000
0001
1000
0100
0010
0001
1000
0010
,
0100
0000
0002
0000
1003
0010
0000
0200
,
0310
0000
1000
0000
0001
0000
0100
0000
0001
0100
0010
1000
0001
0000
0000
0000
,
1001
0000
1000
0000
0100
1000
0000
0010
,
0100
0001
1000
0010
0100
0001
0010
0100
,
1000
0000
0000
0000
0001
0000
1000
0010
0100
0000
0000
0000
0004
0000
0000
0000
,
0103
0000
0001
0010
1001
0000
1000
0100
,
0010
0001
1000
0010
0100
0001
1000
0010
,
0100
0001
1000
0100
0010
0001
1000
0100
,
0010
0001
0010
1000
0010
1000
0100
0001
,
0010
0001
1000
0100
0001
0100
0010
1000
,
0001
0010
0100
0001
0010
0100
1000
0001
,
1000
0100
0010
0001
1000
0100
0010
0001
,
0010
0100
1000
0010
1000
0001
0100
0010
,
0001
0010
0100
1000
0001
1000
0010
0100
,
0001
1000
0100
0010
0001
1000
0100
0010
,
0001
0010
0100
0010
0100
1000
0100
0010
,
0001
1000
0010
0001
0100
0010
0001
1000
,
0010
2002
0000
0000
3003
0000
0000
0000
;

//---------------dance-single - 12- (Owem)----------------
#NOTES:
     dance-single:
     12- (Owem):
     Challenge:
     12:
     0.730,1.000,0.000,0.255,1.000,439.000,0.000,23.000,0.000,0.000:
0000
0000
0000
0000
,
0000
0002
0000
0000
,
0000
0000
0000
0000
,
0000
0000
0000
0000
0000
0000
0000
0023
,
0000
0000
0000
0000
,
0000
0000
0000
0000
,
0000
0000
0000
0000
,
0000
0230
0000
0000
,
0000
0000
0000
0000
,
0000
0000
0000
0000
,
0000
0000
0000
0000
,
0000
0000
0000
0000
,
0000
0320
0000
0000
,
0000
0000
0230
0000
0000
0000
1300
0001
,
0010
0000
0000
0000
0000
0000
0000
0000
0000
0200
0000
0000
0000
0000
0000
2300
0000
0000
0000
0000
0000
3001
0000
0100
,
0000
0010
0000
0200
0000
0000
0000
0000
0000
0000
0000
0000
0000
0000
0000
0000
0000
0000
0000
0000
0000
0000
0000
0000
,
0000
0000
0300
0000
,
0000
0000
0000
0000
,
0001
0000
0000
0000
0000
0000
0000
0000
1000
0000
0000
0000
0000
0000
0000
0000
0001
0000
0000
0000
0000
0000
0000
0000
1000
0000
0000
0000
0000
0000
0000
0000
0001
0000
0000
0000
0000
0000
0000
0000
1000
0000
0000
0000
0000
0000
0000
0000
0001
0000
0000
0000
0000
0000
0000
0000
0000
0000
0100
0000
0000
0000
0000
0000
0000
0000
0000
0010
0000
0000
0000
0000
0000
0000
0000
0000
0000
1000
0000
0000
0000
0000
0000
0000
0000
0000
0001
0000
0000
0000
0000
0000
0000
0000
0000
0000
0010
0000
0000
0000
0000
0000
0000
0000
0000
0000
0000
0000
0200
0000
0000
0000
0000
0000
0000
0000
0000
0000
0000
0000
0000
0000
0000
0000
0000
0000
0000
0000
0000
0000
0000
0000
1300
0000
0000
0000
0000
0000
0000
0000
0000
0000
0000
0000
0001
0000
0000
0000
0000
0000
0000
0000
0000
0000
0000
0000
0000
0000
0000
0000
0000
0000
0000
0000
0000
0000
0000
0000
1000
0000
0000
0000
0000
0000
0000
0000
0000
0000
0000
0000
0100
0000
0000
0000
0000
0000
0000
0000
0000
0000
0000
0000
,
0020
0000
0000
0000
0000
0000
0031
0000
1000
0000
0001
0000
2000
0000
0000
0000
0000
0000
3000
0000
0000
0020
0000
0000
0000
0000
0000
0030
0000
0000
0100
0000
0000
0000
0000
0000
0002
0000
0000
0000
0000
0000
0000
0000
0000
0000
0000
0000
,
1003
0100
0010
0001
1000
0100
1000
0001
0100
0010
1000
0001
0010
0100
1000
0100
,
0010
0001
0100
0001
1000
0010
0100
0001
1000
0001
0010
0100
1000
0001
0100
0010
,
1000
0000
0001
0000
0010
0000
0100
1000
0100
0010
0001
1000
0001
0000
0100
0010
,
1000
0000
0000
0001
0000
0000
0010
0000
0000
0100
0000
0000
1000
0001
1000
0001
0000
0000
1000
0100
1000
0001
0010
0100
,
1000
0001
0100
0010
1000
0001
0100
0001
0010
0100
1000
0100
0010
0001
1000
0100
,
1000
0010
0100
0001
1000
0010
1000
0100
0010
0001
1000
0100
0010
0100
1000
0001
,
0100
0000
0010
0000
1000
0000
0001
0010
0100
1000
0001
1000
0100
0000
0010
0001
,
1000
0000
0001
0000
0100
0000
0010
1000
0001
0010
0100
1000
0001
0000
0100
0010
,
1000
0001
0010
0001
1000
0100
0010
0001
1000
0100
1000
0001
0100
0010
1000
0001
,
0010
0100
1000
0100
0010
0001
1000
0010
1000
0001
0100
0010
1000
0001
0010
0100
,
1000
0000
0001
0000
0100
0000
0010
1000
0010
0100
0001
1000
0001
0010
0100
1000
,
0001
0000
0000
0100
0000
0000
0020
0000
0000
1030
0000
0000
0001
0100
0001
0100
0000
0000
0010
1000
0010
0100
0001
1000
,
0001
0010
0100
1000
0001
1000
0010
0100
0001
1000
0100
1000
0010
1000
0001
0100
,
0001
0010
0100
1000
0001
0010
0001
1000
0010
1000
0001
0100
0010
0100
0001
1000
,
0100
0010
0001
1000
0100
1000
0001
0100
0010
1000
0001
0100
0001
1000
0010
0100
,
0001
1000
0010
1000
0100
1000
0001
0100
,
0010
2000
3002
0003
1000
0100
0000
0020
,
0031
0000
0000
0000
0000
0000
1000
0000
0000
0000
0000
0000
0001
0000
0000
0000
0000
0000
0100
0000
0000
0000
0000
0000
0010
0000
1000
0000
0010
0000
0100
0000
0001
0000
1000
0000
0010
0000
0000
0000
0000
0000
0100
0000
0000
0001
0000
0000
,
1000
0000
0100
0010
0001
0000
1000
0000
0020
0030
0200
0000
0300
0000
0002
0000
,
1003
0000
0100
0010
0001
0000
1000
0010
0000
0100
0001
0100
0010
0000
2000
0000
,
3100
0000
0000
0000
0010
0000
0001
1000
0001
0000
0000
0000
0100
0010
0100
0010
,
0100
0000
0000
0001
1000
0000
0100
0010
0001
0000
0000
1000
0000
0000
0010
0000
,
0100
0000
0000
0001
0000
0000
1000
0000
0000
0100
0000
0000
0010
0000
0000
0001
,
1000
0000
0000
0010
0000
0000
0100
0001
0100
0000
0000
0000
0010
1000
0010
1000
,
0010
0000
0000
0100
0001
0000
1000
0010
0100
0001
0000
0000
1000
0000
0000
0100
,
0010
0000
0000
0001
0100
0001
0100
0000
0010
0000
0000
1000
0000
0001
0000
0000
,
2000
0000
0000
0000
3100
0000
0010
0001
1000
0010
0100
0000
0001
0000
0000
1000
,
0000
0100
0000
0000
0010
0000
0001
1000
0001
0100
0000
0000
0010
0000
0000
1000
,
0010
0000
0000
0100
0000
0000
0001
1000
0001
0000
0000
0100
0000
0000
0010
0000
,
0000
1000
0000
0000
0001
0000
0000
1000
0100
0000
0000
0000
0010
0001
1000
0000
,
0100
0000
0000
0010
0000
0000
0001
0000
0000
1000
0000
0000
0001
0000
0100
0000
0010
0000
1000
0000
0001
0000
1000
0000
0100
0000
0000
0010
0000
0000
0001
0000
0000
1000
0000
0000
0001
0000
0000
0100
0000
0000
0010
0000
0000
1000
0000
0000
,
0001
0100
0001
1000
0100
0010
0001
1000
0010
0100
0001
0100
0010
1000
0001
0010
,
0001
0000
0000
1000
0000
0000
0010
0000
0000
0100
0000
0000
0001
0000
1000
0000
0010
0000
1000
0000
0001
0000
0100
0000
0010
0000
0000
1000
0000
0000
0010
0000
0000
0100
0000
0000
0001
0000
0000
0010
0000
0000
0001
0000
0000
0010
0000
0000
,
0000
0002
0000
0000
0003
0000
0000
0000
;
