#TITLE:Battle;
#SUBTITLE:;
#ARTIST:植松伸夫;
#TITLETRANSLIT:;
#SUBTITLETRANSLIT:;
#ARTISTTRANSLIT:Nobuo Uematsu;
#CREDIT:;
#BANNER:Battle.jpg;
#BACKGROUND:Battle.bg.JPG;
#LYRICSPATH:;
#CDTITLE:!IzzyTitle.JPG;
#MUSIC:Battle.mp3;
#OFFSET:0.000;
#SAMPLESTART:28.299;
#SAMPLELENGTH:12.000;
#SELECTABLE:YES;
#BPMS:0.000=212.020;
#STOPS:;
#BGCHANGES:;
// cache tags:
#FIRSTBEAT:3.500;
#LASTBEAT:421.500;
#SONGFILENAME:Songs/Izzy/Battle/Battle.sm;
#HASMUSIC:1;
#HASBANNER:1;
#MUSICLENGTH:120.058;
// end cache tags

//---------------dance-single - MANIAC----------------
#NOTES:
     dance-single:
     MANIAC:
     Hard:
     10:
     0.878,0.922,1.000,0.766,0.104,495.000,151.000,92.000,0.000,0.000:
0000
0000
0000
0000
0000
0000
0000
2200
,
0000
0000
3300
0022
0000
0000
0000
0033
0220
0000
0000
0000
0000
0330
2002
0000
,
0000
0000
3003
0000
0000
0011
0000
0000
0000
0000
1001
0000
2000
0000
3000
0000
,
1001
0000
0110
0000
0000
1001
0000
0000
,
0000
1001
0000
0000
0000
0000
1001
0000
0000
0000
1000
0000
1001
0000
0100
0000
,
0010
0001
1001
0000
0110
0100
1000
0100
,
1001
0000
0100
0010
0100
0010
1001
0100
,
0010
0100
1001
0010
0100
1000
0100
0010
,
1001
1000
0001
1000
0001
1001
2000
3002
,
0003
0000
1001
0000
0000
0000
0001
0000
1000
0000
0000
0000
1001
0000
0000
0100
,
0000
1001
0000
1001
0000
0101
0000
2001
,
0000
0000
3000
0200
0000
0000
0300
2000
,
0000
3000
0000
0000
0000
0000
2002
0000
0000
0000
0000
0000
3003
0000
1000
0000
,
0000
0000
0010
0000
0000
0000
1000
0000
0001
0000
0000
0000
1000
0000
0000
0010
,
0000
1001
0000
0100
0000
1001
0000
2002
,
0000
3003
0000
0000
0220
0000
0000
0000
0330
0000
0110
0000
0000
0000
0000
0000
,
0200
0300
0000
0100
0000
1001
0000
0200
,
0300
0000
1001
0000
0000
0200
0300
0000
,
1001
0000
0000
0000
0000
0000
0200
0000
0300
0000
0000
1001
0000
0000
1001
0000
,
1000
0100
0010
0100
1000
0100
0010
0001
,
0010
0100
1000
0100
0010
0100
1001
0100
,
0010
0100
0010
0100
1000
0100
0010
0100
,
1000
0100
0010
0001
0010
0100
1001
0100
,
0010
0100
1000
0100
0010
0001
0010
0100
,
1000
0100
0010
0100
1000
0100
0010
1001
,
0100
0010
0001
0100
0010
0100
1000
0100
,
0010
0001
0010
0100
1000
0100
0010
2001
,
0000
0000
0000
3000
0000
2002
3003
2002
,
3003
0000
0000
0000
1001
0000
0000
1000
0000
0000
2001
0000
0000
0000
3001
0000
,
0000
0000
1000
0000
0000
0001
0000
1001
,
0000
0000
0000
1001
0000
0000
0000
1001
,
0000
0000
0020
0030
0000
1001
0000
0200
,
0300
0000
2002
3003
0000
1001
0000
2002
,
0000
3003
1000
0000
0000
1001
0000
0000
,
0000
2000
3000
0110
0000
0001
0000
1001
,
0000
0000
0000
0000
0000
1001
0000
1000
,
0000
0000
0000
0001
0000
0000
0000
1000
0000
0000
0010
0000
0000
0000
0100
0000
,
0000
0000
1001
0000
0000
1001
0000
1001
,
0000
0000
0010
0000
0000
1001
0000
0020
,
0000
0000
0000
0000
0000
1000
0030
0001
,
1000
0100
0010
0001
0010
0100
1000
2002
,
3003
0000
0000
0000
0000
1000
0000
0100
,
0000
0000
0000
0001
0000
1000
0000
0001
,
0000
0000
0000
2000
0000
3000
0000
0000
0010
0000
0000
0000
0000
0000
1001
0000
,
0000
0000
0000
0000
0110
0000
0000
0000
0000
0000
1001
0000
0000
0000
0000
0100
,
0000
0000
1001
0000
0000
0010
0000
1001
,
0010
0100
0010
0001
0010
0100
1000
2002
,
0000
0000
3003
0220
0000
0000
0000
0330
2002
0000
0000
0000
0000
3003
2002
0000
,
0000
0000
3003
0000
0000
0110
0000
0000
0000
0000
1100
0000
0002
0000
0003
0000
,
1100
0000
0011
0000
0000
1001
0000
0000
,
0000
1001
0000
0000
0000
0000
1001
0000
0000
0000
0010
0000
1100
0000
0010
0000
,
0001
0010
1100
0000
1100
0100
0010
0001
,
0110
0000
1000
0100
0010
0001
1001
0100
,
0010
0100
1001
0010
0100
1000
0100
0010
,
1001
1000
0001
1000
0001
1001
0200
0320
,
0030
0000
1001
0000
0000
0000
0010
0000
0100
0000
0000
0000
0110
0000
0000
0100
,
0000
0110
0000
0110
0000
1010
0000
2001
,
0000
0000
3000
0200
0000
0000
0300
2000
,
0000
3000
0000
0000
0000
0000
2002
0000
0000
0000
0000
0000
3003
0000
0010
0000
,
0000
0000
0100
0000
0000
0000
0001
0000
0100
0000
0000
0000
0010
0000
0000
0010
,
0000
1001
0000
0100
0000
1001
0000
0220
,
0000
0330
2002
0000
3003
1001
0000
0000
,
0020
0000
0030
0010
0000
0110
0000
0020
,
0030
0000
0110
0000
0000
2000
3000
0000
,
0110
0000
0000
0000
0000
0000
0200
0000
0300
0000
0000
1001
0000
0000
1100
0000
,
1000
0100
0010
0001
0010
0100
0010
0001
,
0010
0100
0010
0001
0010
0100
1001
0010
,
0100
0010
0011
0010
0100
0010
0100
0010
,
0100
1000
0100
0010
0100
1000
1100
0100
,
0010
0100
1000
0100
0010
0001
0010
0100
,
1000
0100
0010
0100
1000
0100
0010
1001
,
0100
0010
0001
0100
0010
0100
1000
0100
,
0010
0001
0010
0100
1000
0100
0010
2001
,
0000
0000
0000
3000
0000
2002
3003
2002
,
3003
0000
0000
0000
1001
0000
0000
1000
0000
0000
2001
0000
0000
0000
3001
0000
,
0000
0000
1000
0000
0000
0001
0000
1001
,
0000
0000
0000
1001
0000
0000
0000
1001
,
0000
0000
0020
0030
0000
1001
0000
0200
,
0300
0000
2002
3003
0000
1001
0000
2002
,
0000
3003
1000
0000
0000
1001
0000
0000
,
0000
2000
3000
0110
0000
0001
0000
1001
,
0000
0000
0000
0000
0000
1001
0000
1000
,
0000
0000
0000
0001
0000
0000
0000
1000
0000
0000
0010
0000
0000
0000
0100
0000
,
0000
0000
1001
0000
0000
1001
0000
1001
,
0000
0000
0010
0000
0000
1001
0000
0020
,
0000
0000
0000
0000
0000
1000
0030
0001
,
1000
0100
0010
0001
0010
0100
1000
2002
,
3003
0000
0000
0000
0000
1000
0000
0100
,
0000
0000
0000
0001
0000
1000
0000
0001
,
0000
0000
0000
2000
0000
3000
0000
0000
0010
0000
0000
0000
0000
0000
1001
0000
,
0000
0000
0000
0000
0110
0000
0000
0000
0000
0000
1001
0000
0000
0000
0000
0100
,
0000
0000
1001
0000
0000
0010
0000
1001
,
0010
0100
0010
0001
0010
0100
1000
2200
,
0000
0000
3300
0022
0000
0000
0000
0033
0220
0000
0000
0000
0000
0330
2002
0000
,
0000
0000
3003
0000
0000
0011
0000
0000
0000
0000
1001
0000
2000
0000
3000
0000
,
1001
0000
0110
0000
0000
1001
0000
0000
,
0000
1001
0000
0000
0000
0000
1001
0000
0000
0000
1000
0000
1001
0000
0100
0000
,
0010
0001
1001
0000
0110
0100
1000
0100
,
1001
0000
0100
0010
0100
0010
1001
0100
,
0010
0100
1001
0010
0100
1000
0100
0010
,
1001
1000
0001
1000
0001
1001
1000
0001
,
1000
0001
0010
0100
1000
0100
0010
0100
,
0010
0100
1000
0100
0010
0001
0010
0100
,
1000
0100
0010
0100
0010
0100
0010
0100
,
0010
0100
0010
0100
0010
0100
0010
2001
,
0000
0000
0000
3000
0000
0000
0000
0000
;
