#TITLE:SEX FRIEND BOMB THE BASS;
#SUBTITLE:;
#ARTIST:m1dy;
#TITLETRANSLIT:;
#SUBTITLETRANSLIT:;
#ARTISTTRANSLIT:;
#CREDIT:;
#BANNER:sexfriend-bn.png;
#BACKGROUND:sexfriend-bg.png;
#LYRICSPATH:;
#CDTITLE:!ExigeTitle.png;
#MUSIC:sexfriend.mp3;
#OFFSET:-0.070;
#SAMPLESTART:38.660;
#SAMPLELENGTH:12.000;
#SELECTABLE:YES;
#BPMS:0.000=227.000;
#STOPS:;
#BGCHANGES:;
// cache tags:
#FIRSTBEAT:20.000;
#LASTBEAT:310.000;
#SONGFILENAME:Songs/new encore/SEX FRIEND BOMB THE BASS/sexfriend.sm;
#HASMUSIC:1;
#HASBANNER:1;
#MUSICLENGTH:88.058;
// end cache tags

//---------------dance-single - ----------------
#NOTES:
     dance-single:
     :
     Challenge:
     13:
     1.000,1.000,1.000,0.023,0.681,648.000,330.000,2.000,0.000,0.000:
0000
0000
0000
0000
,
0000
0000
0000
0000
,
0000
0000
0000
0000
,
0000
0000
0000
0000
,
0000
0000
0000
0000
,
1000
0100
0010
0000
0010
0000
0010
0000
0010
0001
1000
0000
1000
0000
1000
0000
,
1000
0100
0010
0000
0010
0000
0010
0000
0010
0001
1000
0000
1000
0000
1000
0100
,
0010
0001
1000
0000
1000
0000
1000
0000
1000
0100
0010
0000
0010
0000
0010
0000
,
0010
0001
1000
0000
1000
0000
1000
0000
1000
0100
0010
0000
0010
0000
0010
0001
,
1000
0100
0011
0000
0100
0000
0101
0000
0100
0010
1001
0000
0010
0000
0011
0000
,
0100
0010
1001
0000
0001
0000
0011
0000
0001
0010
1100
0000
0010
0000
0011
0100
,
1000
0100
0011
0000
0100
0000
1100
0000
0100
0010
1001
0000
0010
0000
0011
0000
,
0100
0010
1001
0000
0001
0000
0011
0000
1100
0011
1100
0011
1100
0011
1100
0011
,
1100
0010
1100
0010
1100
0010
1100
0010
,
0101
0010
0101
0010
0101
0010
0101
0010
,
0110
0001
0110
0001
0110
0001
0110
0001
,
1001
0100
1001
0100
1001
0100
1001
0100
,
1100
0010
1100
0010
1100
0010
1100
0010
,
0101
0010
0101
0010
0101
0010
0101
0010
,
0011
1010
0000
0110
0000
0110
0000
0110
,
1010
0000
0000
0000
0000
0110
0110
0000
,
1001
0100
1000
0000
0011
0000
1001
0000
0010
0100
1001
0000
0011
0000
0100
0000
,
1001
0010
0001
0000
0011
0000
1100
0000
0001
0010
1100
0000
0011
0000
1000
0001
,
0110
1000
0001
0000
1100
0000
0011
0000
1000
0100
0011
0000
1100
0000
0001
0000
,
0110
0001
1000
0000
0110
0000
0011
1000
0001
0000
1100
0000
0011
0000
0001
0010
,
1100
0001
0010
0000
1100
0000
0011
0000
0010
0100
1001
0000
0011
0000
1000
0000
,
0101
0010
0001
0000
1010
0000
1100
0000
1000
0100
0011
0000
0101
0000
0010
1000
,
0011
0100
1000
0000
0011
0000
0110
0000
0100
0001
0110
0000
1100
0000
0100
0000
,
1010
0001
0010
0000
0110
0000
0011
0000
1000
0100
0011
0000
0110
0000
0010
0100
,
1001
0100
0010
0000
0011
0000
1001
0000
0010
0001
1100
0000
1001
0000
1000
0000
,
0011
0100
0010
0000
0110
0000
1010
0000
0001
0100
1010
0000
0110
0000
1000
0010
,
0101
0010
1000
0000
0101
0000
1010
0000
0100
0001
1010
0000
0101
0000
1000
0000
,
1100
0010
0001
0000
1100
0000
0011
0000
0001
0010
0101
0000
1010
0000
0001
0010
,
0101
0010
0001
0000
1010
0000
0110
0000
0010
0100
1010
0000
0011
0000
0100
0000
,
1010
0001
1000
0000
1001
0000
1010
0000
0010
1000
0101
0000
1001
0000
0100
0001
,
1010
0001
0100
0000
1010
0000
1001
0000
1000
0001
0110
0000
0011
0000
0100
0000
,
1010
0001
0010
0000
0110
0000
0110
0000
1000
0001
1100
0000
0110
0000
0001
0010
,
1001
0010
0100
0000
0001
0000
1001
0000
0100
0010
0100
0000
1001
0000
0010
0000
,
1001
0010
0001
0000
0100
0000
1001
0000
0010
0001
1000
0000
0100
0000
0011
0100
,
1001
0100
0010
0000
1000
0000
1001
0000
0010
0100
0010
0000
1001
0000
0001
0000
,
1001
0010
1100
0000
0001
0000
0110
0000
1001
0010
0100
0000
0001
0010
0100
0000
,
0011
0100
1000
0000
0001
0000
0110
0000
1000
0001
1000
0000
0110
0000
0001
0000
,
1100
0010
0001
0000
0001
0000
1001
0000
1000
0100
0010
0000
0001
0000
1001
0010
,
1100
0001
1000
0000
0001
0000
0110
0000
0100
0010
0001
0000
0110
0000
1000
0000
,
0110
1000
0011
0000
0100
0000
1001
0000
1100
0010
0001
0000
1000
0100
0010
0100
,
1001
0010
0001
0000
0011
0000
0110
0000
1000
0001
0110
0000
1100
0000
0010
0000
,
1001
0010
0001
0000
1100
0000
0110
0000
1000
0001
0110
0000
0011
0000
1000
0001
,
0110
0001
1000
0000
1010
0000
1100
0000
0001
0100
1010
0000
0110
0000
0001
0000
,
1010
0100
0001
0000
0110
0000
0101
0000
0001
0010
0100
1000
0001
0010
0100
1000
,
0011
0110
1100
0101
1100
1001
0011
1001
,
1100
0110
0011
1001
0110
1100
0011
0110
,
1010
1100
0110
0011
0110
1100
0011
1001
,
1100
0101
0011
1100
0110
0101
0110
1010
,
1100
1001
0011
1001
1100
0110
0011
1001
,
0110
0011
0110
1010
0101
0011
1100
0110
,
1100
0011
0110
0011
1001
1100
0110
0011
,
0011
0000
0110
0000
1010
0000
1100
0000
0101
0010
1100
0000
1100
0000
1100
0000
,
1001
0010
1001
0100
0011
1000
0011
0100
1010
0001
1100
0010
1001
0010
1100
0001
,
1010
0100
1001
0000
0011
0000
0011
0000
1100
0010
1100
0000
0011
0000
0101
0010
,
1001
0100
0011
0000
0101
0000
0110
0000
1010
0100
1001
0000
0011
0000
0110
0000
,
1010
0100
1001
0000
0011
0000
0110
0000
1010
0100
0011
0000
1001
0000
0011
0100
,
1010
0001
1100
0000
0110
0000
0011
0000
0101
1000
0110
0000
1010
0000
1100
0000
,
0011
0100
1010
0000
0011
0000
0110
0000
1001
0010
1100
0000
1001
0000
0011
0100
,
1010
0001
1010
0001
1010
0001
1010
0001
,
1010
0110
0101
0011
,
0101
1000
0101
1000
0101
1000
0101
1000
,
0110
1000
0110
1000
0110
1000
0110
1000
,
1010
0100
1010
0100
1010
0100
1010
0100
,
1001
0010
1001
0010
1001
0010
1001
0010
,
0011
1000
0011
1000
0011
1000
0011
1000
,
1010
0100
1010
0100
1010
0100
1010
0100
,
1001
1001
0000
1001
0000
1001
0000
1001
,
1001
0000
0000
0000
0000
0010
0110
0000
,
0001
1000
0000
0000
0000
0000
0001
1000
0000
0000
0001
1000
0000
0000
2002
0000
,
0000
0000
0000
0000
,
0000
0000
0000
0000
,
0000
0000
0000
0000
,
0000
0000
3003
0000
;

//---------------dance-single - ----------------
#NOTES:
     dance-single:
     :
     Hard:
     11:
     1.000,1.000,1.000,0.023,0.131,459.000,266.000,2.000,0.000,0.000:
0000
0000
0000
0000
,
0000
0000
0000
0000
,
0000
0000
0000
0000
,
0000
0000
0000
0000
,
0000
0000
0000
0000
,
1000
0100
0010
0000
0010
0000
0010
0000
0010
0001
1000
0000
1000
0000
1000
0000
,
1000
0100
0010
0000
0010
0000
0010
0000
0010
0001
1000
0000
1000
0000
1000
0100
,
0010
0001
1000
0000
1000
0000
1000
0000
1000
0100
0010
0000
0010
0000
0010
0000
,
0010
0001
1000
0000
1000
0000
1000
0000
1000
0100
0010
0000
0010
0000
0010
0001
,
1000
0011
1000
0101
0010
1100
0010
0101
,
1000
0110
0001
1010
0001
1100
0010
0101
,
1000
0011
1000
0110
0001
1010
0100
0011
,
0100
0000
1001
0000
0100
0000
0011
0000
1000
0001
1000
0001
1000
0001
1000
0001
,
1100
0010
1100
0010
1100
0010
1100
0010
,
0101
0010
0101
0010
0101
0010
0101
0010
,
0110
0001
0110
0001
0110
0001
0110
0001
,
1001
0100
1001
0100
1001
0100
1001
0100
,
1100
0010
1100
0010
1100
0010
1100
0010
,
0101
0010
0101
0010
0101
0010
0101
0010
,
0101
0110
0000
0110
0000
0110
0000
0110
,
1010
0000
0000
0000
0000
0110
0110
0000
,
1001
0000
0011
1001
0000
1001
0011
0000
,
1001
0000
0011
1100
0000
1100
0011
0000
,
0110
0000
1100
0011
0000
0011
1100
0000
,
0110
0000
0110
0011
0000
1100
0011
0000
,
1100
0000
1100
0011
0000
1001
0011
0000
,
0101
0000
1010
1100
0000
0011
1001
0000
,
0011
0000
0011
0110
0000
0110
1100
0000
,
1010
0000
0110
0011
0000
0011
0110
0000
,
1001
0000
0011
1001
0000
1100
1001
0000
,
0011
0000
0110
1010
0000
1010
0110
0000
,
0101
0000
0101
1010
0000
1010
0101
0000
,
1100
0000
1100
0011
0000
0101
1010
0000
,
0101
0000
1010
0110
0000
1010
0011
0000
,
1010
0000
1001
1010
0000
0101
1001
0000
,
1010
0000
1010
1001
0000
0110
0011
0000
,
1010
0000
0011
1100
0000
1100
0110
0000
,
1001
0000
0000
1001
0000
0000
1001
0000
,
1001
0000
0000
1001
0000
0000
0000
0011
,
1001
0000
0000
1001
0000
0000
1001
0000
,
1001
0000
0110
0000
0000
0000
0110
0000
1001
0000
0000
0000
1000
0001
1000
0000
,
0110
0000
0000
0110
0000
0000
0110
0000
,
0110
0000
0000
0110
0000
0000
0000
1001
,
0110
0000
0000
0110
0000
0000
0110
0000
,
0110
0000
0011
0000
0000
0000
0011
0000
1100
0000
0000
0000
0001
1000
0001
0000
,
1001
0000
0011
0110
0000
0110
1100
0000
,
1001
0000
1100
0110
0000
0110
0011
0000
,
0110
0000
1010
1100
0000
1010
0110
0000
,
1010
0000
0000
0000
0110
0000
0101
0000
1000
0001
1000
0001
1000
0001
1000
0100
,
0011
1000
0011
0100
1001
0010
1001
0100
,
1100
0001
0110
1000
0110
0001
0011
0100
,
1010
0001
0101
1000
0110
0001
0011
1000
,
1100
0001
0011
1000
0110
0001
0110
1000
,
1100
0001
0011
1000
1100
0010
0011
1000
,
0110
0001
0110
1000
0101
0001
1100
0010
,
1100
0001
0110
0010
1001
0100
0110
0001
,
0011
0100
1010
1000
0101
0100
1100
1000
,
1001
0100
0011
1000
1010
0001
1001
0010
,
1100
0001
0011
0100
1100
0010
0101
1000
,
1001
0010
0101
0100
1010
1000
0011
0100
,
1010
0001
0011
0010
1010
0100
1001
0010
,
0101
1000
0110
0001
1100
0010
1001
0100
,
0011
1000
0011
0100
1001
0010
1100
0001
,
1010
0001
1010
0001
1010
0001
1010
0001
,
1010
0110
0101
0011
,
0101
1000
0101
1000
0101
1000
0101
1000
,
0110
1000
0110
1000
0110
1000
0110
1000
,
1010
0100
1010
0100
1010
0100
1010
0100
,
1001
0010
1001
0010
1001
0010
1001
0010
,
0011
1000
0011
1000
0011
1000
0011
1000
,
1010
0100
1010
0100
1010
0100
1010
0100
,
1001
1001
0000
1001
0000
1001
0000
1001
,
1001
0000
0000
0000
0000
0010
0110
0000
,
0001
1000
0000
0000
0000
0000
0001
1000
0000
0000
0001
1000
0000
0000
2002
0000
,
0000
0000
0000
0000
,
0000
0000
0000
0000
,
0000
0000
0000
0000
,
0000
0000
3003
0000
;
