#TITLE:Fields of Despair;
#SUBTITLE:;
#ARTIST:Dragonforce;
#TITLETRANSLIT:;
#SUBTITLETRANSLIT:;
#ARTISTTRANSLIT:;
#CREDIT:B. Abear;
#BANNER:Bn-Fields.png;
#BACKGROUND:Bg-Fields.png;
#LYRICSPATH:;
#CDTITLE:;
#MUSIC:Fields of Despair.ogg;
#OFFSET:-0.211;
#SAMPLESTART:56.760;
#SAMPLELENGTH:19.300;
#SELECTABLE:YES;
#BPMS:0.000=200.000;
#STOPS:;
#BGCHANGES:;
// cache tags:
#FIRSTBEAT:0.000;
#LASTBEAT:1067.500;
#SONGFILENAME:Songs/Dragonforce/Fields of Despair/Fields of Despair.sm;
#HASMUSIC:1;
#HASBANNER:1;
#MUSICLENGTH:325.172;
// end cache tags

//---------------dance-single - B. Abear----------------
#NOTES:
     dance-single:
     B. Abear:
     Challenge:
     15:
     1.000,1.000,0.311,0.440,1.000,2864.000,101.000,143.000,95.000,0.000:



0001
0100
0010
1000
0001
1000
0001
0010
0100
1000
0001
1000
0001
0100
0010
1000
,
0001
0010
0001
1000
0100
0010
0001
1000
0010
1000
0001
0100
0001
1000
0100
0010
,
0001
1000
0010
1000
0001
1000
0010
0100
0001
0010
0001
1000
0100
1000
0001
0010
,
0100
1000
0001
1000
0001
0100
0010
1000
0001
1000
0010
0100
0001
1000
0100
1000
,
0001
0000
0100
0000
0010
1000
0010
0000
0100
0000
0001
0000
1000
0100
1000
0000
,
0001
0000
0010
0000
0100
1000
0100
0000
0010
0000
0001
0000
1000
0001
1000
0000
,
0001
0000
0100
0000
0010
0100
0010
0000
0100
0000
0001
0000
1000
0100
1000
0000
,
0100
0010
0001
1000
0100
0010
0001
1000
0010
0100
0010
0100
0001
1000
0001
0000
,
0101
0100
0110
0010
1010
1000
1001
0001
,
0011
0010
0110
0100
1100
1000
1001
0001
,
0101
0100
0110
0010
1010
1000
1010
0010
,
0110
0100
0101
0001
0011
0010
0110
0100
,
2100
0000
3100
0000
0010
0001
0010
0000
0001
0000
1000
0000
0010
1000
0010
0000
,
0100
0000
0001
0000
1000
0100
1000
0000
0100
0000
0010
0000
0002
0000
2003
0000
,
3001
0100
0010
1000
0001
0100
0010
1000
0001
0100
0001
0100
0010
1000
0100
0010
,
M004
0M00
00M0
0M00
M000
0M00
00M0
0M00
,
1003
0100
1000
0001
0100
0010
0100
0001
1000
0100
1000
0001
0010
0100
1000
0001
,
0100
0010
1000
0001
1000
0001
0010
0001
0100
0010
0100
0001
1000
0100
1000
0001
,
0020
0100
0100
0100
,
0130
1000
0001
0100
0001
0100
0010
1000
0001
0100
0001
0100
0010
1000
0001
0000
,
0100
0010
1000
0001
1000
0100
0010
0001
1000
0100
1000
0001
0100
0010
1000
0001
,
0010
0001
1000
0100
0010
0001
0010
0100
1000
0001
0100
0010
1000
0001
1000
0100
,
0020
0001
0001
0001
,
0031
1000
0010
0100
0010
0100
0001
1000
0010
0100
0010
0100
0001
1000
0001
1000
,
0001
0000
0100
0000
0010
1000
0010
1000
0001
0000
0010
0000
0100
1000
0100
1000
,
0001
0100
0010
1000
0001
0010
0100
1000
,
0100
0000
0100
0000
1000
0001
1000
0000
0100
0000
0100
0000
1000
0001
1000
0000
,
0010
0100
0001
1000
0001
0010
0100
1000
0001
1000
0100
0010
0100
1000
0001
0010
,
0002
0000
1003
0010
1000
0010
0200
0000
0301
1000
0100
1000
0001
0010
0100
1000
,
0020
0000
0130
0001
0100
0001
2000
0000
3001
0010
0100
1000
0001
1000
0010
0100
,
0002
0100
1000
0100
0100
0010
1000
0100
,
1003
0000
0001
0100
0001
0000
1000
0100
1000
0000
0001
0000
0001
0000
1000
0000
,
0002
0000
0000
0000
1003
0100
1000
0000
0100
0000
1000
0000
0001
0010
0001
0000
,
1000
0000
0100
0000
0010
0001
0010
0000
0100
0000
1000
0000
0001
1000
0001
0000
,
1000
0010
0100
0001
1000
0100
0010
0001
1000
0010
1000
0001
1000
0100
0010
0001
,
1000
0010
0100
0001
0100
0001
1000
0100
0010
0001
1000
0001
0010
0100
1000
0001
,
2000
0000
0000
0000
3001
0010
0001
0000
0100
0000
0010
0000
1000
0010
1000
0000
,
0001
0000
0010
0000
0100
1000
0100
0000
0010
0000
0001
0000
1000
0010
1000
0000
,
0002
0000
0000
0000
,
1003
0000
0000
0000
0001
0100
0001
0100
0010
1000
0010
1000
0001
0100
0001
0000
,
M1M1
1M1M
1MM1
11MM
,
M11M
MM11
1MM1
M1M1
,
M11M
1M1M
1MM1
11MM
,
M11M
MM11
1MM1
1M1M
,
1000
0001
0100
0010
1000
0001
1000
0100
0010
0001
0010
0100
1000
0001
0100
0001
,
1000
0100
1000
0001
0010
0001
1000
0010
1000
0001
0100
0001
0100
0010
1000
0010
,
0100
0001
0100
0001
0100
0001
0100
0001
0100
0001
0100
0001
0100
0001
0100
0001
,
1000
0100
1000
0001
0100
0010
0100
0001
1000
0100
0010
0001
0010
0001
1000
0010
,
0100
0000
0001
0000
1000
0100
0010
0000
0001
0000
0100
0000
0010
0100
0001
0000
,
0100
0000
0010
0000
1000
0001
0100
0000
0001
0000
0010
0000
0100
0010
0001
0000
,
1000
0000
0010
0000
0100
0001
1000
0000
0100
0000
0010
0000
0001
1000
0100
0000
,
0020
0000
0000
0000
0030
00M0
0000
0000
,
0001
0000
0100
0000
0010
0100
0001
0000
1000
0000
0100
0000
0010
0100
1000
0000
,
0001
0000
1000
0000
0001
0100
0010
0000
0100
0000
0010
0000
0100
0001
0010
0000
,
0200
0000
0000
0000
0000
0000
0320
0032
,
1003
0000
0010
0000
0100
0001
1000
0000
0010
0100
0010
0100
0001
1000
0001
1000
,
0100
0000
0010
0000
0001
1000
0100
0000
1000
0000
0010
0000
0100
0001
0010
0000
,
0100
0000
0010
0000
0001
1000
0010
0000
0100
0000
0001
0000
1000
0010
0100
0000
,
0001
0000
1000
0000
0001
0010
0100
0000
1000
0000
0010
0000
0100
0001
1000
0000
,
0010
0000
0100
0000
0001
1000
0100
0000
1000
0000
0001
0000
0010
0100
1000
0000
,
0001
0000
0100
0000
0010
0100
0001
0000
1000
0000
0100
0000
0010
0100
1000
0000
,
0001
0000
0100
0000
0010
0100
0001
0000
1000
0000
0001
0000
0010
0100
0010
0000
,
0002
0000
0000
0000
0000
0000
2003
3020
,
0130
0000
0001
0000
1000
0100
0010
0000
0001
0000
1000
0000
0001
0100
0010
0000
,
0200
0000
0301
1000
0100
1000
0001
0010
0001
1000
0100
1000
0001
0100
0001
1000
,
0200
0000
1300
0001
0100
0001
2000
0000
3010
1000
0001
0010
0001
1000
0100
1000
,
0002
0000
1003
0100
1000
0001
0200
0000
0301
0010
0001
1000
0100
1000
0001
0100
,
0002
0000
1003
0010
1000
0001
0020
0000
0031
0010
0001
1000
0020
0000
1030
0010
,
2000
0000
3001
0010
0001
1000
0200
0000
1300
0001
0100
0001
1000
0010
1000
0001
,
0020
0000
0031
0010
0001
1000
0020
0000
1030
0100
1000
0001
0010
0001
1000
0010
,
1010
0000
1010
1001
0100
0001
0010
0100
,
1100
0000
0010
0000
0010
0000
0001
0000
1010
0000
0010
0100
0001
0000
0001
0000
,
1000
0010
0100
0001
1000
0100
1000
0001
0010
0100
1000
0001
0100
0001
1000
0010
,
2000
0000
3001
0010
0001
1000
0200
0000
1300
0001
0100
0010
1000
0001
0010
0100
,
2000
0000
0000
0000
,
3001
0100
0010
1000
0010
1000
0001
0100
0010
1000
0010
1000
0001
1000
0001
0000
,
1000
0100
0010
0001
1000
0100
1000
0001
0010
0100
0010
0001
1000
0010
1000
0001
,
0100
0010
1000
0001
0010
0100
1000
0010
0100
0001
0010
0001
1000
0010
1000
0001
,
0200
0000
0000
0000
,
0301
1000
0001
1000
0010
0100
0001
1000
0001
1000
0010
0100
0001
1000
0100
0010
,
0002
0000
1003
0010
0100
0001
2000
0000
3001
0010
0100
0010
0001
1000
0001
0100
,
0020
0000
1030
0001
0010
0100
2000
0000
3001
0010
0100
1000
0001
0100
0010
0100
,
0002
0000
0000
0000
,
1003
0010
0100
0010
1000
0001
0010
0100
0010
0001
0010
0100
1000
0001
1000
0010
,
0200
0000
0301
1000
0100
1000
0002
0000
0013
0100
1000
0001
0100
0010
1000
0001
,
0020
0000
0130
1000
0001
0100
0020
0000
1030
0010
0100
0001
1000
0100
0010
0100
,
2000
0000
0000
0000
,
3001
0100
0010
1000
0001
0100
0001
0010
0100
0000
1000
0000
1000
0000
0000
0000
,
0002
0000
0000
0000
1003
0010
1000
0000
0010
0000
0100
0000
0001
0010
0001
0000
,
1000
0000
0100
0000
0010
0001
0010
0000
0100
0000
1000
0000
0001
1000
0001
0000
,
1000
0010
0100
0001
1000
0100
0010
0001
1000
0010
1000
0001
1000
0100
0010
0001
,
1000
0010
0100
0001
0100
0001
1000
0100
0010
0001
1000
0001
0010
0100
1000
0001
,
2000
0000
0000
0000
3001
0010
0001
0000
0100
0000
0010
0000
1000
0010
1000
0000
,
0001
0000
0010
0000
0100
1000
0100
0000
0010
0000
0001
0000
1000
0010
1000
0000
,
0002
0000
0000
0000
,
1003
0000
0000
0000
0001
0100
0001
0100
0010
1000
0010
1000
0001
0100
0001
0000
,
M1M1
1M1M
1MM1
11MM
,
M11M
MM11
1MM1
M1M1
,
M11M
1M1M
1MM1
11MM
,
M11M
MM11
1MM1
1M1M
,
1000
0001
0100
0010
1000
0001
1000
0100
0010
0001
0010
0100
1000
0001
0100
0001
,
1000
0100
1000
0001
0010
0001
1000
0010
1000
0001
0100
0001
0100
0010
1000
0010
,
0100
0001
0100
0001
0100
0001
0100
0001
0100
0001
0100
0001
0100
0001
0100
0001
,
1000
0100
1000
0001
0100
0010
0100
0001
1000
0100
0010
0001
0010
0001
1000
0010
,
0100
0000
0001
0000
1000
0100
0010
0000
0001
0000
0100
0000
0010
0100
0001
0000
,
0100
0000
0010
0000
1000
0001
0100
0000
0001
0000
0010
0000
0100
0010
0001
0000
,
1000
0000
0010
0000
0100
0001
1000
0000
0100
0000
0010
0000
0001
1000
0100
0000
,
0020
0000
0000
0000
0030
00M0
0000
0000
,
0001
0000
0100
0000
0010
0100
0001
0000
1000
0000
0100
0000
0010
0100
1000
0000
,
0001
0000
1000
0000
0001
0100
0010
0000
0100
0000
0010
0000
0100
0001
0010
0000
,
0200
0000
0000
0000
0000
0000
0320
0032
,
1003
0000
0010
0000
0100
0001
1000
0000
0010
0100
0010
0100
0001
1000
0001
1000
,
0100
0000
0010
0000
0001
1000
0100
0000
1000
0000
0010
0000
0100
0001
0010
0000
,
0100
0000
0010
0000
0001
1000
0010
0000
0100
0000
0001
0000
1000
0010
0100
0000
,
0001
0000
1000
0000
0001
0010
0100
0000
1000
0000
0010
0000
0100
0001
1000
0000
,
0010
0000
0100
0000
0001
1000
0100
0000
1000
0000
0001
0000
0010
0100
1000
0000
,
0001
0000
0100
0000
0010
0100
0001
0000
1000
0000
0100
0000
0010
0100
1000
0000
,
0001
0000
0100
0000
0010
0100
0001
0000
1000
0000
0001
0000
0010
0100
0010
0000
,
0002
0000
0000
0000
0000
0000
2003
3020
,
0130
0000
0001
0000
1000
0100
0010
0000
0001
0000
1000
0000
0001
0100
0010
0000
,
0200
0000
0301
1000
0100
1000
0001
0010
0001
1000
0100
1000
0001
0100
0001
1000
,
0200
0000
1300
0001
0100
0001
2000
0000
3010
1000
0001
0010
0001
1000
0100
1000
,
0002
0000
1003
0100
1000
0001
0200
0000
0301
0010
0001
1000
0100
1000
0001
0100
,
0002
0000
1003
0010
1000
0001
0020
0000
0031
0010
0001
1000
0020
0000
1030
0010
,
2000
0000
3001
0010
0001
1000
0200
0000
1300
0001
0100
0001
1000
0010
1000
0001
,
0020
0000
0031
0010
0001
1000
0020
0000
1030
0100
1000
0001
0010
0001
1000
0010
,
1010
0000
1010
1001
0100
0001
0010
0100
,
1100
0000
0010
0000
0010
0000
0001
0000
1010
0000
1000
0010
0100
0000
0001
0000
,
0200
0000
0301
1000
0100
1000
0001
0010
0001
1000
0100
1000
0001
0100
0001
1000
,
0200
0000
1300
0001
0100
0001
2000
0000
3010
1000
0001
0010
0001
1000
0100
1000
,
0002
0000
1003
0100
1000
0001
0200
0000
0301
0010
0001
1000
0100
1000
0001
0100
,
0002
0000
1003
0010
1000
0001
0020
0000
0031
0010
0001
1000
0020
0000
1030
0010
,
2000
0000
3001
0010
0001
1000
0200
0000
1300
0001
0100
0001
1000
0010
1000
0001
,
0020
0000
0031
0010
0001
1000
0020
0000
1030
0100
1000
0001
0010
0001
1000
0010
,
1010
0000
1010
1001
0100
0010
1000
0100
,
1000
0010
0100
0001
1000
0001
0010
0100
1000
0001
0010
0100
0010
0001
1000
0000
,
2MM2
0000
0000
0000
,
0000
0000
0000
0000
,
0000
0003
3002
0000
0023
0000
0000
0000
,
0230
0000
0000
0000
,
2300
0000
0000
0000
,
0000
3002
0203
0000
,
0320
0000
0000
0000
0000
0000
1030
0001
0020
0000
0000
0000
0000
0000
0000
0000
,
0230
0000
2300
0000
,
3002
0000
0000
0000
,
0000
0203
0320
0000
,
2030
0000
0000
0000
,
3002
0023
0230
2300
,
3001
0010
0100
1000
0001
1000
0010
0100
0001
0100
0010
1000
0100
0010
0001
1000
,
0100
1000
0001
0100
0001
1000
0010
0100
0001
0010
0100
1000
0001
0010
0001
0100
,
0010
0100
0010
1000
0001
0010
0100
1000
0010
0100
0001
1000
0100
0010
0001
1000
,
0001
1000
0010
0100
0001
1000
0100
0010
0001
1000
0100
1000
0001
0100
0010
1000
,
1001
0001
0010
0100
1000
0001
0100
0010
1000
0001
1000
0100
,
1100
1000
0001
0100
0010
0100
0001
1000
0001
0010
0100
1000
,
1001
0001
0100
0010
1000
0001
0010
0100
1000
0100
0010
0001
,
0011
0010
0100
0110
0010
0001
1001
1000
0010
0100
0001
1000
,
0001
0100
0010
1000
0001
0010
0100
0010
0001
1000
0001
1000
0010
0100
0001
1000
,
0100
0010
0001
1000
0001
1000
0010
0100
0010
1000
0010
1000
0001
0010
0100
1000
,
0001
0100
0010
0100
0001
1000
0001
0010
0100
1000
0001
0010
0001
1000
0010
0000
,
1010
M0M0
0011
00MM
1001
M00M
0MM0
M00M
,
0002
0000
0000
2003
0000
0000
3020
0000
,
0130
0001
0000
2000
0000
3001
0010
0100
,
1000
0010
0000
0010
0000
0100
0000
0001
,
1000
0100
1000
0001
0010
0001
0100
0010
1000
0001
1000
0010
0100
0001
0010
0100
,
1000
0001
0100
0010
1000
0001
0010
0100
1000
0001
1000
0010
0100
0001
1000
0100
,
0010
0001
1000
0010
0100
0001
1000
0100
1000
0001
0010
0001
1000
0010
0100
0001
,
1000
0010
0100
0040
0030
1000
0000
1000
,
0001
0000
0000
0010
0000
0000
0100
0000
1000
0000
0001
0000
1000
0000
0000
0000
0000
0000
0001
0000
0000
1000
0000
0000
0010
0000
0000
0000
0000
0000
1000
0000
0000
0000
0000
0000
1000
0000
0000
0000
0000
0000
0000
0000
0000
0000
0000
0000
,
0010
0100
0001
1000
0100
0000
0010
0000
0001
0100
0010
1000
0001
0000
1000
0000
,
0100
0010
0001
1000
0010
0000
0100
0000
0001
0100
0010
1000
0001
0010
0100
1000
,
0001
0010
0001
0010
0001
0010
0100
0000
1000
0010
1000
0010
0100
0000
0001
0000
,
1000
0010
0100
0001
1000
0010
0100
0001
0010
0100
0010
0100
1000
0001
1000
0001
,
0100
0010
1000
0001
0010
0100
0010
0001
1000
0010
0100
0001
0010
0000
0100
0000
,
1000
0001
0010
0001
0010
0100
1000
0001
0100
0010
1000
0100
0010
0001
1000
0001
,
0100
0000
0100
0000
0100
0010
1000
0001
0010
0100
1000
0001
2000
0000
3000
0001
,
0100
0010
1000
0001
0010
0000
0100
1000
0010
0000
0100
0000
0100
0000
0000
0000
,
0001
0000
0000
0000
0010
0000
0000
0000
0100
0000
0000
0000
1000
0000
0000
0000
0001
0000
0000
0000
1000
0000
0000
0000
0010
0000
0000
0100
0000
0000
0001
0000
0000
1000
0000
0000
0001
0000
0000
0010
0000
0000
0100
0000
0000
0000
0000
0000
,
1000
0100
0000
0010
0001
0000
1000
0010
0000
0100
0001
0000
1000
0100
0000
0010
0100
0000
0010
0001
0000
1000
0010
0000
,
0100
0001
1000
0100
0010
0100
1000
0001
0100
0010
1000
0001
,
0200
0000
0000
0000
0000
0000
0320
0000
0000
1030
0100
0010
,
0001
0000
1000
0000
0100
0000
1000
0000
0000
0001
0000
0000
0100
0000
0000
0010
0000
0000
1000
0000
0000
0001
0000
0000
1000
0000
0000
0100
0000
0000
0010
0000
0000
0001
0000
0000
0010
0000
0000
0100
0000
0000
1000
0000
0000
0001
0000
0000
,
0100
0010
1000
0010
0100
0001
0010
0100
1000
0001
0010
0001
1000
0010
0100
0001
,
2000
0000
0000
0000
0000
0000
0000
0000
3002
0000
0000
0000
1003
0100
1000
0001
,
0200
0000
0000
0000
0310
1000
0010
1000
0001
0100
0001
0100
0010
1000
0001
0010
,
0100
1000
0001
0100
0001
0010
0100
1000
0001
0100
0010
1000
0001
1000
0100
1000
,
0001
0010
0100
1000
0001
0100
0010
0100
0001
1000
0100
0010
0001
0010
0100
1000
,
0001
0010
0001
1000
0010
1000
0001
0100
0001
0010
0100
1000
0001
0100
0010
1000
,
0100
0000
0010
0001
1000
0000
0001
0000
0100
0000
0010
0000
1000
0000
0001
1000
,
0200
0000
0000
0320
,
0032
0000
2003
3020
,
0130
0001
1000
0100
0010
0001
1000
0010
0100
0001
1000
0100
,
0010
0001
1000
0010
0100
0010
1000
0001
1000
0100
0010
0001
0010
0100
1000
0001
,
1001
0000
1000
0100
0010
0001
1000
0000
1001
0000
0001
0100
0010
1000
0010
0000
,
1010
0000
1000
0100
0010
0001
0010
0000
0110
0000
0100
1000
0001
0100
0001
0000
,
0101
0000
0100
0010
1000
0001
1000
0000
1001
0000
0001
0010
0100
1000
0100
0000
,
0110
0000
0010
0001
1000
0001
0100
0000
0101
0000
0001
0010
0100
1000
0100
0000
,
1100
0000
1000
0010
0100
0001
0100
0000
0110
0000
0010
1000
0001
1000
0100
0000
,
0110
0000
0010
0001
0100
0001
0100
0000
0110
0000
0010
1000
0001
1000
0001
0000
,
1001
0000
1000
0100
0010
0001
0100
0000
0101
0000
0001
0100
0010
1000
0010
0000
,
1010
0000
1000
0100
0010
0100
1000
0000
1100
0000
0100
0010
0001
0100
0001
0000
,
0101
0000
0100
0010
1000
0001
0010
0000
0011
0000
0001
1000
0100
0010
0001
0000
,
1001
0000
1000
0010
0100
0001
0100
0000
0101
0000
0001
1000
0100
0010
0001
0000
,
2002
0000
0000
0000
0000
0000
0000
3003
,
M1M1
M11M
1M1M
11MM
,
0100
0010
0001
1000
0001
0100
0010
1000
0001
0010
0100
1000
0001
0100
0001
0100
,
0010
1000
0001
0010
0100
1000
0100
0010
0001
1000
0010
1000
0001
0100
0001
1000
,
0100
0010
0001
0100
0001
0010
0100
1000
0001
0100
0001
0010
0100
1000
0001
0100
,
0010
1000
0010
1000
0001
0100
0001
0100
0001
0010
0001
0010
0100
1000
0100
1000
,
0001
0010
0100
1000
0001
0100
0010
1000
0001
0010
0001
1000
0100
1000
0001
0100
,
0010
0100
0001
1000
0100
0010
0001
0010
0100
1000
0001
0100
0010
1000
0001
1000
,
0100
0010
0001
1000
0010
0100
0001
1000
0100
0010
0001
1000
0001
1000
0100
0010
,
0001
0100
0010
1000
0001
0100
0001
1000
0100
1000
0001
0010
0100
1000
0001
0100
,
0010
1000
0010
0100
0001
1000
0100
1000
0100
0010
0001
1000
0001
0100
0010
1000
,
0100
1000
0001
0010
0001
1000
0100
1000
0010
0100
0001
0100
0001
1000
0100
0010
,
0004
4000
0000
0000
0000
0000
0000
0000
0000
0000
0000
0000
0000
0000
3000
0000
,
1003
0000
0010
0000
0000
0000
0000
0000
0000
0000
0000
0000
0100
0000
0001
0000
0000
0000
0000
0000
0000
0000
0000
0000
1000
0000
0000
0100
0000
0000
1000
0000
0000
0100
0000
0000
0010
0000
0000
0001
0000
0000
0010
0000
0000
0001
0000
0000
,
1000
0000
0100
0000
0010
0001
0010
0000
0001
0000
1000
0000
0010
0100
0010
0000
,
1000
0000
0001
0000
1000
0100
1000
0000
0001
0000
0010
0000
0100
1000
0100
0000
,
0010
0000
0001
0000
1000
0010
1000
0000
0010
0000
0100
0000
0001
0100
0001
0000
,
1000
0000
0001
0000
0010
0001
0010
0000
0100
0000
1000
0000
0001
1000
0001
0000
,
1001
0000
1000
0000
0001
0100
0001
0000
1000
0000
0100
0000
0010
0001
0010
0000
,
0100
0000
1000
0000
0001
0100
0001
0000
0100
0000
0010
0000
1000
0001
1000
0000
,
0001
0010
0001
0010
0100
0010
0100
0010
0100
1000
0100
1000
0001
1000
0001
1000
,
0010
1000
0010
1000
0010
0100
0010
0100
0001
1000
0100
0010
0001
0100
0010
1000
,
0100
0010
0001
0010
0100
1000
0100
0010
0001
0010
0100
1000
,
0100
0000
0000
0000
0010
0000
0000
0000
0001
0000
0000
0000
0010
0000
0000
0000
0100
0000
0000
0000
1000
0000
0000
0000
0001
0000
0000
0100
0000
0000
0001
0000
0000
0000
0000
0000
0001
0000
0000
0100
0000
0000
0001
0000
0000
0000
0000
0000
,
1000
0010
0100
0001
0100
0010
1000
0010
0100
0001
0100
0010
,
1000
0000
0010
0000
0100
0000
0001
0000
0100
0000
0010
0000
1000
0100
0000
0000
0000
0000
0010
0001
0000
0000
0000
0000
,
2000
0000
0001
0001
0001
3001
0100
0010
,
2000
0000
3200
0320
0000
0000
0000
0000
,
0031
0100
0010
1000
0001
1000
0100
0010
0001
1000
0001
1000
0200
0000
0000
0000
,
0310
0001
0010
0001
1000
0010
1000
0010
0100
0010
0100
0010
1000
0001
1000
0001
,
0010
0000
0001
0000
1000
0100
0010
0000
0001
0000
0100
0000
0010
0100
0001
0000
,
0100
0000
0010
0000
1000
0001
0100
0000
0001
0000
0010
0000
0100
0010
0001
0000
,
1000
0000
0010
0000
0100
0001
1000
0000
0100
0000
0010
0000
0001
1000
0100
0000
,
0020
0000
0000
0000
0030
00M0
0000
0000
,
0001
0000
0100
0000
0010
0100
0001
0000
1000
0000
0100
0000
0010
0100
1000
0000
,
0001
0000
1000
0000
0001
0100
0010
0000
0100
0000
0010
0000
0100
0001
0010
0000
,
0200
0000
0000
0000
0000
0000
0320
0032
,
1003
0000
0010
0000
0100
0001
1000
0000
0010
0100
0010
0100
0001
1000
0001
1000
,
0100
0000
0010
0000
0001
1000
0100
0000
1000
0000
0010
0000
0100
0001
0010
0000
,
0100
0000
0010
0000
0001
1000
0010
0000
0100
0000
0001
0000
1000
0010
0100
0000
,
0001
0000
1000
0000
0001
0010
0100
0000
1000
0000
0010
0000
0100
0001
1000
0000
,
0010
0000
0100
0000
0001
1000
0100
0000
1000
0000
0001
0000
0010
0100
1000
0000
,
0001
0000
0100
0000
0010
0100
0001
0000
1000
0000
0100
0000
0010
0100
1000
0000
,
0001
0000
0100
0000
0010
0100
0001
0000
1000
0000
0001
0000
0010
0100
0010
0000
,
0002
0000
0000
0000
0000
0000
2003
3020
,
0130
0001
0100
0001
1000
0010
1000
0010
0100
0001
0100
0001
1000
0010
1000
0010
,
0100
0000
0001
0000
1000
0100
0010
0000
0001
0000
1000
0000
0010
0100
0001
0000
,
1000
0000
0100
0000
0010
0100
1000
0000
0001
0000
0100
0000
0010
0100
0001
0000
,
1000
0000
0100
0000
0010
0100
1000
0000
0001
0000
0100
0000
0010
1000
0100
0000
,
0010
0000
0001
0000
1000
0100
0010
0000
0001
0000
0100
0000
0010
1000
0001
0000
,
0010
0000
0001
0000
0100
0010
1000
0000
0001
0000
1000
0000
0100
0010
0001
0000
,
1000
0000
0010
0000
0100
0001
0010
0000
0100
0000
1000
0000
0001
0100
0010
0000
,
1000
0000
0001
0000
0010
0100
0010
0000
0001
0000
1000
0000
0010
0100
0001
0000
,
1000
0000
0100
0000
0010
0001
1000
0000
0001
0100
0010
1000
0001
0010
0001
1000
,
0200
0000
0310
0001
1000
0001
0200
0000
0310
1000
0001
1000
0100
0010
0001
1000
,
0020
0000
0130
0001
1000
0100
0020
0000
0130
1000
0001
0100
0010
1000
0001
1000
,
0200
0000
0310
0001
1000
0001
0200
0000
0310
0100
0001
1000
0100
0010
0001
1000
,
0200
0000
0310
0001
1000
0001
0200
0000
0310
1000
0001
1000
0100
0010
0001
1000
,
0020
0000
0130
0001
1000
0100
2000
0000
3001
0010
0100
1000
0001
0010
0001
1000
,
0002
0000
1003
0010
0100
0001
2000
0000
3001
0010
0100
1000
0001
0100
0001
1000
,
0010
0100
0010
0100
0010
0100
0010
0100
0010
0100
0010
0100
0010
0100
0010
0100
,
0010
1000
0010
1000
0010
1000
0001
0100
0001
1000
0100
0010
0001
1000
0001
0010
,
0100
1000
0001
0100
0010
1000
0001
0010
0100
1000
0001
0100
0010
1000
0001
0010
,
0100
1000
0001
1000
0000
0000
0100
1000
0001
1000
0000
0000
,
2002
0000
0000
0000
0000
0000
0000
0000
0000
0000
0000
0003
0000
0000
3000
0000
;
