#TITLE:Tendon;
#SUBTITLE:Beastiality Violation;
#ARTIST:Igorrr;
#TITLETRANSLIT:;
#SUBTITLETRANSLIT:;
#ARTISTTRANSLIT:;
#CREDIT:;
#BANNER:../BV - ban.png;
#BACKGROUND:../BV - bg.png;
#LYRICSPATH:;
#CDTITLE:;
#MUSIC:Tendon.ogg;
#OFFSET:0.000;
#SAMPLESTART:118.360;
#SAMPLELENGTH:12.000;
#SELECTABLE:YES;
#BPMS:0.000=232.000;
#STOPS:;
#BGCHANGES:;
// cache tags:
#FIRSTBEAT:0.000;
#LASTBEAT:624.000;
#SONGFILENAME:Songs/Beastiality Violation/Tendon - [Aoreo]/Tendon.SM;
#HASMUSIC:1;
#HASBANNER:1;
#MUSICLENGTH:166.551;
// end cache tags

//---------------dance-single - J. Nero----------------
#NOTES:
     dance-single:
     J. Nero:
     Challenge:
     18:
     1.000,1.000,0.198,0.144,1.000,1718.000,33.000,24.000,0.000,0.000:
1000
0100
0100
1000
0001
0001
0100
0010
,
0110
0100
0001
0010
0100
1000
0010
0100
,
0001
0000
1000
0000
0001
0100
0001
1000
0010
1000
0010
0100
0001
1000
0001
1000
,
0010
0000
0100
0001
0010
0001
0100
0000
0001
0000
1000
0010
0100
0010
1000
0000
,
0001
0100
0100
0001
1000
1000
0100
0010
,
0001
1000
0001
1000
0001
1000
0001
1000
0100
0000
0000
0000
1000
0000
0000
0000
,
0001
0010
0100
1000
0001
1000
0001
0010
0100
0010
0100
1000
0001
1000
0010
0100
,
0001
0100
0010
1000
0001
0100
0010
0100
0001
1000
0010
1000
0001
0100
0001
1000
,
0100
0000
1000
0000
0001
0000
0100
0000
0010
0100
0010
1000
0001
1000
0001
0100
,
0040
0000
0130
0000
0001
0000
1000
0000
0100
0010
0100
0010
0001
0000
1000
0000
,
0010
0000
0100
0001
0100
0010
1000
0000
0100
0000
1000
0000
0001
0000
0100
0000
,
0001
0100
0010
0100
0001
1000
0001
0010
0100
1000
0001
1000
0001
1000
0001
1000
,
0100
0000
1000
0001
0100
0001
0100
0000
0001
0000
0010
0001
0100
0000
0010
0000
,
1000
0000
0200
0000
0300
0000
1000
0000
0001
0000
0100
0010
0100
0001
1000
0000
,
0001
0100
0001
0100
0010
1000
0001
1000
0100
0000
0010
0000
0001
1000
0100
0000
,
1000
0100
1000
0001
0100
0001
0100
0010
2000
0000
3000
0000
0000
0000
0001
0100
,
0010
0000
0100
0000
0001
0000
1000
0000
0001
0100
0001
0100
0010
1000
0001
1000
,
0001
0000
1000
0000
0010
0000
0100
0000
0100
0000
0001
0000
0010
0000
0100
1000
,
0001
0000
0100
0000
0010
0000
1000
0000
1000
0000
0001
0000
0100
0001
0100
0010
,
1000
0001
1000
0001
0100
0000
0010
0000
0000
0000
0100
0000
0000
0000
0001
0000
,
1000
0000
0100
0000
1000
0000
0001
0100
0010
0100
0004
0000
0003
0000
0000
0000
,
2000
3000
0000
0000
0000
0000
0000
0000
0000
0000
0000
0000
0001
0000
0000
0000
0100
0000
0000
0000
0010
0000
0000
0000
0100
0000
0000
0000
0001
0000
0000
0000
,
1000
0000
0001
1000
0001
0100
0010
0100
0001
1000
0004
0000
0000
0003
0000
0000
,
2000
3000
0000
0000
0000
0000
0000
0000
0000
0000
0000
0000
0001
0000
0000
0000
0010
0000
0000
0000
0100
0000
0000
0000
1000
0000
0000
0000
0100
0000
0000
0000
,
1000
0000
0000
0000
0000
0000
0001
0000
0000
0000
0000
0000
0100
0000
0000
0000
0000
0000
0010
0000
0000
0000
0000
0000
0100
0000
0000
0000
0001
0000
0000
0000
0100
0000
0000
0000
0001
0000
0000
1000
0000
0000
0001
0000
0000
1000
0000
0000
,
0400
0000
0000
0300
0000
0000
1000
0000
0001
0010
0001
0010
0100
0000
1000
0000
,
0001
0000
1000
0000
0010
0100
0010
0000
1000
0000
0001
0000
0100
0000
0001
0000
,
1000
0100
0010
0100
0010
0001
1000
0001
1000
0010
0100
0001
0100
0010
1000
0001
,
1000
0000
0010
0100
0001
0100
0001
0000
1000
0000
0100
1000
0001
1000
0001
0100
,
0010
0100
0001
0000
1000
0000
0010
0000
0100
0000
0001
1000
0100
1000
0100
0000
,
0010
0001
1000
0001
1000
0010
0100
0001
0100
0000
0010
0000
1000
0000
0001
0000
,
4000
0000
0000
0000
0000
0000
0000
0000
0000
0000
0000
0000
0000
0000
3000
0000
0200
0300
0000
0000
0000
0000
0000
0000
0000
0000
0000
0000
1000
0000
0001
0000
,
0100
0000
0001
0000
0010
0000
0100
0000
1000
0100
1000
0001
0100
0001
1000
0010
,
0100
0000
0001
0100
0001
0000
1000
0000
0100
0000
1000
0000
0001
0000
0100
0010
,
1000
0000
0100
0000
0010
0000
0001
0000
1000
0000
0010
0000
0100
0001
0100
0010
,
1000
0001
1000
0100
0010
0000
0001
0000
0000
0000
0100
0000
0000
0000
0001
0000
,
1000
0000
0000
0000
0000
0000
0100
0000
0000
0000
0000
0000
1000
0000
0000
0001
0000
0000
0100
0000
0000
0001
0000
0000
0100
0000
0000
0010
0000
0000
4000
0000
0000
0000
0000
0000
0000
0000
0000
0000
0000
3000
0000
0000
0000
0000
0000
0000
,
0002
0003
0000
0000
0000
0000
0000
0000
0000
0000
0000
0000
0100
0000
0000
0000
0001
0000
0000
0000
1000
0000
0000
0000
0010
0000
0000
0000
0100
0000
0000
0000
,
0001
0000
0000
0000
0000
0000
1000
0000
0000
0000
0000
0000
0010
0000
0000
1000
0000
0000
0010
0000
0000
0100
0000
0000
0001
0000
0000
1000
0000
0000
0004
0000
0000
0000
0000
0000
0000
0000
0000
0000
0003
0000
0000
0000
0000
0000
0000
0000
,
2000
3000
0000
0000
0000
0000
0000
0000
0000
0000
0000
0000
0001
0000
0000
0000
0100
0000
0000
0000
0010
0000
0000
0000
0100
0000
0000
0000
0001
0000
0000
0000
,
0100
0001
0100
0001
1000
0010
1000
0010
0100
0001
0100
0001
1000
0010
0100
0001
,
0100
0001
1000
0100
0010
0100
0010
0001
1000
0001
1000
0100
0010
0001
1000
0001
,
1000
0001
0100
0010
0100
0001
1000
0001
0010
0100
1000
0001
1000
0100
0010
0001
,
1000
0010
0100
0010
1000
0001
0100
0001
1000
0010
0100
0001
1000
0001
0010
0100
,
1000
0000
0001
0000
,
0100
0000
0000
0000
0000
0000
0000
0000
0000
0010
0000
0000
1000
0000
0000
0000
0000
0000
0001
0000
0000
0000
1000
0000
,
0100
0000
1000
0001
0000
0100
0010
0000
0100
0001
0000
0010
,
0200
0300
0000
1000
0000
0001
0100
0000
0000
0010
0000
0000
,
0400
0300
0000
0001
0000
1000
0100
0000
0000
0010
0000
0000
,
0001
0000
0000
0000
0000
0000
0010
0000
0000
0000
0000
0000
0000
0000
0000
0000
0000
0000
0000
0000
0000
0000
0000
0000
0000
0000
0000
0000
0000
0000
0000
0000
0000
0000
0000
0000
0000
0000
0000
0000
0000
0000
0000
0000
0000
0000
0000
0000
0001
0000
0000
0000
0000
0000
0000
0000
0000
0000
0000
0000
0000
0000
0000
0000
1000
0000
0000
0000
0000
0000
0000
0000
0000
0000
0000
0000
0000
0000
0000
0000
0100
0000
0000
0000
0000
0000
0000
0000
0000
0000
0000
0000
0000
0000
0000
0000
1000
0000
0000
0000
0000
0000
0000
0000
0000
0000
0000
0000
0000
0000
0000
0000
0000
0000
0000
0000
0000
0000
0000
0000
0000
0000
0000
0000
0000
0000
0000
0000
0000
0000
0000
0000
0000
0000
0000
0000
0000
0000
0000
0000
0000
0000
0000
0000
0001
0000
0000
0000
0000
0000
0000
0000
0000
0000
0000
0000
0000
0000
0000
0000
0000
0000
0000
0000
0000
0000
0000
0000
0000
0000
0000
0000
0000
0000
0000
0000
0000
0000
0000
0000
0000
0000
0000
0000
0000
0000
0000
0000
0000
0000
0000
0000
,
1000
0100
0010
0100
1000
0001
0100
0010
,
0100
0000
0001
0000
1000
0000
0001
0000
1000
0001
1000
0001
0010
0100
1000
0001
,
2000
0000
3000
0000
0000
0000
0000
0000
0002
0000
0000
0003
0000
0000
0000
0000
,
0200
0000
0301
1000
0100
1000
0000
0000
,
0001
0100
0010
1000
0100
0010
0001
0100
0010
1000
0100
0010
,
0001
1000
0010
0100
0001
0100
0010
1000
0001
1000
0100
0010
,
0002
0000
0003
0000
0000
1000
0100
1000
0010
0100
0001
0010
,
0100
0000
0000
1000
0100
1000
0001
0100
0010
0100
0001
1000
,
0001
0100
0010
0000
0100
0000
0001
0000
,
2002
0000
0000
0000
,
0000
0000
0000
3003
0000
0000
0000
0000
,
0000
0000
0000
0000
,
1000
0100
1000
0001
0100
0001
1000
0010
0100
0000
0000
0000
0000
0000
0001
0000
,
1000
0000
0000
0000
0100
1000
0010
0100
0001
0100
0001
1000
0010
0100
0010
0100
,
0001
0000
0100
0010
0000
1000
0100
0000
1000
0001
0100
0010
,
0100
0001
0100
0001
1000
0010
0100
0001
2000
0000
0000
0000
3000
0000
0000
0000
,
0002
0000
0000
0003
1000
0100
1000
0001
0100
0000
0000
0000
0010
0000
0100
0000
,
0001
0000
0000
0000
1000
0010
1000
0100
0010
0001
1000
0001
1000
0010
0100
0001
,
0100
0000
0010
0100
0000
0001
1000
0000
0100
0010
0001
1000
,
0001
0000
0010
0000
0100
0000
1000
0000
0001
0000
1000
0000
,
0001
0000
0000
0100
0000
0000
0010
0000
0000
0100
0000
0000
0001
0000
0000
1000
0000
0000
0001
0000
0000
1000
0000
0000
0100
0000
0000
0000
0000
0000
0000
0000
0000
0000
0000
0000
1000
0000
0000
0000
0000
0000
0000
0000
0001
0000
0000
0000
,
0200
0000
0000
0000
0000
0000
0000
0000
0301
1000
0001
0010
0100
1000
0001
1000
,
0002
0000
0000
0000
0000
0013
0100
0000
1000
0001
0100
0010
,
0200
0000
0000
0000
0000
0300
0002
0000
0000
0000
0003
0000
,
1001
0000
0000
0000
0000
0000
1000
0000
0000
0000
0000
0000
0100
0000
0000
1000
0000
0000
0001
0000
0000
0100
0000
0000
0040
0000
0000
0000
0000
0000
0000
0000
0000
0030
0000
0000
0400
0000
0000
0300
0000
0000
0000
0000
0001
0000
0000
0000
,
1000
0000
0100
1000
0000
0001
0100
0010
1000
0001
0010
0100
,
2000
0000
0000
0000
,
0000
0000
0000
0000
,
0000
0000
0000
0000
,
0000
0000
0000
3000
,
0001
0100
0001
1000
0010
0100
0010
1000
0001
0100
0001
1000
0010
0100
0010
1000
,
0001
0100
0001
1000
0010
0100
0001
0100
0010
1000
0010
0100
0001
0100
0001
1000
,
0001
0010
0100
1000
0001
0010
0100
0010
0001
1000
0100
0010
0001
1000
0100
0010
,
0100
1000
0001
0010
0100
1000
0001
0010
0001
1000
0100
1000
0001
0010
0100
1000
,
0001
1000
0010
1000
0010
0100
0001
1000
0001
0100
0010
1000
0001
0100
0001
0100
,
0010
1000
0001
1000
0010
0100
0010
1000
0001
1000
0010
0100
0001
1000
0001
1000
,
0100
0010
0001
1000
0001
1000
0100
0010
0001
1000
0010
0100
0001
1000
0001
0010
,
0100
1000
0001
0100
0010
1000
0001
1000
0100
0010
0001
1000
0010
0100
0001
1000
,
0010
0100
0010
1000
0001
1000
0001
0100
0010
0100
0001
1000
0010
1000
0001
0100
,
0010
1000
0010
0100
0001
0100
0010
1000
0010
1000
0001
0100
0001
0100
0010
1000
,
0001
1000
0100
0010
0001
1000
0001
0010
0100
0010
0001
1000
0100
1000
0001
0010
,
0001
1000
0100
0010
0001
1000
0100
0010
0100
1000
0001
0010
0100
1000
0001
1000
,
0001
1000
0001
0100
0010
0100
0001
1000
0001
1000
0010
0100
0001
0100
0001
1000
,
0010
0100
0010
1000
0001
0100
0001
1000
0001
0100
0010
0100
0001
0100
0010
1000
,
0001
1000
0001
0010
0100
1000
0001
0010
0001
1000
0010
0100
0001
1000
0001
0010
,
0100
1000
0001
0100
0010
1000
0001
0100
0001
1000
0100
0010
0001
1000
0010
0100
,
0001
1001
1100
0110
,
0011
1001
1010
0110
,
0101
0000
0000
0000
1001
0000
0000
0000
1000
0100
1000
0001
0100
0000
0010
0000
,
0100
0101
1001
1100
,
0110
0011
1001
1010
,
0110
0000
0000
0000
0101
0000
0000
0000
0001
1000
0100
1000
0001
0000
0000
0000
,
0101
0110
1010
1001
,
0101
0000
0000
0000
1010
0000
0000
0000
1000
0001
0100
0001
0100
0010
1000
0010
,
0100
0001
0100
0001
0010
0100
1000
0001
1000
0100
0010
0001
1000
0001
1000
0010
,
0100
0001
0010
0100
0010
0001
1000
0100
,
1000
0000
0010
0000
0100
0000
0001
0000
1000
0100
1000
0100
0010
0000
0001
0000
,
1000
0100
1000
0100
0010
0000
0001
0000
0100
0001
0100
0001
1000
0010
0100
0001
,
0100
0010
1000
0001
1000
0010
0100
0001
1000
0010
0100
0010
0100
0000
0001
0000
,
1000
0010
0100
0010
0100
0000
0001
0000
1001
0000
1000
0000
0010
0000
0100
0000
,
0101
0000
0001
0000
1000
0000
0100
0000
1000
0100
1000
0100
0010
0000
0001
0000
,
1000
0100
1000
0100
0010
0000
0001
0000
0100
0001
0100
0010
1000
0001
1000
0010
,
0100
0001
0100
0001
1000
0010
0100
0001
1000
0000
0001
0000
0010
0000
0100
0000
,
1100
1000
0001
0100
0101
0001
1000
0010
,
0110
0000
0100
0000
0001
0000
1000
0000
0001
0100
0001
0100
0010
0000
1000
0000
,
0001
0100
0001
0100
0010
0000
1000
0000
0001
0100
0001
1000
0010
0100
0010
1000
,
0001
1000
0001
0010
0100
1000
0001
1000
0010
0100
0010
0100
0001
0000
1000
0000
,
0010
0100
0010
0100
0001
0000
1000
0000
0002
0000
0000
0000
0000
0000
0003
0000
,
1000
0100
1000
0001
0100
0001
1000
0010
0100
0010
0100
0001
1000
0001
1000
0010
,
0100
0010
0100
0001
1000
0001
0010
0100
0010
0100
1000
0001
1000
0001
0010
0100
,
1000
0000
0000
0001
0000
0000
1000
0000
0000
0001
0000
0000
0100
0000
0000
0010
0000
0000
0100
0000
0000
0001
0000
0000
1000
0000
0000
0000
0100
0000
0000
0000
0010
0000
0000
0000
0100
0000
0000
0000
1000
0000
0000
0000
0001
0000
0000
0000
,
0100
0010
0100
0001
1000
0001
0010
0100
1000
0001
0100
0010
,
0100
0000
0000
0000
0001
0000
0000
0000
0010
0000
0000
0000
0100
0000
0000
0000
1000
0000
0000
0000
0001
0000
0000
0000
0100
0000
0000
0001
0000
0000
0100
0000
0000
0001
0000
0000
1000
0000
0000
0010
0000
0000
1000
0000
0000
0010
0000
0000
,
0100
0001
0100
0010
1000
0001
1000
0010
0100
0001
0100
0010
1000
0001
0100
0010
,
1000
0010
0100
0001
0100
0001
1000
0010
0100
0010
0100
0001
1000
0001
1000
0010
,
0100
0001
0100
0010
1000
0001
1000
0001
0100
0010
0100
0010
1000
0001
0100
0001
,
1000
0010
0100
0001
1000
0001
1000
0010
0100
0001
1000
0100
0010
0100
0010
0001
,
1000
0001
1000
0100
0010
0001
1000
0001
1000
0100
0010
0001
1000
0001
1000
0100
,
1000
0001
0010
0001
1000
0001
0010
0100
1000
0001
1000
0001
0010
0100
0010
0100
,
1000
0100
1000
0001
0100
0010
0100
0001
0010
0100
1000
0001
1000
0010
0100
0010
,
1000
0001
0100
0010
0100
0001
1000
0001
0100
0010
0100
0001
1000
0010
1000
0001
,
0100
0001
0100
0010
1000
0010
0100
0001
1000
0001
0100
0010
1000
0010
0100
0001
,
1000
0010
0100
0001
0100
0010
1000
0010
1000
0001
0100
0010
0100
0010
1000
0001
,
1000
0001
0100
0010
1000
0010
0100
0001
1000
0001
1000
0010
0100
0010
0100
0001
,
1000
0010
1000
0001
0100
0010
1000
0001
1000
0001
0100
0010
1000
0001
0010
0100
,
0010
0100
1000
0001
1000
0001
0010
0100
1000
0001
1000
0001
0010
0100
1000
0001
,
1000
0001
0010
0001
1000
0100
1000
0001
1000
0100
0010
0001
1000
0001
1000
0100
,
0010
0100
0010
0001
0010
0001
1000
0010
0100
0010
1000
0100
0010
0001
1000
0001
,
0100
0010
0100
0001
1000
0010
0100
0010
1000
0001
1000
0001
0100
0010
0100
0001
,
1000
0001
1000
0010
0100
0001
0100
0001
1000
0010
1000
0010
0100
0001
1000
0001
,
1000
0100
0010
0100
0010
0001
1000
0001
1000
0100
0010
0100
0010
0001
1000
0001
,
1000
0010
0100
0001
0100
0010
1000
0001
1000
0100
1000
0010
0100
0001
0100
0010
,
1000
0001
0100
0010
0100
0001
1000
0001
0010
0100
1000
0001
1000
0100
0010
0001
,
1000
0010
0100
0010
0100
0001
1000
0001
0010
0100
0010
0100
1000
0001
1000
0100
,
1000
0001
0100
0010
0100
0001
1000
0001
0010
0100
1000
0001
1000
0010
0100
0001
,
1000
0100
0010
0100
1000
0001
1000
0010
0200
0000
0000
0000
0000
0000
0000
0000
,
0000
0000
0000
0000
0300
0000
0000
0000
0010
1000
0010
1000
0001
0100
0001
0100
,
0010
1000
0010
0100
0001
1000
0001
0100
0010
1000
0010
0100
0001
1000
0010
0100
,
0001
0100
0010
1000
0010
1000
0001
0100
0010
0100
0010
1000
0001
1000
0001
0100
,
0010
1000
0010
0100
0001
1000
0001
1000
0010
0100
0010
0100
0001
1000
0010
1000
,
0001
0100
0010
1000
0001
1000
0001
0100
0010
1000
0001
0010
0100
0010
0100
1000
,
0001
1000
0001
0010
0100
1000
0001
1000
0001
0010
0100
1000
0001
1000
0001
0010
,
0001
1000
0100
1000
0001
1000
0100
0010
0001
1000
0001
1000
0100
0010
0100
0010
,
0001
0010
0001
1000
0010
0100
0010
1000
0100
0010
0001
1000
0001
0100
0010
0100
,
0001
1000
0010
0100
0010
1000
0001
1000
0002
0000
0000
0000
0000
0000
0000
0000
,
0000
0000
0000
0000
,
0003
0000
0000
0000
;
